
//----- song ID: edsm -----//
#TITLE:Electric Dance System Music;
#ARTIST:U1 overground;
#BANNER:Electric Dance System Music.png;
#BACKGROUND:Electric Dance System Music-bg.png;
#CDTITLE:./CDTitles/DDR A.png;
#MUSIC:Electric Dance System Music.ogg;
#SAMPLESTART:90.931;
#SAMPLELENGTH:15;
#BPMS:0=140;
#STOPS:97.938=0.857,173.938=1.714;
#NOTES:
     dance-single:
     :
     Beginner:
     2:
     :
0000
0000
0000
0000
,
0000
0000
0000
0000
,
0000
0000
0000
0000
,
0000
0000
0000
0000
,
0000
0000
0000
0000
,
0001
0000
0001
0000
,
1000
0000
1000
0000
,
0001
0000
0001
0000
,
0010
0000
0010
0000
,
0001
0000
1000
0000
,
0001
0001
0001
0000
,
1000
0000
0001
0000
,
1000
1000
1000
0000
,
0001
0000
0010
0000
,
0001
0001
0001
0000
,
1000
0000
0010
0000
,
1000
1000
1000
0000
,
0001
0000
0100
0000
,
0001
0000
0001
0000
,
1000
0000
0100
0000
,
1000
0000
1000
0000
,
0010
0000
0100
0000
,
0010
0000
0010
0000
,
0100
0000
0010
0000
,
0100
0000
0000
0000
,
0001
0000
0000
0000
,
1001
0000
0000
0000
,
1000
0000
0000
0000
,
1001
0000
0000
0000
,
0010
0000
0000
0000
,
0100
0000
0001
0000
,
1001
0000
1000
0000
,
1001
0000
1000
0000
,
0001
0000
1000
0000
,
1000
0000
0001
0000
,
1000
0000
0001
0000
,
0002
0000
0000
0000
,
0000
0000
0000
0000
,
0000
0000
0000
0000
,
0003
0000
1000
0000
,
0010
0000
0001
0000
,
0010
0000
1000
0000
,
0001
0000
2000
0000
,
0002
0000
3003
0000
,
0000
0000
0000
0000
,
0000
0000
0000
0000
,
0000
0000
0000
0000
,
0000
0000
1000
0000
,
0001
0000
0100
0000
,
0001
0000
1000
0000
,
0100
0000
1000
0000
,
0001
0000
1000
1000
,
1000
0000
0001
0000
,
0001
0000
0010
0000
,
0010
0000
1000
0000
,
1000
0000
0001
0001
,
0001
0000
1000
0000
,
1000
0000
0010
0000
,
0010
0000
0001
0000
,
0001
0000
1000
0000
,
0000
0000
0000
0000
;
#NOTES:
     dance-single:
     :
     Easy:
     5:
     :
0000
0000
0000
0000
,
0000
0000
0000
0000
,
0000
0000
0000
0000
,
0000
0000
0000
0000
,
0000
0000
0000
0000
,
0001
0001
1000
0001
,
1000
1000
0100
1000
,
0100
0100
0010
0001
,
0010
0010
0001
0010
,
0001
1000
0001
1000
,
0001
0001
1001
0000
,
1000
0001
1000
0001
,
1000
1000
1001
0000
,
0001
0010
0001
0010
,
0001
0001
1001
0000
,
1000
0010
1000
0010
,
1000
1000
1001
0000
,
0100
1000
0100
1000
,
0100
0010
0001
0010
,
0100
1000
0100
1000
,
0010
0100
0001
0000
,
0001
0010
0001
0010
,
0100
1000
0100
1000
,
0001
1000
0001
0010
,
0001
0001
0000
0000
,
1001
0000
0100
0100
,
0110
0000
1000
0000
,
0110
0000
0001
0001
,
1001
0000
1000
0000
,
1001
0000
0100
0100
,
0110
0000
0010
0000
,
0110
0000
1000
1000
,
1001
0000
1000
0010
,
1000
0010
0100
0001
,
0100
0001
1000
0001
,
1000
0010
1000
1000
,
1002
0000
0000
0000
,
1000
0000
0000
0000
,
1000
0000
0000
0000
,
1003
0000
0001
0000
,
1000
0000
0001
1000
,
0001
1000
0001
0001
,
0001
0001
1000
1000
,
2000
0002
3003
0000
,
0000
0000
0000
0000
,
0000
0000
0000
0000
,
0000
0000
0000
0000
,
0000
0000
1000
1000
,
0001
1000
0001
0001
,
0100
0001
0100
0100
,
0010
1000
0010
0010
,
1000
0010
0001
0010
,
1000
0000
0010
0100
,
0001
0100
1000
0100
,
0001
0000
1000
0001
,
1000
0001
1000
0100
,
0001
0000
0100
1000
,
0100
1000
0010
0100
,
0010
0000
1000
0001
,
1000
1000
0010
0000
,
0000
0000
0000
0000
;
#NOTES:
     dance-single:
     :
     Medium:
     10:
     :
0000
0000
0000
0000
,
0000
0000
0000
0000
,
0000
0000
0000
0000
,
0000
0000
0000
0000
,
0000
0000
0000
0000
,
0001
0000
0100
0000
0001
0100
0010
0000
,
0010
0000
1000
0000
0100
1000
0010
0000
,
1000
0100
1000
0000
0100
0010
1000
0000
,
0010
0001
0100
0000
0001
0100
1000
0000
,
1000
0100
0001
0000
0100
0001
0010
0000
,
0001
0010
0001
0010
0200
0000
0300
0000
,
0001
0100
1000
0000
0100
1000
0010
0000
,
1000
0100
1000
0100
0020
0000
0030
0000
,
0001
0010
1000
0000
0010
0001
0100
0000
,
0001
0100
0001
0100
0020
0000
0030
0000
,
0001
0010
1000
0000
0010
1000
0100
0000
,
1000
0010
1000
0010
0200
0000
0300
0000
,
0001
0000
0020
0000
1030
0001
0100
0000
,
1000
0000
0002
0000
0013
1000
0001
0000
,
0100
0000
2000
0000
3001
0010
1000
0000
,
0001
0000
0200
0000
1300
0010
0001
0000
,
1000
0000
0200
0000
0301
1000
0010
0000
,
0001
0000
2000
0000
3100
0001
1000
0000
,
0010
0000
0002
0000
1003
0100
0001
0000
,
1000
0020
1030
1000
,
0110
0000
0001
0000
1000
0100
0010
0001
,
0010
0000
1100
0000
0010
0100
1000
0100
,
0010
0000
0101
0000
0010
0001
0010
0100
,
1000
0110
0001
1000
,
1001
0000
0110
0000
0001
0010
1000
0001
,
0100
0000
1010
0000
1000
0100
0001
1000
,
0010
0000
0101
0000
0010
0100
1000
0100
,
0010
0000
1001
0000
1000
0100
0001
0000
,
0100
1000
0010
0000
1000
0010
1000
0010
,
0100
0001
0100
0000
0001
0100
1000
0000
,
0100
0001
0010
0000
0001
0010
0001
0010
,
0200
0000
0001
0000
,
0010
0000
1000
0000
,
0010
0000
1000
0010
,
1300
0011
1000
0011
,
1000
0011
1000
0101
,
1010
0101
1010
0011
,
0101
0000
0110
0000
0010
1000
0001
1000
,
0010
1000
0100
2000
3001
0000
0001
0000
,
1000
0100
0010
0000
0010
0000
0001
0000
,
0100
0001
0010
0000
0001
0100
0001
0000
,
0100
0010
0001
0000
0010
1000
0100
0000
,
1000
0100
0001
0000
0100
0000
1000
0000
,
0001
0100
0010
0000
0010
0000
1000
0000
,
0100
1000
0010
0000
1000
0100
1000
0000
,
0100
0010
1000
0000
0010
0001
0100
0000
,
0001
0100
1000
0000
0100
0001
0010
0001
,
0100
0000
0110
0000
1000
0010
0100
0000
,
0100
0010
1000
0000
0001
0010
0100
0000
,
0100
0010
0001
0000
1000
0001
0010
0100
,
1000
0100
0001
0000
0100
1000
0010
1000
,
0100
0000
0110
0000
0001
0010
0100
0000
,
0100
0010
0001
0000
1000
0010
0100
0000
,
0100
0010
1000
0000
0001
0010
0100
1000
,
0100
0010
0001
0100
0010
0000
0000
0000
,
0000
0000
0000
0000
;
#NOTES:
     dance-single:
     :
     Hard:
     14:
     :
0000
0000
0000
0000
,
0000
0000
0000
0000
,
0000
0000
0000
0000
,
0000
0000
0000
0000
,
0000
0000
0000
0000
,
1001
0000
0000
0000
0011
0000
0000
0000
0010
0000
0000
0010
0001
0000
0010
0000
,
1000
0010
0001
0100
0001
0010
0001
1000
,
0001
0100
1000
0100
0001
0010
0001
0100
,
0001
0010
1000
0010
0001
0100
0001
0010
,
0001
0000
1000
0000
0010
0100
0000
1000
0100
0000
0010
0000
0100
0001
0000
0010
,
0001
0000
0100
0000
0010
1000
0010
1000
0100
0000
0010
0000
0001
0000
0000
0000
,
1000
0000
0001
0000
0010
0100
0000
0001
0100
0000
0010
0000
0100
1000
0000
0010
,
1000
0000
0100
0000
0010
0001
0010
0001
0100
0000
0010
0000
1000
0000
0000
0000
,
0001
0000
0010
0000
0100
0010
0000
1000
0010
0000
0001
0000
0100
0010
0000
0001
,
0010
0000
1000
0000
0100
1000
0100
1000
0001
0000
0010
0000
0100
0000
0000
0000
,
1000
0000
0010
0000
0100
0010
0000
0001
0010
0000
1000
0000
0100
0010
0000
1000
,
0010
0000
0001
0000
0100
0001
0100
0001
1000
0000
0010
0000
0100
0000
0000
0000
,
0010
0000
0100
0000
0001
0010
0000
1000
0001
0000
0100
0000
0010
0001
0000
1000
,
0010
0000
0100
0001
0000
0100
1000
0000
0100
0000
0001
0000
0010
0001
0010
0001
,
0010
0000
0100
0000
1000
0010
0000
0001
1000
0000
0100
0000
0010
1000
0000
0001
,
0010
0000
0100
1000
0000
0100
0001
0000
0100
0000
1000
0000
0010
1000
0010
1000
,
0001
0000
1000
0000
0010
0001
0000
0010
0100
0000
0001
0000
0010
0100
0000
1000
,
0100
0000
0001
0100
0000
0010
0100
0000
1000
0000
0010
0000
0100
0001
0100
0010
,
1000
0000
0001
0000
0010
1000
0000
0010
0100
0000
1000
0000
0010
0100
0000
0001
,
0100
0000
1000
0100
0000
0010
0100
0000
0001
0000
0010
0000
0100
0000
0010
0000
,
0001
0000
0000
1000
0000
0000
0100
0000
0000
1000
0000
0000
0001
0000
0100
0000
0010
0000
0100
0000
0001
0000
1000
0000
,
0001
0000
0000
0011
0000
0000
1000
0100
0010
0100
1000
0001
,
1000
0000
0000
0000
0000
0000
0010
0000
0000
0100
0000
0000
0001
0000
0000
0100
0000
0000
1000
0000
0100
0000
0001
0000
,
0100
0000
0010
0000
1000
0010
1000
0010
1000
0000
0100
0000
0010
0001
0010
0001
,
0010
0000
0000
0100
0000
0000
1000
0000
0000
0001
0000
0000
0100
0000
0001
0000
0010
0000
0100
0000
0010
0000
0001
0000
,
1000
0000
0000
0010
0000
0000
1000
0000
0000
0001
0000
0000
0100
0000
1000
0000
0100
0000
0001
0000
0010
0000
0001
0000
,
1000
0000
0000
0001
0000
0000
0010
0000
0000
1000
0000
0000
0010
0000
0001
0000
0010
0000
0100
0000
1000
0000
0010
0000
,
1000
0000
0001
0000
0100
0001
0100
0001
0010
0000
0100
0000
1000
0010
0000
0001
,
1000
0000
0100
0000
0010
1000
0000
0001
0010
0000
0100
1000
0000
0100
0001
0000
,
0100
0000
1000
0000
0010
1000
0010
1000
0010
0000
0100
0000
0001
0010
0000
1000
,
0001
0000
0100
0000
0010
0001
0000
1000
0010
0000
0100
0001
0000
0100
1000
0000
,
0200
0000
0000
0000
0000
0000
0000
0000
0310
0000
1000
0000
0100
1000
0000
0100
,
0010
0000
0000
0000
0000
0000
0000
0000
0100
0000
0010
0000
0001
0010
0000
0001
,
1000
0000
0000
0000
0000
0000
0000
0000
0010
0000
0001
0000
0010
0001
0000
0010
,
0001
0000
0010
0000
1000
0010
0000
1000
0010
0000
1000
0000
0100
1000
0000
0100
,
1000
0000
0100
0000
0001
0100
0000
0001
0100
0000
0010
0000
0001
0000
0100
0000
,
0010
0001
0100
0001
0010
0100
1000
0100
,
0010
0000
1000
0000
0100
0000
0010
0000
0001
0010
0001
0010
0100
1000
0100
0010
,
0100
1000
0010
0100
0001
1000
0100
0020
0031
0000
0000
0000
1001
0000
0000
0000
,
0010
0000
0000
0010
0001
0000
0010
0000
1000
0000
0010
0000
0001
0000
0100
0000
,
0001
0010
0001
1000
0001
0100
1000
0100
,
0001
0010
0001
0100
0001
0010
1000
0010
,
0001
0100
0001
0010
0001
0000
1010
0000
,
0010
0000
0000
0010
1000
0000
0010
0000
0001
0000
0010
0000
1000
0000
0100
0000
,
1000
0010
1000
0001
1000
0100
0001
0100
,
1000
0010
1000
0100
1000
0010
0001
0010
,
1000
0000
0100
0000
1000
0000
0010
0000
1000
0100
0010
0100
1000
0001
0010
0001
,
0100
0000
0000
0100
0010
0000
1000
0000
0100
0000
0010
0000
0001
0000
0010
0000
,
0100
0000
1000
0000
0010
0100
0010
0100
0010
0000
0100
0000
0001
0000
0010
0000
,
0001
0000
0100
0000
1000
0100
1000
0100
1000
0000
0100
0000
0001
0000
1000
0000
,
0100
0000
1000
0000
0001
0000
1000
0000
0001
0100
0010
0100
0001
1000
0010
1000
,
0100
0000
0000
0100
0010
0000
0001
0000
0100
0000
0010
0000
0001
0000
0010
0000
,
0100
0000
0001
0000
0010
0100
0010
0100
0010
0000
0100
0000
1000
0000
0100
0000
,
0010
0000
0001
0000
0100
0010
0100
0010
0100
0000
0010
0000
0001
0000
0010
0000
,
0100
0000
0001
0000
1000
0100
1000
0100
0010
0000
0000
0000
0000
0000
0000
0000
,
0000
0000
0000
0000
;
#NOTES:
     dance-double:
     :
     Easy:
     6:
     :
00000000
00000000
00000000
00000000
,
00000000
00000000
00000000
00000000
,
00000000
00000000
00000000
00000000
,
00000000
00000000
00000000
00000000
,
00000000
00000000
00000000
00000000
,
00001000
00001000
00010000
00001000
,
00100000
00100000
00010000
00100000
,
00010000
00010000
01000000
00010000
,
00100000
00100000
00001000
00010000
,
00001000
00010000
00001000
00010000
,
00001000
00000010
00001001
00000000
,
00001000
00000001
00001000
00000001
,
00000010
00001000
00011000
00000000
,
00010000
00001000
00010000
00001000
,
00010000
00100000
10010000
00000000
,
00010000
10000000
00010000
10000000
,
00100000
00010000
00011000
00000000
,
00001000
00000010
00001000
00000010
,
00000001
00000001
00001000
00000100
,
00001000
00000010
00001000
00000010
,
00010000
00001000
00011000
00000000
,
00010000
00100000
01000000
00100000
,
00010000
00100000
01000000
00100000
,
00010000
00001000
00010000
00001000
,
00000010
00000010
00000000
00000000
,
00001001
00000000
00000100
00000100
,
00000110
00000000
00001000
00000000
,
00011000
00000000
01000000
01000000
,
01100000
00000000
00010000
00000000
,
00011000
00000000
00001000
00001000
,
00001001
00000000
00001000
00000000
,
00011000
00000000
00010000
00010000
,
10010000
00000000
10000000
00100000
,
01000000
00100000
10000000
00100000
,
01000000
00100000
00010000
00001000
,
00010000
00100000
10000000
10000000
,
10020000
00000000
00000000
00000000
,
10000000
00000000
00000000
00000000
,
10000000
00000000
00000000
00000000
,
10030000
00000000
00010000
00000000
,
00100000
00000000
00001000
00010000
,
00001000
00010000
00000100
00000100
,
00000100
00000100
00000010
00000010
,
00000002
00002000
00003003
00000000
,
00000000
00000000
00000000
00000000
,
00000000
00000000
00000000
00000000
,
00000000
00000000
00000000
00000000
,
00000100
00001000
00010000
00010000
,
00001000
00010000
00000010
00000010
,
00001000
00000010
00001000
00001000
,
00000100
00001000
00000010
00000010
,
00010000
00001000
00010000
00100000
,
00010000
00000000
00001000
00100000
,
00010000
00100000
01000000
00100000
,
01000000
00000000
10000000
00010000
,
10000000
00010000
10000000
01000000
,
00010000
00000000
00001000
00010000
,
00001000
00010000
00000010
00001000
,
00000010
00000000
00010000
00001000
,
00010000
00010000
00000100
00000000
,
00000000
00000000
00000000
00000000
;
#NOTES:
     dance-double:
     :
     Medium:
     10:
     :
00000000
00000000
00000000
00000000
,
00000000
00000000
00000000
00000000
,
00000000
00000000
00000000
00000000
,
00000000
00000000
00000000
00000000
,
00000000
00000000
00000000
00000000
,
00010000
00000000
00010000
00000000
00001000
00010000
00100000
00000000
,
00100000
00000000
10000000
00000000
00100000
00010000
00001000
00000000
,
00000100
00000010
00000100
00000000
00000001
00000100
00001000
00000000
,
00000100
00001000
00010000
00000000
00100000
01000000
00100000
01000000
,
00001000
00010000
00000100
00000000
00001000
00000010
00000100
00000000
,
00000001
00000010
00000001
00000010
00000200
00000000
00000300
00000000
,
00000001
00000100
00001000
00000000
00000100
00001000
00000010
00000000
,
00001000
00000100
00001000
00000100
00000020
00000000
00000030
00000000
,
00000001
00000010
00001000
00000000
00000010
00000001
00000100
00000000
,
00001000
00010000
00001000
00010000
00200000
00000000
00300000
00000000
,
10000000
00100000
00010000
00000000
00100000
10000000
01000000
00000000
,
00010000
00001000
00010000
00001000
00000020
00000000
00000030
00000000
,
00000001
00000000
00000020
00000000
00001030
00000001
00000100
00000000
,
00001000
00000000
00000002
00000000
00000013
00001000
00000001
00000000
,
00000100
00000000
00002000
00000000
00003001
00000010
00001000
00000000
,
00000001
00000100
00000010
00001000
00010000
01000000
00100000
00000000
,
00100000
00000000
20000000
00000000
30100000
00010000
10000000
00000000
,
01000000
00000000
00020000
00000000
10030000
00100000
00010000
00000000
,
00001000
00000000
00020000
00000000
10030000
01000000
00010000
00000000
,
00001000
00020000
00031000
01000000
,
00010000
00000000
10000000
00000000
10000000
01000000
00100000
00010000
,
00100000
00000000
01010000
00000000
00001000
00010000
00100000
00010000
,
00001000
00000000
00001100
00000000
00000010
00000001
00000010
00000100
,
00001000
00000110
00000001
00001000
,
00010000
00000000
00001000
00000000
00000001
00000100
00000010
00001000
,
00000010
00000000
00001100
00000000
00010000
00001000
00000010
00001000
,
00010000
00000000
01010000
00000000
00100000
10000000
00100000
01000000
,
00010000
00000000
01100000
00000000
10000000
00100000
00010000
00000000
,
00100000
10000000
01000000
00000000
00010000
00001000
00010000
00001000
,
00000010
00000001
00000010
00000000
00000001
00000010
00001000
00000000
,
00000010
00000001
00000100
00000000
00001000
00010000
00001000
00010000
,
00200000
00000000
10000000
00000000
,
01000000
00000000
00010000
00000000
,
01000000
00000000
00310000
00100000
,
00010000
00001010
00010000
00001010
,
00010000
00001010
00010000
00001100
,
00000110
00000000
00000011
00000000
00000001
00000100
00000001
00000100
,
00000010
00001000
00000010
00001000
00000100
00010000
00000100
00010000
,
00001000
00010000
00000010
00002000
00003001
00000000
00000001
00000000
,
00001000
00000100
00000010
00000000
00000010
00000000
00000001
00000000
,
00000010
00001000
00010000
00000000
01000000
00100000
01000000
00000000
,
10000000
01000000
00010000
00000000
01000000
00010000
00001000
00000000
,
00000010
00000100
00000010
00000000
00000001
00000000
00000100
00000000
,
00001000
00000100
00000010
00000000
00000010
00000000
00000001
00000000
,
00000010
00001000
00010000
00000000
01000000
00100000
01000000
00000000
,
10000000
01000000
00010000
00000000
01000000
00010000
00001000
00000000
,
00000010
00000100
00000010
00000000
00010000
00001000
00100000
00001000
,
00010000
00000000
00011000
00000000
00001000
00010000
00100000
00000000
,
00100000
00010000
00001000
00000000
00010000
00001000
00000010
00000000
,
00000010
00001000
00010000
00000000
01000000
10000000
01000000
00100000
,
00010000
00001000
00000100
00000000
00010000
00001000
00010000
00000010
,
00010000
00000000
00011000
00000000
00010000
00001000
00000010
00000000
,
00000010
00001000
00010000
00000000
00001000
00010000
00100000
00000000
,
00100000
00010000
00001000
00000000
00000100
00000001
00000100
00000010
,
00001000
00010000
01000000
00100000
00010000
00000000
00000000
00000000
,
00000000
00000000
00000000
00000000
;
#NOTES:
     dance-double:
     :
     Hard:
     14:
     :
00000000
00000000
00000000
00000000
,
00000000
00000000
00000000
00000000
,
00000000
00000000
00000000
00000000
,
00000000
00000000
00000000
00000000
,
00000000
00000000
00000000
00000000
,
00101000
00000000
00000000
00000000
00110000
00000000
00000000
00000000
00100000
00000000
00000000
00100000
00010000
00000000
00100000
00000000
,
10000000
00100000
00010000
01000000
00010000
00001000
00000010
00001000
,
00000100
00000001
00000100
00001000
00010000
00100000
10000000
00100000
,
00010000
01000000
10000000
01000000
00010000
00001000
00000010
00001000
,
00000001
00000000
00001000
00000000
00000010
00000100
00000000
00001000
00000100
00000000
00000010
00000000
00000100
00000001
00000000
00000010
,
00001000
00010000
01000000
00100000
00010000
01000000
00010000
00000000
,
10000000
00000000
00010000
00000000
00100000
01000000
00000000
00010000
01000000
00000000
00100000
00000000
01000000
10000000
00000000
00100000
,
00010000
00001000
00000100
00000010
00001000
00000100
00001000
00000000
,
00000001
00000000
00000010
00000000
00000100
00000010
00000000
00001000
00000010
00000000
00000001
00000000
00000100
00000010
00000000
00000001
,
00000010
00001000
00010000
01000000
00100000
10000000
00010000
00000000
,
10000000
00000000
00100000
00000000
01000000
00100000
00000000
00010000
00100000
00000000
10000000
00000000
01000000
00100000
00000000
10000000
,
00100000
00010000
00001000
00000100
00000010
00000001
00001000
00000000
,
00000010
00000000
00000100
00000000
00000001
00000010
00000000
00001000
00000001
00000000
00000100
00000000
00000010
00000001
00000000
00001000
,
00000010
00000000
00010000
00001000
00000000
00100000
00010000
00000000
10000000
00000000
01000000
00000000
00100000
00000000
00010000
00000000
,
00100000
00000000
01000000
00000000
10000000
00100000
00000000
00010000
10000000
00000000
01000000
00000000
00100000
10000000
00000000
00010000
,
00100000
00000000
00001000
00010000
00000000
00000010
00001000
00000000
00000001
00000000
00000100
00000000
00000010
00000000
00001000
00000000
,
00000001
00000000
00001000
00000000
00000010
00000001
00000000
00000010
00000100
00000000
00000001
00000000
00000010
00000100
00000000
00001000
,
00000100
00000000
00010000
00001000
00000000
00100000
01000000
00000000
10000000
00000000
00100000
00000000
01000000
00000000
00010000
00000000
,
10000000
00000000
00010000
00000000
00100000
10000000
00000000
00100000
01000000
00000000
10000000
00000000
00100000
01000000
00000000
00010000
,
01000000
00000000
00001000
00010000
00000000
00000010
00000100
00000000
00000001
00000000
00000010
00000000
00000100
00000000
00000010
00000000
,
00000001
00000000
00000000
00001000
00000000
00000000
00000010
00000000
00000000
00001000
00000000
00000000
00000001
00000000
00000100
00000000
00000010
00000000
00000100
00000000
00000001
00000000
00001000
00000000
,
00000001
00000000
00000000
00001010
00000000
00000000
00001000
00000100
00000010
00000100
00000010
00001000
,
00010000
00000000
00000000
00000000
00000000
00000000
00001000
00000000
00000000
00100000
00000000
00000000
00010000
00000000
00000000
01000000
00000000
00000000
10000000
00000000
01000000
00000000
00010000
00000000
,
01000000
00000000
00100000
00000000
10000000
00100000
10000000
00100000
10000000
00000000
01000000
00000000
00100000
00010000
00100000
00010000
,
00100000
00000000
00000000
00001000
00000000
00000000
00010000
00000000
00000000
00000100
00000000
00000000
00010000
00000000
00001000
00000000
00010000
00000000
00000100
00000000
00000010
00000000
00000100
00000000
,
00001000
00000000
00000000
00000100
00000000
00000000
00010000
00000000
00000000
00000000
00000000
00000000
00001000
00000000
00010000
00000000
00001000
00000000
01000000
00000000
00100000
00000000
01000000
00000000
,
00010000
00000000
00000000
01000000
00000000
00000000
00001000
00000000
00000000
00010000
00000000
00000000
00001000
00000000
00000010
00000000
00000001
00000000
00000010
00000000
00000100
00000000
00001000
00000000
,
00000100
00000000
00001000
00000000
00000001
00000000
00000010
00000000
00000100
00000000
00000010
00000000
00000001
00000100
00000000
00001000
,
00000001
00000000
00000010
00000000
00000100
00000001
00000000
00001000
00000100
00000000
00010000
00001000
00000000
01000000
00010000
00000000
,
10000000
00000000
00100000
00000000
01000000
00000000
00010000
00000000
01000000
00000000
00100000
00000000
10000000
01000000
00000000
00010000
,
10000000
00000000
00100000
00000000
01000000
10000000
00000000
00010000
01000000
00000000
00001000
00010000
00000000
00000100
00001000
00000000
,
00000020
00000000
00000000
00000000
00000000
00000000
00000000
00000000
00000130
00000000
00000001
00000000
00000010
00000001
00000000
00000010
,
00000100
00000000
00000000
00000000
00000000
00000000
00000000
00000000
00001000
00000000
00000010
00000000
00001000
00000010
00000000
00001000
,
00000100
00000000
00000000
00000000
00000000
00000000
00000000
00000000
00010000
00000000
00001000
00000000
00010000
00001000
00000000
00010000
,
00001000
00000000
00100000
00000000
00010000
00100000
00000000
00010000
00100000
00000000
01000000
00000000
10000000
01000000
00000000
10000000
,
01000000
00000000
00100000
00000000
00010000
00100000
00000000
00010000
00100000
00000000
00010000
00000000
00001000
00000000
00000100
00000000
,
00010000
00001000
00000010
00010000
00001000
00000100
00001000
00010000
,
00100000
00001000
00010000
01000000
00001000
00010000
00100000
00010000
,
00001000
00000000
00000100
00000000
00001000
00000000
00000010
00000200
00000310
00000000
00000000
00000000
00000101
00000000
00000000
00000000
,
00000010
00000000
00000000
00000010
00001000
00000000
00000010
00000000
00000001
00000000
00000010
00000000
00001000
00000000
00000100
00000000
,
00001000
00010000
00100000
00010000
01000000
10000000
01000000
00010000
,
00001000
00000010
00000001
00000010
00001000
00000100
00000001
00000100
,
00001000
00010000
00100000
00001000
00101000
00000000
00110000
00000000
,
00100000
00000000
00000000
00100000
00010000
00000000
00100000
00000000
10000000
00000000
00100000
00000000
00010000
00000000
01000000
00000000
,
00010000
00001000
00000010
00001000
00000100
00000001
00000100
00001000
,
00010000
00100000
10000000
00100000
00010000
01000000
10000000
01000000
,
00010000
00000000
00001000
00000000
00000010
00000000
00001000
00000000
00000010
00000100
00000010
00000100
00000001
00000000
00000010
00000000
,
00000100
00000000
00000000
00000100
00000010
00000000
00001000
00000000
00010000
00000000
01000000
00000000
00100000
00000000
10000000
00000000
,
00100000
00000000
00010000
00000000
00100000
00010000
00100000
00010000
00100000
00000000
00010000
00000000
00001000
00000000
00000100
00000000
,
00000010
00000000
00000100
00000000
00001000
00000010
00001000
00000010
00001000
00000000
00010000
00000000
01000000
00000000
00100000
00000000
,
10000000
00000000
01000000
00000000
00100000
00000000
01000000
00000000
00100000
01000000
00100000
01000000
10000000
00000000
00100000
00000000
,
01000000
00000000
00000000
01000000
00100000
00000000
00010000
00000000
00001000
00000000
00000100
00000000
00000010
00000000
00000001
00000000
,
00000010
00000000
00001000
00000000
00000010
00000100
00000010
00000100
00000010
00000000
00001000
00000000
00010000
00000000
01000000
00000000
,
10000000
00000000
01000000
00000000
00100000
01000000
00100000
01000000
00100000
00000000
00010000
00000000
00001000
00000000
00000100
00000000
,
00000001
00000000
00001000
00000000
00000001
00000100
00000001
00000100
00000010
00000000
00000000
00000000
00000000
00000000
00000000
00000000
,
00000000
00000000
00000000
00000000
;
