
//----- song ID: endy -----//
#TITLE:ENDYMION;
#ARTIST:fallen shepherd ft. RabbiTon Strings;
#BANNER:ENDYMION.png;
#BACKGROUND:ENDYMION-bg.ogg;
#CDTITLE:./CDTitles/DDR A.png;
#MUSIC:ENDYMION.ogg;
#SAMPLESTART:90.281;
#SAMPLELENGTH:15;
#DISPLAYBPM:220:440;
#BPMS:0=220,72=440,180=220,216=880,232=220,312=440,336=220,340=440,398=220,399=110,400=440,464=220,505=440,627=220,633.5=440;
#NOTES:
     dance-single:
     :
     Beginner:
     9:
     :
0000
0000
0000
0000
,
0000
0000
0000
0000
,
0000
0000
0000
0000
,
0000
0000
0000
0000
,
0000
0000
0000
0000
,
0000
0000
0000
0000
,
0000
0000
0000
0000
,
0000
0000
0000
0000
,
1000
0000
0001
1000
,
0001
1000
0000
0010
,
1000
0010
1000
0000
,
0100
1000
0100
1000
,
0000
0010
0010
0000
,
0001
0000
1000
0001
,
1000
0001
0000
0010
,
0001
0010
0001
0000
,
0100
0001
0100
0001
,
0000
0010
0010
1000
,
0001
0000
0000
0000
,
1000
0000
0010
0000
,
1000
0000
0010
0000
,
0000
0000
0100
0000
,
0001
0000
0100
0000
,
0001
0000
0000
0000
,
0010
0000
0100
0000
,
0010
0000
0100
0000
,
0000
0000
1000
0000
,
0001
0000
1000
0000
,
0001
0000
0000
0000
,
0010
0000
0100
0000
,
0010
0000
0001
0000
,
0000
0000
0100
0000
,
0010
0000
0100
0000
,
0001
0000
1000
0000
,
0001
0000
1000
0000
,
0001
0000
0010
0000
,
0001
0000
0010
0000
,
0001
0000
1000
0000
,
0001
0000
1000
0000
,
0100
0000
1000
0000
,
0100
0000
1000
0000
,
0001
0000
0001
0000
,
0100
0000
0100
0000
,
0010
0000
0010
0000
,
1000
0000
1000
0000
,
2002
0000
0000
3003
,
0000
0000
0000
0000
,
1001
0000
1000
0010
,
0100
0001
0010
0000
,
1001
0000
0001
0010
,
0100
1000
0010
0000
,
1001
0000
0100
0001
,
0100
1000
0100
0000
,
0001
0000
1000
0000
,
0020
0000
0000
0000
,
0000
0000
0000
0000
,
0000
0000
0000
0000
,
0000
0000
0030
0000
,
0000
0010
1000
0100
,
0001
0100
1000
0000
,
0000
0001
0010
0100
,
0000
0000
0000
0000
,
0000
0010
0001
0100
,
1000
0100
0001
1000
,
0001
0000
0000
0000
,
0010
0001
1000
1000
,
0001
0000
0001
0000
0001
0000
0000
1000
,
0000
1000
0000
1000
0000
0000
0010
0000
,
0100
0001
0100
0001
,
1000
0100
1000
0100
,
1000
0000
1000
0000
1000
0000
0000
0001
,
0000
0001
0000
0001
0000
0000
0010
0000
,
0100
1000
0100
1000
,
0001
1000
0001
0000
,
0100
0000
0100
0000
0100
0000
0000
0010
,
0000
0010
0000
0010
0000
0000
0100
0000
,
0001
1000
0001
1000
,
0100
0010
0100
1000
,
0020
0000
0000
0030
,
0002
0000
0000
0003
,
0200
0000
0000
0300
,
2000
0000
0000
3000
,
0002
0000
0000
0000
,
0000
0000
0000
0000
,
0000
0000
0000
0003
,
0001
0000
0010
0000
,
0100
0000
1000
0000
,
0010
0000
1000
0000
,
0002
0000
0000
0000
,
1003
0000
0100
0000
,
0001
0000
0100
0000
,
2000
0000
0000
0000
,
0000
0000
3000
0000
,
0010
0000
0100
0000
,
0001
0000
0010
0000
,
0200
0000
0000
0000
,
0300
0000
0000
0000
,
1000
0000
0010
0000
,
0001
0000
0010
0000
,
1000
0000
0001
1000
,
1001
0000
0000
0000
,
1001
0000
0000
0000
,
1001
0000
0000
0000
,
0001
0000
0100
0000
,
0110
0000
0000
0000
,
0110
0000
0000
0000
,
0110
0000
0000
0000
,
0100
0000
0001
0000
,
1001
0000
0000
0000
,
0110
0000
0000
0000
,
1001
0000
0000
0000
,
0110
0000
0000
0000
,
1001
0000
0000
0000
,
0110
0000
0000
0000
,
1000
0000
0100
0000
,
0010
0000
0001
0000
,
0000
0000
0000
0000
,
0000
0002
0000
0000
,
0000
0000
0000
0000
,
0000
0000
0003
2000
,
0000
0000
0000
0000
,
3001
0000
0000
0010
,
0000
1001
0000
0010
,
0000
0001
0000
0100
,
0000
0000
0000
0001
,
0000
0010
0000
0100
,
0000
2002
0000
0000
,
0000
0000
0000
0000
,
0000
0000
0000
0000
,
0000
3003
0000
0000
,
0000
0001
0000
0010
,
0000
0100
0000
1000
,
0000
0100
0000
0010
,
0000
0001
0000
1000
,
0000
0010
0000
1000
,
0000
0100
0000
1000
,
0000
0010
0000
1000
,
0000
0100
0000
1000
,
0000
0001
0000
0010
,
0000
0001
0000
0100
,
0000
0001
0000
0010
,
0000
0100
0000
1000
,
0000
0010
0000
0100
,
0000
0001
0000
0001
,
0000
0000
1000
0000
,
1000
0000
1000
0000
,
1000
0000
0000
0010
,
0000
0010
0000
0000
,
0100
0000
0000
0001
,
0000
0001
0000
0000
,
0100
0000
0000
0010
,
0000
0010
0000
0000
,
1000
0000
1000
0000
,
0001
0000
0001
0000
,
0001
0000
0001
0000
,
0001
0000
0000
0000
,
0000
0000
0000
1001
,
0000
0000
0000
0000
,
0000
0000
0000
0020
0000
0000
0000
0000
,
0000
0000
0000
0000
,
0000
0000
0000
0000
,
0000
0000
0000
0000
,
0000
0000
0000
0030
,
0000
0000
0000
0000
;
#NOTES:
     dance-single:
     :
     Easy:
     13:
     :
0000
0000
0000
0000
,
0000
0000
0000
0000
,
0000
0000
0000
0000
,
0000
0000
0000
0000
,
0000
0000
0000
0000
,
0000
0000
0000
0000
,
0000
0000
0000
0000
,
0000
0000
0000
0000
,
1001
0000
0000
0001
0000
0000
0100
0000
,
0001
0000
1001
0000
0000
1000
0000
0000
,
0100
0000
1000
0000
1001
0000
0000
0001
,
0000
0010
0001
1001
,
0000
1000
0000
0000
0010
0000
1000
0000
,
1001
0000
0000
0100
0000
0000
0001
0000
,
0100
0000
0110
0000
0000
0001
0000
0000
,
1000
0000
0100
0000
0110
0000
0000
1000
,
0000
0001
1000
0110
,
0000
0010
0000
0000
0001
1000
0001
0100
,
0001
1000
0001
1000
,
0010
0000
1001
0000
,
0110
0000
1000
0001
,
1000
0001
0010
0000
,
1001
0000
0110
0000
,
0010
0100
0010
0100
,
0010
0000
0110
0000
,
1001
0000
0100
0010
,
0100
0010
0100
0000
,
0110
0000
1001
0000
,
0001
0100
0001
1000
,
0010
0000
1010
0000
,
1001
0000
1000
0100
,
1000
0001
0010
0000
,
0011
0000
1001
0000
,
1000
0100
1000
0000
,
0001
0100
0001
0000
,
1000
0010
1000
0000
,
0001
0010
0001
0000
,
0100
0001
0100
0000
,
0010
1000
0010
0000
,
0100
1000
0100
0000
,
0010
0001
0010
0000
,
1000
0010
1000
0010
,
1000
0001
1000
0001
,
0100
0001
0100
0001
,
0010
0001
0010
0001
,
2002
0000
0000
3003
,
0000
0000
0000
0000
,
1001
0000
0001
0000
1000
0100
0010
0000
,
0001
1000
0010
0000
0100
0010
1000
0000
,
0110
0000
0010
0000
0100
0001
0010
0000
,
0001
1000
0100
0000
0010
0100
1000
0000
,
1001
0000
0010
0000
1000
0100
0001
0000
,
0100
0010
0001
0000
0100
0010
0100
0000
,
1000
0100
0001
0010
,
0002
0000
0000
0000
,
0000
0000
0000
0000
,
0000
0000
0000
0000
,
0000
0000
0000
0000
,
0003
0000
0010
0000
0001
0000
1000
0001
,
0100
0010
1000
0001
1000
0000
0000
0000
,
0100
0000
0010
0000
0001
0000
0100
0001
,
0100
0010
1000
0000
,
0100
0000
0001
0000
0100
0010
0100
0000
,
1000
0010
1000
0000
0001
0100
1000
0000
,
0200
0000
0000
0000
,
0310
0010
0110
0110
,
1000
0000
1010
0000
1020
0000
0000
0100
,
0000
0100
0000
0130
0000
0100
0001
0100
,
0000
0010
0000
1000
0010
1000
0010
1000
,
0010
1000
0001
0100
0000
0001
1000
0000
,
0001
0000
0011
0000
0021
0000
0000
0100
,
0000
0100
0000
0130
0000
0100
1000
0100
,
0001
0100
0001
0100
0001
0100
0001
0100
,
0010
0001
1000
0001
0000
0000
1000
0000
,
0101
0000
0101
0000
0201
0000
0000
0010
,
0000
0010
0000
0310
0000
0010
1000
0010
,
0000
0100
0000
0001
0100
0001
0100
0001
,
0100
0000
0010
1000
0000
0001
1000
0000
,
0001
0010
0001
0010
,
0001
0010
0001
0010
,
0001
1000
0001
1000
,
0010
1000
0010
1000
,
0200
0000
0000
0000
,
0000
0000
0000
0000
,
0020
0000
0000
0330
,
1000
0100
0010
0000
,
0001
1000
0010
0000
,
1000
0001
1000
0001
,
2000
0000
0000
3000
,
0001
0100
0010
0000
,
1000
0001
0010
0000
,
0022
0000
0000
0000
,
0000
0000
0033
0000
,
0100
0010
1000
0000
,
0001
0010
0100
0000
,
2200
0000
0000
0000
,
3300
0000
0000
0000
,
0001
0100
0010
0000
,
0001
0010
0100
0000
,
0001
0010
0100
1000
,
0001
0000
0000
1000
0000
0000
0100
0000
,
0001
0000
0000
0100
0000
0000
1000
0000
,
0001
0000
0000
0100
0000
0000
1000
0000
,
0100
0001
1000
0001
,
1000
0000
0000
0001
0000
0000
0100
0000
,
1000
0000
0000
0100
0000
0000
0001
0000
,
1000
0100
0001
0100
,
1000
0001
1000
0100
,
0001
0000
0000
0100
0000
0000
1000
0000
,
0010
0000
0000
0001
0000
0000
0010
0000
,
0100
0000
0000
0001
0000
0000
0010
0000
,
1000
0000
0000
0010
0000
0000
0100
0000
,
1000
0000
0000
1000
0000
0000
1000
0000
,
0001
0000
0000
0001
0000
0000
0001
0000
,
1000
0001
1000
0001
,
0100
0001
0010
0001
,
0000
0000
0000
0000
,
0000
0002
0000
0000
,
0000
0000
0000
0000
,
0000
0000
0000
2003
,
0000
0000
0000
0000
,
3010
0000
0000
0001
,
1000
0100
1000
0100
,
1000
0001
1000
0001
,
0010
0000
0001
0010
,
1000
0010
0100
0001
,
0100
2000
0000
0000
,
0000
0000
0000
3001
0000
0000
0000
0001
0000
0000
0000
0001
,
0000
0000
0000
1000
0000
0000
0000
0001
0000
0000
0000
1000
,
0000
0010
0000
0110
,
0000
1001
0000
0110
,
0000
1100
0000
0101
,
0000
1100
0000
0110
,
0000
0011
0000
1010
,
0000
1000
0010
1000
,
0010
1000
0001
1000
,
0001
0100
0001
0100
,
0001
0010
0100
0010
,
0001
1000
0001
1000
,
0010
0100
1000
0100
,
0010
1000
0010
0100
,
0001
0010
0001
0100
,
0010
1000
0001
1000
,
0000
0001
1000
0001
,
1000
0000
0010
0100
,
0010
0100
0010
0100
,
0010
0100
0000
0001
,
0000
1000
0000
0000
,
0100
1000
0000
0001
,
1000
0001
1000
0000
,
0001
0010
0000
0100
,
1000
0100
1000
0000
,
0010
0100
0010
0000
,
1000
0001
1000
0001
,
1000
0001
1000
0001
,
1000
0001
0000
0000
,
0000
0000
0000
1001
,
0000
0000
0000
0000
0000
0100
0000
0000
0000
0000
0010
0000
0000
0000
0000
0001
,
0000
0000
0000
2000
0000
0000
0000
0000
,
0000
0000
0000
0000
,
0000
0000
0000
0000
,
0000
0000
0000
0000
,
0000
0000
0000
3000
,
0000
0000
0000
0000
;
#NOTES:
     dance-single:
     :
     Medium:
     15:
     :
0000
0000
0000
0000
,
0000
0000
0000
0000
,
0000
0000
0000
0000
,
0000
0000
0001
0000
,
0000
1000
0000
0000
,
0200
0000
0000
0000
,
0000
0000
0000
0000
0000
0020
0000
0000
,
0000
0000
0300
0000
,
0031
0000
0000
1000
0000
0000
1010
0000
,
0101
0000
0100
0000
0000
0001
0000
0000
,
0011
0000
1100
0000
0100
0000
0000
1000
,
0000
1010
0101
0100
,
0000
0001
0000
0000
0011
0000
1100
0000
,
0001
0000
0000
1000
0000
0000
1100
0000
,
0101
0000
1000
0000
0000
0001
0000
0000
,
0101
0000
1100
0000
0001
0000
0000
1000
,
0000
0000
0000
0000
1100
0000
0000
0000
0011
0000
0000
0000
0001
0000
0000
1000
,
0000
0000
0001
0000
0000
0010
0000
0000
0100
0000
1000
0000
0100
0000
0010
0000
,
0001
0100
0010
0100
,
1000
0100
0010
1000
,
1001
0000
1000
0100
,
0010
0100
0001
0100
,
0010
0001
1001
0000
,
0001
0100
1000
0100
,
0010
1000
0100
0010
,
0011
0000
1000
0100
,
0001
0100
0010
0001
,
0100
0010
1010
0000
,
0001
0010
0001
0100
,
0010
0100
0001
0010
,
0110
0000
1000
0010
,
1000
0100
0010
0100
,
1000
0010
0110
0000
,
0100
0001
0010
0000
,
0010
0001
0100
0000
,
0100
1000
0010
0000
,
0010
1000
0100
0000
,
1000
0100
0001
0000
,
0001
0100
1000
0000
,
1000
0010
0001
0000
,
0001
0010
1000
0000
,
0010
0001
0100
0001
,
0010
1000
0010
0100
,
1000
0010
0001
0010
,
1000
0100
1000
0001
,
2002
0000
0000
3003
,
0000
0000
0000
0000
,
0110
0000
0001
0010
0001
0010
0100
0010
,
0100
0000
0010
0000
0100
0000
1000
0000
0100
0010
0100
0000
1000
0000
0000
0000
,
0110
0000
1000
0010
1000
0010
0100
0010
,
0100
0000
0010
0000
0100
0000
0001
0000
0100
0010
0100
0000
0001
0000
0000
0000
,
0110
0000
0001
1000
0100
1000
0010
0100
,
0010
0000
1000
0000
0100
0000
0010
0000
0001
1000
0001
0000
0100
0000
0000
0000
,
0011
1000
0100
1000
,
0020
0000
0000
0000
,
0000
0000
0000
0000
,
0000
0000
0000
0000
,
0000
0000
0000
0000
,
0030
0000
0000
0000
0110
0000
0000
0000
0001
0000
0000
1000
0001
0000
0100
0000
,
1000
0100
0001
0100
1000
0100
0010
1000
,
0100
0000
0000
0000
0110
0000
0000
0000
0001
0000
0000
1000
0001
0000
0010
0000
,
0001
0100
0010
0100
0001
0010
0001
0100
,
0001
0000
0000
0000
0110
0000
0000
0000
1000
0000
0000
0010
0100
0000
0010
0000
,
1000
0000
0000
0010
0100
0000
0010
0000
1000
0000
0100
0000
0001
0000
0100
0000
,
2000
0000
0000
3000
,
0010
0000
0010
0000
0010
0010
0010
0010
,
1000
0000
1100
0000
1020
0000
0031
0010
,
0000
1000
0000
1000
0000
0100
0001
0100
,
0000
0110
0000
0001
0010
0001
0010
0100
,
1000
0000
0010
1000
0010
0000
0100
0000
0001
0000
0010
0000
0010
0000
0000
0000
,
1001
0000
0101
0000
0021
0000
1030
0010
,
0000
0001
0000
0001
0000
0100
1000
0100
,
0001
0000
1000
0001
1000
0000
0100
0000
1000
0000
0100
0000
1000
0000
0100
0000
,
0010
0001
1000
0010
0100
0000
0110
0000
,
0101
0000
1100
0000
0201
0000
1300
0100
,
0000
0001
0000
0001
0000
0100
1000
0100
,
0000
0000
0010
0000
0000
0000
1000
0000
0010
0000
0100
0010
0100
0000
0001
0000
,
0100
0000
0010
1010
0000
1000
1100
0000
,
0100
1000
0010
0100
,
0001
0000
0010
0000
0001
0010
0001
0000
,
1000
0001
0010
0001
,
1000
0010
1000
0000
0010
0000
0100
0000
,
0220
0000
0000
0000
,
0000
0000
0000
0330
,
0100
0010
0100
0010
1000
0001
0100
0001
,
0010
0001
0100
1000
,
0100
0001
0010
0100
,
1000
0000
0100
0000
0010
0100
1000
0000
,
0002
0000
0000
0000
,
0103
0010
1000
0001
,
0100
0000
0010
0000
1000
0001
0010
0000
,
0022
0000
0000
0000
,
0000
0000
0033
0000
,
1000
0100
0010
0100
,
0010
0000
0001
0000
0100
0010
1000
0000
,
0020
0000
0000
0000
,
1030
0100
0010
0001
,
0100
0010
0100
0000
0010
0000
0100
0000
,
0001
1000
0001
0000
0010
0000
0100
0000
,
0010
0000
0000
0000
0001
0000
0000
0000
1000
0000
0001
0000
0010
0100
1000
0100
,
2000
0000
0000
0010
0000
0000
3010
0000
,
0200
0000
0000
0001
0000
0000
0301
0000
,
2000
0000
0000
0100
0000
0000
3100
0000
,
0010
0000
0001
0000
1000
0001
1000
0000
,
0002
0000
0000
0010
0000
0000
0013
0000
,
0200
0000
0000
1000
0000
0000
1300
0000
,
0010
1000
0010
0001
,
0010
1000
0010
0100
,
0110
0000
0000
0001
0000
0000
0001
0000
,
0011
0000
0000
1000
0000
0000
1000
0000
,
1100
0000
0000
0001
0000
0000
0001
0000
,
0101
0000
0000
1000
0000
0000
0010
0000
,
0001
0000
0000
1000
0000
0000
0100
0000
,
0001
0000
0000
1000
0000
0000
0100
0000
,
0001
0000
0100
0000
1000
0010
1000
0010
,
1000
0000
0001
0000
0010
0001
0010
0001
,
0000
0000
0000
0000
,
0000
0002
0000
0000
,
0000
0000
1000
0000
,
0000
0000
0000
0203
,
0000
0000
0000
0000
,
0310
0000
0000
0010
0000
0000
1000
0000
,
0001
0011
1000
0011
,
1000
0101
1010
0101
,
1010
0000
0011
0000
0110
0000
0010
1000
,
0001
1000
0010
1000
0100
1000
0001
0000
,
1001
0110
0000
0000
,
0100
0000
0000
0100
0000
0000
0000
0100
0000
0000
0000
0100
,
0000
0000
0000
1000
0000
0000
0000
0100
0000
0000
0000
1000
,
0000
1100
0000
1001
,
0000
0000
0000
0001
0000
0000
0000
1000
0000
0010
0000
1000
,
0000
0010
0000
1000
0000
0000
0000
0100
0000
0010
0000
0100
,
0000
0010
0000
0100
0000
0000
0000
1000
0000
0001
0000
1000
,
0000
0001
0000
0100
0000
0000
0000
0001
0000
0010
0000
0001
,
0000
0000
0010
0000
0000
0000
0001
0000
0000
0000
0000
0000
0010
0000
0000
0000
0000
0000
0001
0000
0000
0010
0000
0000
,
0001
0000
1000
0000
0010
0000
1000
0001
,
0010
0000
0100
0000
0010
0000
0100
0010
,
0100
0000
1000
0000
0010
0000
1000
0001
,
0100
0000
1000
0000
0100
0000
0001
0100
,
0001
0000
1000
0000
0010
0000
0100
0010
,
1000
0000
0001
0000
1000
0100
1000
0000
,
0100
0000
0010
0100
1000
0000
0001
0000
,
0010
0001
0100
0000
0100
0000
0010
0000
,
0000
1000
0001
1000
,
0001
0000
0110
0010
,
0100
0010
0100
0010
,
0100
0010
0000
1001
,
0000
1001
0000
0000
,
1000
0100
0000
0010
,
0100
0100
0100
0000
,
1000
1000
0000
0001
,
0001
0001
0001
0000
,
1000
1000
2000
0000
,
0010
0010
0010
0010
,
0010
0010
0010
0010
,
0010
3010
0000
0000
,
0000
0000
0000
1001
,
1000
0000
0000
0000
0000
0100
0000
0000
0000
0000
0010
0000
0000
0000
0000
0001
,
0000
0000
0000
0020
0000
0000
0000
0000
,
0000
0000
0000
0000
,
0000
0000
0000
0000
,
0000
0000
0000
0000
,
0000
0000
0000
0030
,
0000
0000
0000
0000
;
#NOTES:
     dance-single:
     :
     Hard:
     18:
     :
0000
0000
0000
0000
,
0000
0000
0000
0000
,
0000
0000
0000
0000
,
0000
0000
0002
0000
,
0000
2000
0000
3003
,
0001
0000
0000
0000
0000
0000
0000
0000
0000
0000
0000
0000
1000
0000
0000
0000
0100
0000
0000
0000
0010
0000
0000
0000
0001
0000
0000
0000
0000
0000
0000
0000
0000
1000
0000
0000
0000
0000
0000
0000
0000
0000
0010
0000
0000
0000
0000
0000
,
0000
0101
0000
0000
0000
2002
0000
0000
,
0000
0000
3000
0000
,
1003
0010
1000
0100
0010
0100
0110
0000
,
1001
0000
0001
0010
0001
0100
0010
0100
,
0110
0000
1001
0000
1000
0100
1000
0001
,
0100
0001
0110
0000
1001
0000
0001
0100
,
0001
0000
1000
0000
0100
0000
0010
0000
0001
0010
0001
0010
0001
0000
0000
0000
,
0100
0010
0100
1000
0001
0010
0011
0000
,
1010
0000
1000
0001
1000
0010
0100
0010
,
0100
0010
0100
0010
1000
0000
0000
0000
0001
0000
0100
0000
0001
0000
0010
0000
,
0100
0000
1000
0000
0001
0000
0010
0000
1000
0000
0010
0000
0001
0000
0000
0100
,
0000
0000
0100
0000
0000
0010
0000
0000
0001
0100
0001
0100
0001
1000
0010
0100
,
0001
0100
0010
1000
,
0001
0100
0001
0000
1000
0100
1000
0000
,
0101
0000
0100
0001
1000
0000
0100
0000
,
0010
0000
0001
0000
1000
0010
1000
0000
,
0001
0010
0001
0000
1010
0000
0010
1000
,
0001
1000
0100
0010
,
0001
0100
0001
0000
1000
0100
1000
0000
,
0110
0000
0100
0001
1000
0000
0001
0000
,
0100
0000
0010
0000
1000
0100
1000
0000
,
0001
0100
0001
0000
0110
0000
0010
1000
,
0001
1000
0010
0001
,
0010
1000
0010
0000
0100
0001
0100
0000
,
1010
0000
1000
0100
0010
0000
0001
0000
,
0010
0000
1000
0000
0010
0001
0010
0000
,
0100
1000
0100
0000
0011
0000
0010
0001
,
1000
0100
0010
0001
0000
0000
0000
0000
,
1000
0100
0010
0001
0000
0000
0000
0000
,
0001
0100
0010
1000
0000
0000
0000
0000
,
0001
0100
0010
1000
0000
0000
0000
0000
,
0010
0100
0001
1000
0000
0000
0000
0000
,
0100
0010
0001
1000
0000
0000
0000
0000
,
1000
0001
0100
0010
0000
0000
0000
0000
,
1000
0001
0010
0100
0000
0000
0000
0000
,
0100
0010
0001
0000
0010
0100
1000
0000
,
0010
0100
0001
0000
0100
0010
1000
0000
,
0100
0010
0001
1000
0010
0100
0001
0010
,
0100
1000
0100
0010
0001
1000
0010
0000
,
2002
0000
0000
3003
,
0000
0000
0000
0000
,
0101
0000
0001
0100
1000
0001
0010
1000
,
0001
0000
0100
0000
1000
0000
0100
0000
0001
0010
0001
0010
0001
0000
0000
0000
,
1100
0000
1000
0100
0001
1000
0010
0001
,
1000
0000
0100
0000
0001
0000
0100
0000
1000
0010
1000
0010
1000
0000
0000
0000
,
0011
0000
0001
0010
1000
0001
0100
1000
,
0100
0000
0010
0000
0001
0000
1000
0000
0100
0010
0100
0010
0100
0000
0000
0000
,
1100
0101
0011
1010
,
1002
0000
0000
0000
,
0000
0000
0000
0003
,
1000
0001
1000
0001
,
1000
0001
1000
0001
,
0000
0000
0000
0000
0110
0000
0000
0000
0001
0000
0000
0001
0010
0000
0100
0000
,
1000
0000
0010
0000
0010
0000
0001
0000
1000
0100
0010
0001
0010
0100
1000
0000
,
0001
0000
0000
0000
0110
0000
0000
0000
1000
0000
0000
1000
0010
0000
0100
0000
,
0001
0000
0010
0000
0010
0000
1000
0000
0001
0100
0010
1000
0010
0100
0001
0000
,
1000
0000
0000
0000
0110
0000
0000
0000
1000
0000
0000
1000
0010
0000
0100
0000
,
0001
0010
0010
1000
0001
0010
0010
0100
,
0201
0010
1000
0310
,
0110
0000
1001
0000
0010
0010
0010
0010
,
0011
0000
0110
0000
2100
0000
3010
0001
,
0000
0010
0000
1000
0100
0001
0100
0100
,
0010
0001
1000
0100
0001
0100
1000
0001
,
0010
0000
1000
0001
0100
0000
0110
0000
0000
0000
0001
0000
0101
0000
0000
0000
,
1010
0000
0110
0000
0102
0000
0013
1000
,
0000
0010
0000
0001
0100
1000
0100
0100
,
0010
0000
0001
1000
0010
0000
0100
0000
1000
0000
0100
0000
0001
0000
1000
0000
,
0100
0001
0100
0110
0000
0001
0101
0000
,
1001
0000
0110
0000
0021
0000
1030
0010
,
0000
0001
0000
0100
1000
0001
0010
0010
,
0001
0000
0100
0000
1000
0000
0100
0000
0001
0000
1000
0010
0001
0000
0010
0000
,
0100
0001
0010
1100
0000
0010
0011
0000
,
1000
0100
1000
0100
1000
0100
1000
0100
,
0010
0100
0010
0100
0010
0100
0010
0001
,
1000
0001
1000
0001
1000
0001
1000
0010
,
0100
0010
0100
0000
0010
0000
0100
0000
,
0210
0000
0000
0000
,
0010
0000
0000
0000
,
0310
0100
0010
0100
0001
1000
0001
0100
,
0010
0100
0010
0100
0010
0000
1000
0000
,
0100
1000
0100
1000
0100
0000
0010
0000
,
0001
0010
0001
0010
0100
1000
0001
0000
,
0220
0000
0000
0330
,
1000
0001
1000
0001
1000
0000
0100
0000
,
0010
0001
0010
0001
0010
0100
1000
0000
,
0220
0000
0000
0000
,
0000
0000
0000
0330
,
0001
0010
0001
0010
0001
0000
0100
0000
,
0010
1000
0010
1000
0010
0100
0001
0000
,
0022
0000
0000
0033
,
1000
0100
1000
0100
1000
0100
0010
0001
,
0100
0010
0100
0000
0001
0100
0001
0000
,
1000
0001
1000
0000
0100
0010
0100
0000
,
1000
0000
0000
0000
0000
0000
0000
0000
0100
0000
0000
0000
0000
0000
0000
0000
0001
0000
0000
0000
0000
0000
0000
0000
0100
0000
0000
0000
1000
0000
0000
0000
0100
0000
0000
0000
1000
0000
0000
0100
0000
0000
0010
0000
0000
0001
0000
0000
,
0201
0000
0000
0001
0000
0000
0001
0000
,
1000
0000
0000
1000
0000
0000
1000
0000
,
0001
0000
0000
0001
0000
0000
0301
0000
,
1000
0000
0100
0000
0010
0001
0010
0000
,
0021
0000
0000
0001
0000
0000
0001
0000
,
1000
0000
0000
1000
0000
0000
1030
0000
,
0001
0010
0001
0010
0001
0000
1000
0000
,
0010
0100
0010
1000
,
1200
0000
0000
0010
0000
0000
1000
0000
,
0001
0000
0000
0010
0000
0000
0301
0000
,
1020
0000
0000
0100
0000
0000
1000
0000
,
0001
0000
0000
0100
0000
0000
0031
0000
,
1100
0000
0000
1000
0000
0000
0100
0000
,
0010
0000
0000
1000
0000
0000
0010
0000
,
0001
0010
0100
1000
0001
1000
0001
1000
,
0010
0100
0010
1000
0001
1000
0010
0100
,
0000
0000
0000
0000
,
0000
0220
0000
0000
,
0300
0000
2000
0000
,
0000
3000
0000
0230
,
0000
0000
0000
0000
,
0301
0000
0000
0001
0000
0000
0011
0000
,
1001
0000
0100
1000
0000
0010
0001
0000
,
1000
0100
0000
0010
1000
0000
0001
0010
,
0100
1000
0000
0000
0100
0001
0100
1000
,
0010
1000
0010
1000
0010
0000
0100
0000
0001
0010
0000
1000
0001
0000
0100
0000
,
0010
0001
0000
1000
0020
0000
0000
0000
0000
0000
0000
0000
0000
0000
0000
0000
,
0130
0000
0000
0010
0000
0000
0100
0000
0000
0000
0000
0000
0000
0000
0100
0000
0000
0000
0000
0000
0000
0000
0100
0000
,
0000
0000
0000
0001
0000
0000
0000
1000
0000
0000
0000
0001
,
0000
1001
0000
0110
,
0000
0000
0000
1000
0000
0100
0000
1000
0000
0001
0000
0010
,
0000
0100
0000
1000
0000
0010
0000
0100
0000
0001
0000
1000
,
0000
0100
0000
0001
0000
0100
0000
1000
0000
0010
0000
0100
,
0000
0010
0000
0001
0000
0010
0000
1000
0000
0100
0000
0010
,
0000
0000
0001
0000
0000
0000
0010
0000
0000
0100
0000
0000
1000
0000
0000
0000
0000
0000
0001
0000
0000
0010
0000
0000
,
0100
0000
0010
0001
0100
0000
0001
1000
,
0010
1000
0010
0100
0001
0000
1000
0010
,
0100
0000
0010
1000
0100
0000
1000
0001
,
0010
0001
0010
0100
1000
0000
0100
0010
,
0001
0000
1000
0010
0100
0000
1000
0100
,
1000
0100
0001
0100
0001
0010
0100
0010
,
0100
1000
0010
1000
0010
0100
0010
1000
,
0010
0100
0010
0000
0010
0000
0011
0000
,
0000
0011
0010
1000
,
1010
0000
1100
0100
,
0100
1100
0101
1100
,
0101
1100
0000
0011
,
0000
1100
0000
0000
,
1010
0110
0000
0011
,
0010
1000
1010
0001
,
1001
1001
0100
0110
,
0010
0100
0101
0010
,
0110
1000
1100
0100
,
1001
1001
0001
1000
,
1010
0110
0110
1001
,
0110
1001
0000
0000
,
0000
0000
0000
0110
,
0001
0000
0000
0000
0000
1000
0000
0000
0000
0000
0001
0000
0000
0000
0000
0100
0000
0000
0000
0000
0001
0000
0000
0000
0000
0000
0000
0000
0000
0000
1100
0000
,
0000
0000
0000
2002
0000
0000
0000
0000
,
0000
0000
0000
0000
,
0000
0000
0000
0000
,
0000
0000
0000
0000
,
0000
0000
0000
3003
,
0000
0000
0000
0000
;
#NOTES:
     dance-single:
     :
     Challenge:
     19:
     :
0000
0000
0000
0000
,
0000
0000
0000
0000
,
0000
0000
0000
0000
,
0000
0000
0000
0000
0000
0000
1000
0010
1000
0010
0000
0000
,
0100
0000
0000
0001
0010
0001
0010
0000
0000
0100
0000
0000
,
1000
0000
0000
0000
0000
0000
0000
0000
0000
0000
0000
0000
0001
0000
0000
0000
1000
0000
0000
0000
0001
0000
0000
0000
0100
0000
0000
0000
0000
0000
0000
0000
0000
0010
0000
0000
0000
0000
0000
0000
0000
0000
1010
0000
0000
0000
0000
0000
,
0000
0101
0000
0000
0000
2002
0000
0000
,
0000
0000
0003
0000
,
3001
0010
0001
0110
1000
0100
0110
0000
,
1001
0001
1000
0010
1000
0110
0001
0100
,
0110
0000
1001
1000
0001
0100
0010
1100
,
0100
0001
0110
0000
1001
0001
1000
0100
,
0010
0000
0101
0000
0100
0000
0010
0000
1000
0010
1000
0010
1000
0000
0000
0000
,
0100
0010
0100
1001
0100
1000
1010
0000
,
0011
0010
0001
1000
0010
0101
1000
0100
,
0001
0100
0001
0100
0010
0000
0000
0000
1000
0000
0100
0000
0001
0000
0011
0000
,
0010
0000
0100
0000
1000
0000
0010
0000
0001
0000
0010
0000
1100
0000
0000
0101
,
0000
0000
1010
0000
0000
0011
0000
0000
1000
0100
0010
0100
1000
0001
0100
1000
,
0100
0000
0001
0000
1000
0100
0001
0100
,
1000
0000
0001
0000
0010
0001
0010
0000
,
0001
1000
0001
1000
0100
0000
1000
0000
,
0001
0100
1000
0100
0001
0000
1000
0000
,
0010
1000
0010
0100
0001
0100
0001
0010
,
0100
0000
1000
0000
0001
0100
1000
0100
,
0001
0000
0010
0000
0100
0010
0001
0000
,
0010
0100
0010
0100
1000
0000
0001
0000
,
1000
0100
0001
0100
1000
0000
0010
0000
,
0100
0001
0100
0001
0010
0100
0010
0100
,
0010
0000
0001
0000
1000
0100
0001
0100
,
1000
0000
0100
0000
0001
0100
1000
0000
,
0010
0100
0001
0100
0001
0000
1000
0000
,
0001
0100
1000
0100
0001
0000
0100
0000
,
1000
0100
0001
0010
0100
0010
0100
0010
,
0001
0010
0100
1000
0200
0000
0010
0300
,
1000
0010
0100
0001
0200
0000
0010
0300
,
0001
0010
0100
1000
0200
0000
0010
0300
,
1000
0010
0100
0001
0200
0000
0010
0300
,
0001
1000
0010
0100
2000
0000
0001
3000
,
0100
0010
1000
0001
2000
0000
0100
3000
,
0001
1000
0100
0010
2000
0000
0001
3000
,
0010
0100
1000
0001
2000
0000
0010
3000
,
0001
1000
0001
0010
0001
0010
0100
0010
,
0100
1000
0100
1000
0010
0100
0001
0010
,
0001
1000
0010
0100
0001
0010
0100
0001
,
0100
1000
0010
0100
0010
0001
0010
1000
,
2002
0000
0000
3003
,
0000
0000
0000
0000
,
1001
0000
1000
0010
0001
1000
0100
0001
,
0010
0100
1000
0000
0010
1000
0100
0000
1000
0100
0010
0001
0010
0100
1000
0001
,
1000
0000
0001
0010
1000
0001
0100
1000
,
0010
1000
0010
1000
0001
1000
0001
1000
0001
0010
0100
1000
0001
0100
0010
0001
,
0010
0000
1000
0010
0001
1000
0100
0001
,
0010
0000
0100
0010
0001
0000
0100
0000
1000
0100
0010
0100
0010
1000
0001
0010
,
0100
1100
0011
0110
,
1000
0001
1000
0001
,
1000
0001
1000
0001
,
0100
0001
1000
0100
,
0010
0001
0010
0100
,
1000
0000
0000
0000
0110
0000
0000
0000
0001
0000
0000
1000
0010
0000
0001
0000
,
0010
0000
0010
0000
0001
0000
0100
0000
0100
1000
0001
0100
0010
1000
0010
0100
,
0001
0000
0000
0000
0110
0000
0000
0000
1000
0000
0000
0001
0010
0000
1000
0000
,
0010
0001
0010
0100
0010
0001
0010
0001
1000
0010
0100
0001
0100
0010
1000
0100
,
0010
0000
0000
0000
0011
0000
0000
0000
0001
0000
0000
0100
0010
0000
0010
0000
,
0001
0000
0000
0001
0100
0000
0100
0000
1000
0100
1000
0001
0010
0001
0100
0010
,
0200
1000
0001
1300
,
0110
0000
1001
0000
0010
0010
0010
0010
,
0011
0000
0110
0000
2100
0000
3010
0001
,
0000
0000
0010
0000
0000
0000
1000
0000
0100
0000
0001
0200
1000
0000
1000
0000
,
0010
0310
0001
0001
0100
0100
0010
0010
,
0100
0000
1000
0100
1000
0000
0101
0000
0001
0010
0001
0000
0011
0000
0000
0000
,
1010
0000
0110
0000
0102
0000
0013
1000
,
0000
0000
0010
0000
0000
0000
0001
0000
0100
0000
1000
0200
0001
0000
0001
0000
,
0010
0000
0310
1000
0100
0000
1000
0000
0100
0000
0100
0000
0010
0000
0010
0000
,
0100
0001
0100
1100
0000
1000
1100
0000
,
1001
0000
0110
0000
1020
0000
0031
0020
,
0000
0000
1000
0000
0000
0000
0130
0000
0001
0000
1000
0002
0010
0000
0010
0000
,
1000
1003
0100
0100
0001
0001
0010
0010
,
0100
0000
1000
0100
1000
0000
1100
0000
0001
0100
0001
0000
0101
0000
0000
0000
,
1000
0100
0010
0001
0010
0100
1000
0001
,
0010
0001
1000
0100
1000
0100
0010
0001
,
0100
0010
0100
0010
1000
0001
1000
0001
,
0010
0100
0010
0100
1001
0000
0101
0000
,
0200
0000
0000
0000
,
1000
0000
0000
0000
,
0310
0100
0010
1000
0100
0010
0100
1000
,
0001
0100
0010
0100
0010
1000
0010
0100
,
0001
0100
0010
1000
0001
0100
0010
1000
,
0010
1000
0100
0010
0001
0010
0100
1000
,
0200
0000
0000
0000
,
0301
0100
0010
0100
1000
0001
1000
0010
,
0100
1000
0100
0001
1000
0100
0010
0001
,
0020
0000
0000
0000
,
0000
0000
0000
0000
,
0031
0100
0001
0100
0010
1000
0001
0100
,
0001
0010
0100
1000
0010
0100
0001
1000
,
0002
0000
0000
0000
,
0103
1000
0100
1000
0100
1000
0100
1000
,
0100
0001
0100
1000
0100
0001
0010
0100
,
0010
0001
1000
0100
0010
0100
1000
0001
,
1000
0000
0000
0000
0100
0000
0000
0000
0001
0000
0000
0000
0100
0000
1000
0000
0100
0000
1000
0001
1000
0010
0100
0001
,
0110
0000
0000
0101
0000
0000
1100
0000
,
0110
0000
0000
1100
0000
0000
0110
0000
,
0011
0000
0000
0110
0000
0000
1100
0000
,
1000
0000
0010
0000
0100
0001
0100
0001
,
0100
0000
0000
1100
0000
0000
0101
0000
,
0110
0000
0000
0101
0000
0000
0110
0000
,
1000
0010
1000
0010
1000
0000
0001
0000
,
0011
0000
0011
0000
0011
0000
0100
1000
,
0100
0000
0000
0011
0000
0000
1010
0000
,
0110
0000
0000
0011
0000
0000
0110
0000
,
1100
0000
0000
1010
0000
0000
0110
0000
,
0101
0000
0000
0110
0000
0000
1001
0000
,
0010
0000
0000
1000
0000
0000
0100
0000
,
0001
0000
0000
1000
0000
0000
0010
0000
,
0001
0010
0100
1000
0001
0100
0010
1000
,
0001
0100
0001
0010
0100
1000
0001
0010
,
0000
0000
0000
0000
,
0000
1002
0000
0000
,
0000
0000
0000
0020
,
0003
0200
0030
2000
,
0000
0000
0000
0300
,
0010
0000
0000
3010
0000
0000
0100
0000
,
1001
0001
1000
0100
,
0001
0010
0001
0100
,
1000
0000
0000
0000
0011
0000
0000
0000
0001
0010
0001
0010
0100
1000
0100
1000
,
0010
0100
0010
0100
0001
0010
0001
0010
0100
1000
0100
0010
0100
1000
0010
0100
,
0001
1000
0100
0010
0002
0000
0000
0000
0000
0000
0000
0000
0003
0000
0000
0000
,
1000
0000
0000
0010
0000
0000
0100
0000
0000
0000
0000
0000
0000
0000
0101
0000
0000
0000
0000
0000
0000
0000
1100
0000
,
0000
0000
0000
0010
0000
0000
0000
0001
0000
0000
0000
1000
,
0000
1001
0000
0110
,
0000
0000
0000
0001
0000
0010
0000
0001
0000
1000
0000
0100
,
0000
0001
0000
0100
0000
1000
0000
0010
0000
0100
0000
0001
,
0000
0100
0000
0010
1000
0010
1000
0010
0000
0100
0000
0010
,
0000
0010
0000
0001
0010
0001
0010
0001
0000
0100
0000
0100
,
0000
0000
1000
0000
0000
0000
0001
0000
0000
0100
0000
0000
0010
0000
0000
1000
0000
0000
0010
0000
0000
1000
0000
0000
,
0100
0010
0001
1000
0001
0100
0010
1000
,
0001
0100
0001
0010
0100
0010
0001
1000
,
0100
1000
0010
0100
0001
0100
0010
0100
,
0001
1000
0100
0010
0001
0010
0100
0010
,
0001
0100
0010
1000
0010
0100
1000
0100
,
0001
0100
0001
1000
0010
0001
0010
0100
,
0001
0010
1000
0010
0100
1000
0100
0010
,
0001
0010
0011
0000
0011
0000
0011
0000
,
0010
0001
1000
0000
1001
0000
1001
0000
,
1001
0000
0010
0100
0010
0000
0110
0000
,
0101
1100
0101
1100
,
0101
0000
0110
0000
0010
1000
1100
0000
,
0000
0101
0000
0000
,
0011
0000
0110
0000
0010
0001
0010
0000
,
0110
0000
0011
0000
0110
0000
1000
0001
,
1000
0000
1001
0000
0001
0100
0010
0000
,
0110
0000
0110
0000
1100
0000
0100
0001
,
0010
0000
0011
0000
0011
0000
0010
0001
,
1001
1001
1001
1001
,
1001
1001
1001
1001
,
1001
1001
0000
0000
,
0000
0000
0000
0110
,
1000
0000
0000
0000
0000
0001
0000
0000
0000
0000
1000
0000
0000
0000
0000
0100
0000
0000
0000
0000
1100
0000
0000
0000
0000
0000
0000
0000
0000
0000
0011
0000
,
0000
0000
0000
2002
0000
0000
0000
0000
,
0000
0000
0000
0000
,
0000
0000
0000
0000
,
0000
0000
0000
0000
,
0000
0000
0000
3003
,
0000
0000
0000
0000
;
#NOTES:
     dance-double:
     :
     Easy:
     13:
     :
00000000
00000000
00000000
00000000
,
00000000
00000000
00000000
00000000
,
00000000
00000000
00000000
00000000
,
00000000
00000000
00000000
00000000
,
00000000
00000000
00000000
00000000
,
00000000
00000000
00000000
00000000
,
00000000
00000000
00000000
00000000
,
00000000
00000000
00000000
00000000
,
00011000
00000000
00000000
00010000
00000000
00000000
00100000
00000000
,
10000000
00000000
00010000
00000000
00000000
00010000
00000000
00000000
,
00100000
00000000
01000000
00000000
00010000
00000000
00000000
00010000
,
00000000
00001000
00010000
00001000
,
00000000
00001000
00000000
00000000
00000100
00000000
00000010
00000000
,
00001000
00000000
00000000
00001000
00000000
00000000
00000001
00000000
,
00000010
00000000
00000001
00000000
00000000
00000001
00000000
00000000
,
00000100
00000000
00001000
00000000
00010000
00000000
00000000
00010000
,
00000000
00001000
00000010
00000100
,
00000000
00000100
00000000
00000000
00010000
00000000
00001000
00000000
,
00010000
00001000
00010000
00001000
,
00010000
00000000
01000000
00000000
,
10000000
00000000
01000000
00010000
,
01000000
00010000
01000000
00000000
,
00010000
00000000
00001000
00000000
,
00000100
00000001
00000100
00000001
,
00000100
00000000
00001000
00000000
,
00010000
00000000
01000000
00010000
,
01000000
00010000
01000000
00000000
,
00010000
00000000
00001000
00000000
,
00000010
00000001
00000010
00000001
,
00000010
00000000
00001000
00000000
,
00010000
00000000
00100000
00010000
,
00100000
00010000
00100000
00000000
,
00010000
00000000
00011000
00000000
,
00000100
00001000
00000100
00000000
,
00010000
00001000
00010000
00000000
,
00000010
00001000
00000010
00000000
,
00010000
00001000
00010000
00000000
,
00001000
00100000
00001000
00000000
,
01000000
00010000
01000000
00000000
,
00100000
01000000
00100000
00000000
,
10000000
00100000
10000000
00000000
,
00010000
00100000
00010000
00100000
,
00001000
00010000
00001000
00010000
,
00000010
00001000
00000010
00001000
,
00000001
00000010
00000001
00000010
,
00000022
00000000
00000000
00000033
,
00000000
00000000
00000000
00000000
,
00001001
00000000
00000001
00000000
00001000
00000001
00000100
00000000
,
00000010
00001000
00000010
00000000
00010000
00001000
00010000
00000000
,
00011000
00000000
00001000
00000000
00100000
00010000
00100000
00000000
,
00010000
10000000
01000000
00000000
00100000
01000000
00100000
00000000
,
10010000
00000000
00100000
00000000
00001000
00100000
00010000
00000000
,
01000000
00010000
01000000
00000000
00010000
10000000
01000000
00000000
,
00010000
00001000
00000100
00001000
,
00020000
00000000
00000000
00000000
,
00000000
00000000
00000000
00000000
,
00000000
00000000
00000000
00000000
,
00000000
00000000
00000000
00000000
,
00030000
00000000
00001000
00000000
00010000
00000000
00000010
00001000
,
00000001
00000010
00000001
00001000
00000001
00000000
00000000
00000000
,
00000100
00000000
00001000
00000000
00010000
00000000
00100000
10000000
,
00100000
10000000
00010000
10000000
,
01000000
00000000
00010000
00000000
01000000
00100000
01000000
00000000
,
10000000
00000000
01000000
00000000
00100000
00001000
00010000
00000000
,
00000020
00000000
00000000
00000030
,
00001000
00001000
00001001
00001001
,
00000001
00000000
00001100
00000000
00001020
00000000
00000000
00000100
,
00000000
00000100
00000000
00000130
00000000
00010000
00001000
00010000
,
00000000
00000100
00000000
00010000
00001000
00010000
00001000
00010000
,
00001000
00010000
00001000
00100000
00000000
00010000
00100000
00000000
,
00010000
00000000
01010000
00000000
00210000
00000000
00000000
01000000
,
00000000
01000000
00000000
01300000
00000000
00001000
00010000
00001000
,
00100000
00010000
00100000
00000000
01000000
00000000
00010000
00000000
,
00001000
00000010
00000001
00000011
,
00000101
00000000
00001100
00000000
00000201
00000000
00000000
00000010
,
00000000
00000010
00000000
00000310
00000000
00001000
00010000
00001000
,
00000000
00100000
00000000
00010000
00100000
00010000
00100000
00010000
,
00100000
00001000
00010000
00001000
00000000
00010000
00000010
00000000
,
00001000
00000001
00001000
00000001
,
00001000
00000100
00001000
00000100
,
00010000
00001000
00010000
00001000
,
00100000
00010000
00100000
00010000
,
00200000
00000000
00000000
00000000
,
00000000
00000000
00000000
00000000
,
00310000
00000000
10000000
10000000
,
00010000
01000000
00100000
00000000
,
10000000
01000000
00100000
00000000
,
00010000
10000000
00010000
10000000
,
00020000
00000000
00000000
00030000
,
00100000
00001000
00010000
00000000
,
00001000
00010000
00001000
00000000
,
00202000
00000000
00000000
00000000
,
00000000
00000000
00303000
00000000
,
00001000
00010000
00001000
00000000
,
00010000
00000010
00010000
00000000
,
00022000
00000000
00000000
00000000
,
00033000
00000000
00000000
00000000
,
00010000
00000010
00001000
00000000
,
00000100
00001000
00000100
00000000
,
00001000
00000100
00000010
00000001
,
00001000
00000000
00000000
00000001
00000000
00000000
00000100
00000000
,
00001000
00000000
00000000
00000100
00000000
00000000
00000001
00000000
,
00001000
00000000
00000000
00000100
00000000
00000000
00000001
00000000
,
00000100
00010000
00001000
00000000
,
00001000
00000000
00000000
00010000
00000000
00000000
01000000
00000000
,
00100000
00000000
00000000
00010000
00000000
00000000
00100000
00000000
,
01000000
00010000
01000000
10000000
,
00010000
10000000
00010000
00000000
,
00010000
00000000
00000000
00100000
00000000
00000000
10000000
00000000
,
00100000
00000000
00000000
00010000
00000000
00000000
10000000
00000000
,
00010000
00000000
00000000
00100000
00000000
00000000
00001000
00000000
,
00010000
00000000
00000000
00100000
00000000
00000000
00010000
00000000
,
00001000
00000000
00000000
00001000
00000000
00000000
00001000
00000000
,
00010000
00000000
00000000
00010000
00000000
00000000
00010000
00000000
,
00001000
00010000
00000100
00001000
,
00000010
00000100
00000001
00000100
,
00000000
00000000
00000000
00000000
,
00000000
00002000
00000000
00000000
,
00000000
00000000
00000000
00000000
,
00000000
00000000
00003000
00020000
,
00000000
00000000
00000000
00030000
,
00011000
00000000
00000000
01000000
,
01000000
00100000
01000000
00100000
,
00010000
00001000
00010000
00001000
,
00000010
00000000
00010000
00100000
,
00010000
00001000
00100000
00010000
,
00100000
02000000
00000000
00000000
,
00000000
00000000
00000000
13000000
00000000
00000000
00000000
10000000
00000000
00000000
00000000
10000000
,
00000000
00000000
00000000
00010000
00000000
00000000
00000000
10000000
00000000
00000000
00000000
00010000
,
00000000
00100000
00000000
00110000
,
00000000
00011000
00000000
00010010
,
00000000
00011000
00000000
00101000
,
00000000
00011000
00000000
00001100
,
00000000
00000110
00000000
00001100
,
00000000
00000001
00000010
00000001
,
00001000
00000001
00001000
00000001
,
00001000
00000100
00001000
00000100
,
00001000
00010000
00001000
00010000
,
00100000
00010000
00100000
00010000
,
00100000
01000000
10000000
01000000
,
00100000
00010000
00100000
00001000
,
00010000
00000100
00001000
00000001
,
00000100
00000001
00000100
00000001
,
00000000
00001000
00000001
00001000
,
00000001
00000000
00000010
00000100
,
00000010
00000100
00000010
00000100
,
00000010
00000100
00000000
00010000
,
00000000
00001000
00000000
00000000
,
01000000
00010000
00000000
00100000
,
00010000
00100000
00010000
00000000
,
10000000
01000000
00000000
10000000
,
00010000
10000000
00010000
00000000
,
01000000
00010000
01000000
00000000
,
00001000
00010000
00001000
00010000
,
00001000
00010000
00001000
00010000
,
00001000
00010000
00000000
00000000
,
00000000
00000000
00000000
00011000
,
00000000
00000000
00000000
00000000
00000000
01000000
00000000
00000000
00000000
00000000
00100000
00000000
00000000
00000000
00000000
10000000
,
00000000
00000000
00000000
00200000
00000000
00000000
00000000
00000000
,
00000000
00000000
00000000
00000000
,
00000000
00000000
00000000
00000000
,
00000000
00000000
00000000
00000000
,
00000000
00000000
00000000
00300000
,
00000000
00000000
00000000
00000000
;
#NOTES:
     dance-double:
     :
     Medium:
     15:
     :
00000000
00000000
00000000
00000000
,
00000000
00000000
00000000
00000000
,
00000000
00000000
00000000
00000000
,
00000000
00000000
10000000
00000000
,
00000000
00010000
00000000
00000000
,
00002000
00000000
00000000
00000000
,
00000000
00000000
00000000
00000000
00000000
00000020
00000000
00000000
,
00000000
00000000
00003000
00000000
,
00001030
00000000
00000000
00000001
00000000
00000000
00000101
00000000
,
00001100
00000000
00000100
00000000
00000000
00010000
00000000
00000000
,
00011000
00000000
01010000
00000000
01000000
00000000
00000000
00100000
,
00000000
10100000
00110000
00100000
,
00000000
00001000
00000000
00000000
00011000
00000000
00001100
00000000
,
00000100
00000000
00000000
00000010
00000000
00000000
00000011
00000000
,
00001100
00000000
00000100
00000000
00000000
00010000
00000000
00000000
,
01010000
00000000
11000000
00000000
00010000
00000000
00000000
10000000
,
00000000
00000000
00000000
00000000
11000000
00000000
00000000
00000000
00110000
00000000
00000000
00000000
00001000
00000000
00000000
00010000
,
00000000
00000000
00001000
00000000
00000000
00000010
00000000
00000000
00000001
00000000
00000100
00000000
00001000
00000000
00010000
00000000
,
01000000
00100000
01000000
10000000
,
01000000
00100000
01000000
00010000
,
00001000
00000000
00000100
00000010
,
00000100
00000001
00000100
00000010
,
00000100
00001000
00010000
00000000
,
00100000
01000000
00010000
10000000
,
01000000
00100000
00010000
00001000
,
00000100
00000000
00000010
00000100
,
00001000
00000001
00000100
00000010
,
00001000
00010000
01000000
00000000
,
00010000
00100000
00010000
01000000
,
00100000
01000000
00010000
00100000
,
00010000
00000000
00001000
00000010
,
00001000
00000100
00000010
00000100
,
00001000
00000010
00001000
00000000
,
00010000
01000000
00100000
00000000
,
10000000
01000000
00010000
00000000
,
00001000
00010000
00100000
00000000
,
00010000
00001000
00000010
00000000
,
00000001
00000100
00000010
00000000
,
00010000
00001000
00000010
00000000
,
00001000
00010000
00100000
00000000
,
10000000
00100000
00010000
00000000
,
00001000
00010000
00001000
00100000
,
01000000
10000000
00100000
01000000
,
00001000
00010000
01000000
00010000
,
00001000
00000100
00000001
00001000
,
00002002
00000000
00000000
00003003
,
00000000
00000000
00000000
00000000
,
00001100
00000000
00000001
00000010
00000001
00000010
00000100
00000010
,
00000100
00001000
00000100
00010000
00100000
00010000
00001000
00000000
,
01010000
00000000
10000000
00100000
10000000
00100000
01000000
00100000
,
01000000
00010000
01000000
00001000
00000010
00001000
00010000
00000000
,
00001100
00000000
00000001
00000100
00000010
00001000
00010000
01000000
,
00100000
10000000
01000000
00100000
00010000
00001000
00000100
00000000
,
00000110
00001000
00000100
00001000
,
00000020
00000000
00000000
00000000
,
00000000
00000000
00000000
00000000
,
00000000
00000000
00000000
00000000
,
00000000
00000000
00000000
00000000
,
00000030
00000000
00000000
00000000
00000110
00000000
00000000
00000000
00000001
00000000
00000000
00001000
00000001
00000000
00000100
00000000
,
00000001
00000100
00000001
00000100
00000001
00001000
00000100
00000001
,
00000100
00000000
00000000
00000000
00010100
00000000
00000000
00000000
00010000
00000000
00000000
00000010
00010000
00000000
00001000
00000000
,
00010000
00000100
00000010
00001000
00010000
01000000
10000000
00010000
,
10000000
00000000
00000000
00000000
11000000
00000000
00000000
00000000
00010000
00000000
00000000
00001000
00010000
00000000
01000000
00000000
,
00100000
00000000
00000000
00001000
00010000
00000000
01000000
00000000
00100000
00000000
00001000
00000000
00010000
00000000
01000000
00000000
,
20000000
00000000
00000000
30000000
,
00010000
00000000
00001000
00000000
00000001
00000001
00000001
00000001
,
00001000
00000000
00001100
00000000
00001020
00000000
00000031
00000010
,
00000000
00001000
00000100
00001000
00000000
00010000
00100000
00010000
,
00000000
01000000
00000000
00001000
00010000
00001000
00010000
00100000
,
01000000
00000000
00010000
10000000
00010000
00000000
10000000
00000000
01000000
00000000
00100000
00000000
00100000
00000000
00000000
00000000
,
00010000
00000000
01010000
00000000
00210000
00000000
10300000
00100000
,
00000000
00010000
01000000
00010000
00000000
00001000
00000010
00001000
,
00000010
00000000
00010000
00001000
00010000
00000000
00001000
00000000
00010000
00000000
01000000
00000000
00100000
00000000
00001000
00000000
,
00010000
00001000
00010000
00000010
00000100
00000000
00000011
00000000
,
00000101
00000000
00001100
00000000
00000201
00000000
00001300
00000100
,
00000000
00000001
00000010
00000001
00000000
00001000
00010000
00001000
,
00000000
00000000
00010000
00000000
00000000
00000000
00100000
00000000
00001000
00000000
00010000
00001000
00010000
00000000
00001000
00000000
,
01000000
00000000
00100000
00010000
00000000
00001000
00000010
00000000
,
00000001
00000100
00000010
00001000
,
00000100
00000000
00010000
00000000
00001000
00010000
00001000
00000000
,
00010000
00100000
01000000
00010000
,
00100000
01000000
00100000
00000000
00001000
00000000
00010000
00000000
,
00022000
00000000
00000000
00000000
,
00000000
00000000
00000000
00033000
,
00001000
00010000
00000010
00001000
00000001
00000010
00000100
00001000
,
00000001
00000100
00000010
00001000
,
00000100
00000010
00000001
00000100
,
00000010
00000000
00001000
00000000
00000100
00010000
00001000
00000000
,
00020000
00000000
00000000
00030000
,
00001000
00000010
00001000
00010000
,
00100000
00000000
00010000
00000000
00001000
00010000
00001000
00000000
,
00022000
00000000
00000000
00000000
,
00000000
00000000
00033000
00000000
,
00001000
00010000
01000000
10000000
,
01000000
00000000
00010000
00000000
00001000
00000010
00001000
00000000
,
00020000
00000000
00000000
00000000
,
00030100
00000010
00000001
00000100
,
00000010
00001000
00000100
00010000
,
00001000
00000000
01000000
00000000
00010000
10000000
00010000
00000000
,
00100000
00000000
00000000
00000000
00010000
00000000
00000000
00000000
00100000
00000000
01000000
00000000
00100000
00010000
00200000
00000000
,
00310000
00000000
00000000
00100000
00000000
00000000
01000000
00000000
,
00100000
00000000
00000000
00001000
00000000
00000000
00010000
00000000
,
00001000
00000000
00000000
00000100
00000000
00000000
00000010
00000000
,
00000100
00000000
00001000
00000000
00010000
00001000
00010000
00000000
,
01000000
00000000
00000000
10000000
00000000
00000000
01000000
00000000
,
00010000
00000000
00000000
00001000
00000000
00000000
00000100
00000000
,
00000001
00000010
00000001
00000100
,
00001000
00010000
00001000
00010000
,
00100000
00000000
00000000
10000000
00000000
00000000
00100000
00000000
,
00010000
00000000
00000000
00001000
00000000
00000000
00000010
00000000
,
00001000
00000000
00000000
00010000
00000000
00000000
01000000
00000000
,
00010000
00000000
00000000
00001000
00000000
00000000
00000100
00000000
,
00000001
00000000
00000000
00000100
00000000
00000000
00001000
00000000
,
00000100
00000000
00000000
00000010
00000000
00000000
00010000
00000000
,
00001000
01000000
00010000
00100000
,
00001000
00000000
00010000
00000000
00000100
00000010
00000100
00000010
,
00000000
00000000
00000000
00000000
,
00000000
00000002
00000000
00000000
,
00000000
00000000
00000100
00000000
,
00000000
00000000
00000000
00002003
,
00000000
00000000
00000000
00000000
,
00003010
00000000
00000000
00000010
00000000
00000000
00010000
00000000
,
00001000
00010000
00110000
00001000
,
00001010
00010000
00001100
00000110
,
00000011
00000000
00000000
00000000
00000001
00000100
00000001
00000100
,
00000010
00001000
00000010
00001000
00000100
00010000
00000100
00010000
,
00001000
00010000
00000020
00000000
00000000
00000000
00000000
00000000
,
00000130
00000000
00000000
00000100
00000000
00000000
00000000
00000100
00000000
00000000
00000000
00000100
,
00000000
00000000
00000000
00001000
00000000
00000000
00000000
00010000
00000000
00000000
00000000
00001000
,
00000000
00010000
00000000
00011000
,
00000000
00000000
00000000
00001000
00000000
00000000
00000000
00100000
00000000
00010000
00000000
00100000
,
00000000
00010000
00000000
00100000
00000000
00000000
00000000
01000000
00000000
00100000
00000000
01000000
,
00000000
00100000
00000000
01000000
00000000
00000000
00000000
10000000
00000000
00010000
00000000
10000000
,
00000000
00010000
00000000
01000000
00000000
00000000
00000000
00001000
00000000
00010000
00000000
00001000
,
00000000
00010000
00000000
00001000
00000000
00000000
00000100
00000000
00000000
00000010
00000000
00000000
,
00001000
00000100
00000010
00000001
,
00000010
00001000
00010000
01000000
,
00100000
00010000
01000000
00100000
,
00010000
00001000
00010000
00100000
,
10000000
00100000
00010000
00100000
,
01000000
00001000
00000100
00000010
,
00001000
00000001
00000010
00000100
,
00001000
00010000
00100000
01000000
,
00000000
10000000
00010000
10000000
,
00010000
00000000
01000000
00010000
,
00001000
00000010
00000100
00000010
,
00000100
00000010
00000000
00001001
,
00000000
00001001
00000000
00000000
,
00000100
00001000
00000000
00010000
,
00001000
00010000
00001000
00000000
,
01000000
00100000
00000000
10000000
,
00010000
10000000
10000000
00000000
,
00010000
00010000
00020000
00000000
,
00001000
00001000
00001000
00001000
,
00001000
00001000
00001000
00001000
,
00001000
00031000
00000000
00000000
,
00000000
00000000
00000000
00011000
,
00000100
00000000
00000000
00000000
00000000
00000010
00000000
00000000
00000000
00000000
00000001
00000000
00000000
00000000
00000000
00001000
,
00000000
00000000
00000000
00000020
00000000
00000000
00000000
00000000
,
00000000
00000000
00000000
00000000
,
00000000
00000000
00000000
00000000
,
00000000
00000000
00000000
00000000
,
00000000
00000000
00000000
00000030
,
00000000
00000000
00000000
00000000
;
#NOTES:
     dance-double:
     :
     Hard:
     18:
     :
00000000
00000000
00000000
00000000
,
00000000
00000000
00000000
00000000
,
00000000
00000000
00000000
00000000
,
00000000
00000000
00200000
00000000
,
00000000
00302000
00000000
00003000
,
00010000
00000000
00000000
00000000
00000000
00000000
00000000
00000000
00000000
00000000
00000000
00000000
00100000
00000000
00000000
00000000
10000000
00000000
00000000
00000000
00100000
00000000
00000000
00000000
10000000
00000000
00000000
00000000
00000000
00000000
00000000
00000000
00000000
00010000
00000000
00000000
00000000
00000000
00000000
00000000
00000000
00000000
00100000
00000000
00000000
00000000
00000000
00000000
,
00000000
00001000
00000000
00000000
00000000
00000020
00000000
00000000
,
00000000
00000000
00000000
00000000
,
00000031
00000010
00001000
00000100
00000010
00000000
00000110
00000000
,
00001100
00000000
00001000
00000100
00000001
00000010
00001000
00000000
,
00011000
00000000
00110000
00000000
00010000
01000000
10000000
00100000
,
01000000
00000000
01100000
00000000
10010000
00000000
00010000
00100000
,
01000000
00000000
00010000
00000000
00001000
00000000
00000000
00000000
00001000
00010000
00001000
00010000
00001000
00000000
00000000
00000000
,
00000100
00000010
00001000
00000100
00000001
00000000
00000011
00000000
,
00001010
00000000
00010000
00001000
00000010
00000001
00000010
00000000
,
00000100
00001000
00000100
00001000
00000001
00000000
00000000
00000000
00000100
00000000
00001000
00000000
00010000
00000000
00100000
00000000
,
00010000
00000000
00001000
00000000
00000010
00000000
00000001
00000000
00000100
00000000
00001000
00000000
00010000
00000000
00000000
00001000
,
00000000
00000000
00100000
00000000
00000000
00010000
00000000
00000000
00010000
10000000
00010000
10000000
00010000
10000000
00010000
10000000
,
00010000
01000000
10000000
01000000
,
00010000
00001000
00000010
00000001
,
00000010
00001000
00000100
00000000
00001000
00000000
00000100
00000000
,
00000001
00000100
00001000
00010000
,
00100000
00000000
10000000
00000000
00100000
00010000
01000000
00000000
,
00001000
00010000
00000010
00000100
,
00000001
00000100
00001000
00010000
,
00100000
00010000
00001000
00000000
00010000
00000000
00001000
00000000
,
00100000
01000000
10000000
01000000
,
00010000
00000000
00001000
00000000
00000010
00001000
00010000
00000000
,
00001000
01000000
00100000
00010000
,
00001000
01000000
00100000
00010000
,
00000010
00010000
00001000
00000000
00010000
00000000
00000100
00000000
,
00000010
00001000
00010000
00000100
,
00000010
00001000
00011000
00000000
,
00001000
00000100
00000010
00000001
00000000
00000000
00000000
00000000
,
00000001
00000100
00000010
00001000
00000000
00000000
00000000
00000000
,
00010000
01000000
00100000
10000000
00000000
00000000
00000000
00000000
,
10000000
01000000
00100000
00010000
00000000
00000000
00000000
00000000
,
00001000
00000100
00000010
00000001
00000000
00000000
00000000
00000000
,
00000001
00000100
00000010
00001000
00000000
00000000
00000000
00000000
,
00010000
01000000
00100000
10000000
00000000
00000000
00000000
00000000
,
10000000
01000000
00100000
00010000
00000000
00000000
00000000
00000000
,
00001000
00000100
00000010
00000000
00000001
00000100
00000010
00000000
,
00010000
00001000
00100000
00000000
00000100
00010000
00001000
00000000
,
00000010
00000001
00001000
00000000
00000100
00010000
00001000
00000000
,
00100000
01000000
10000000
00100000
01000000
00010000
10000000
00000000
,
20020000
00000000
00000000
30030000
,
00000000
00000000
00000000
00000000
,
00000101
00000000
00000001
00000100
00001000
00010000
00100000
10000000
,
00010000
00000000
01000000
00000000
10000000
00000000
01000000
00000000
00010000
00100000
00010000
00100000
00010000
00000000
00000000
00000000
,
11000000
00000000
10000000
01000000
00010000
00001000
00000010
00000001
,
00001000
00000000
00000100
00000000
00000001
00000000
00000100
00000000
00001000
00000010
00001000
00000010
00001000
00000000
00000000
00000000
,
00000011
00000000
00000001
00000010
00001000
00010000
01000000
10000000
,
01000000
00000000
00100000
00000000
00010000
00000000
10000000
00000000
01000000
00100000
01000000
00100000
01000000
00000000
00000000
00000000
,
01010000
00011000
00110000
00011000
,
00000120
00000000
00000000
00000000
,
00000000
00000000
00000000
00000030
,
00000100
00000010
00000100
00000010
,
00000100
00000010
00000100
00000010
,
00000000
00000000
00000000
00000000
00001100
00000000
00000000
00000000
00000010
00000000
00000000
00000001
00000100
00000000
00001000
00000000
,
00010000
00000000
00100000
00000000
00100000
00000000
00010000
00000000
10000000
01000000
00100000
00010000
00100000
01000000
10000000
00000000
,
00100000
00000000
00000000
00000000
00110000
00000000
00000000
00000000
00001000
00000000
00000000
00100000
00010000
00000000
01000000
00000000
,
00010000
00000000
00100000
00000000
00100000
00000000
10000000
00000000
01000000
00100000
01000000
00100000
00010000
00100000
00001000
00000000
,
00010000
00000000
00000000
00000000
01010000
00000000
00000000
00000000
10000000
00000000
00000000
10000000
00100000
00000000
00010000
00000000
,
00001000
00000010
00001000
00001000
00000100
00010000
00001000
00000100
,
00000201
00000001
00000010
00000310
,
00000110
00000000
00011000
00000000
00000010
00000010
00000010
00000010
,
00001010
00000000
00011000
00000000
00102000
00000000
00013000
01000000
,
00000000
01000000
00000000
10000000
00100000
10000000
01000000
10000000
,
00100000
00010000
00001000
00000100
00000001
00000100
00001000
00010000
,
00010000
00000000
00000100
00001100
00000000
00000010
00000011
00000000
,
00000110
00000000
00001010
00000000
00000102
00000000
00000013
00001000
,
00000000
00000010
00000000
00000001
00001000
00000010
00000001
00000010
,
00000100
00000000
00000001
00001000
00000010
00000000
00001000
00000000
00000100
00000000
00001000
00000000
00000010
00000000
00010000
00000000
,
00001000
00010000
00001000
00011000
00000000
00100000
00110000
00000000
,
10010000
00000000
01100000
00000000
00210000
00000000
10300000
00020000
,
00000000
00001000
00000000
01030000
10000000
00010000
00100000
10000000
,
00100000
00010000
01000000
00001000
00010000
00001000
00100000
01000000
,
00010000
00000000
00001000
00010000
00001000
00000000
00011000
00000000
00000000
00000000
00010000
00000000
00010010
00000000
00000000
00000000
,
00001000
00000100
00001000
00000100
00001000
00000100
00001000
00000100
,
00010000
00000100
00010000
00000100
00010000
00000100
00010000
00001000
,
00100000
00001000
00100000
00001000
00100000
00001000
00100000
00010000
,
01000000
00010000
01000000
00000000
00100000
00000000
01000000
00000000
,
02100000
00000000
00000000
00000000
,
00100000
00000000
00000000
00000000
,
03100000
01000000
00010000
01000000
00001000
00010000
00000010
00001000
,
00000001
00000100
00000010
00001000
,
00000100
00000000
00000010
00000000
00000001
00000100
00000010
00000000
,
00001000
00000000
00010000
00000000
00001000
00000100
00000010
00000000
,
00000002
00000000
00000000
00000003
,
00000100
00000010
00001000
00010000
,
00100000
00000000
00010000
00000000
00001000
00000100
00000010
00000000
,
00000002
00000000
00000000
00000000
,
00000000
00000000
00000000
00000003
,
00000100
00000000
00000010
00000000
00001000
00010000
01000000
00000000
,
00100000
00000000
01000000
00000000
00010000
00100000
00010000
00000000
,
00001000
00000100
00000010
00000001
,
00000100
00000010
00001000
00010000
,
01000000
00100000
10000000
00000000
01000000
00100000
00010000
00000000
,
00001000
00000100
00000010
00000000
00000001
00000100
00001000
00000000
,
00010000
00000000
00000000
00000000
00000000
00000000
00000000
00000000
01000000
00000000
00000000
00000000
00000000
00000000
00000000
00000000
10000000
00000000
00000000
00000000
00000000
00000000
00000000
00000000
01000000
00000000
00000000
00000000
00010000
00000000
00000000
00000000
00001000
00000000
00000000
00000000
00000100
00000000
00000000
00000001
00000000
00000000
00000100
00000000
00000000
00001000
00000000
00000000
,
00020000
00000000
00000000
00001000
00000000
00000000
00031000
00000000
,
00002000
00000000
00000000
00000100
00000000
00000000
00003100
00000000
,
00000200
00000000
00000000
00000001
00000000
00000000
00000301
00000000
,
00000001
00000000
00000010
00000000
00000001
00000010
00000001
00000010
,
00000002
00000000
00000000
00000100
00000000
00000000
00000103
00000000
,
00000200
00000000
00000000
00001000
00000000
00000000
00001300
00000000
,
00010000
00001000
00010000
00001000
00010000
00000000
00100000
00000000
,
10000000
00100000
01000000
00010000
,
02000000
00000000
00000000
00100000
00000000
00000000
03010000
00000000
,
00020000
00000000
00000000
00100000
00000000
00000000
00031000
00000000
,
00002000
00000000
00000000
00000100
00000000
00000000
00013000
00000000
,
00020000
00000000
00000000
00100000
00000000
00000000
01030000
00000000
,
00001000
00000000
00000000
00000100
00000000
00000000
00001000
00000000
,
00010000
00000000
00000000
01000000
00000000
00000000
10000000
00000000
,
00010000
00100000
00010000
00100000
00010000
00100000
00010000
10000000
,
00100000
10000000
00100000
10000000
00100000
10000000
00100000
01000000
,
00000000
00000000
00000000
00000000
,
00000000
00002000
00000000
00000000
,
00000000
00000000
00000001
00000000
,
00000000
00000000
00000000
00023000
,
00000000
00000000
00000000
00000000
,
00130000
00000000
00000000
00010000
00000000
00000000
00011000
00000000
,
01000000
00000000
00100000
10000000
00000000
01000000
00010000
00000000
,
10000000
00100000
00000000
01000000
10000000
00000000
00010000
01000000
,
00001000
00010000
00000000
00000000
00000100
00001000
00000001
00000010
,
00000100
00000000
00001000
00000000
00000100
00000000
00000010
00000000
00000001
00000100
00000000
00001000
00000001
00000000
00000010
00000000
,
00000100
00000001
00000000
00001000
00000200
00000000
00000000
00000000
00000000
00000000
00000000
00000000
00000000
00000000
00000000
00000000
,
00000310
00000000
00000000
00000100
00000000
00000000
00000010
00000000
00000000
00000000
00000000
00000000
00000000
00000000
00000010
00000000
00000000
00000000
00000000
00000000
00000000
00000000
00000010
00000000
,
00000000
00000000
00000000
00000100
00000000
00000000
00000000
00010000
00000000
00000000
00000000
00001000
,
00000000
00011000
00000000
00000110
,
00000000
00000000
00000000
00000001
00000000
00001000
00000000
00000100
00000000
00000010
00000000
00000001
,
00000000
00000010
00000000
00001000
00000000
00010000
00000000
00001000
00000000
00100000
00000000
00010000
,
00000000
01000000
00000000
00010000
00000000
00100000
00000000
00010000
00000000
01000000
00000000
00100000
,
00000000
01000000
00000000
00010000
00000000
00100000
00000000
00001000
00000000
00000100
00000000
00000010
,
00000000
00000000
00000100
00000000
00000000
00000000
00000001
00000000
00000000
00000010
00000000
00000000
00000001
00000000
00000000
00000000
00000000
00000000
00001000
00000000
00000000
00000001
00000000
00000000
,
00001000
00000000
00000010
00000100
00001000
00000000
00010000
00001000
,
00010000
00001000
00100000
00010000
00100000
00000000
01000000
00100000
,
01000000
00000000
10000000
00010000
01000000
00000000
10000000
01000000
,
10000000
01000000
10000000
01000000
00010000
00000000
00100000
00010000
,
00100000
00000000
00001000
00010000
00001000
00000000
00000010
00000001
,
00000010
00000001
00001000
00000001
00001000
00000100
00000010
00000100
,
00001000
00000100
00010000
00001000
00100000
00010000
00100000
00001000
,
00100000
00010000
00100000
00000000
01000000
00000000
01100000
00000000
,
00000000
10000000
01000000
00010000
,
00011000
00000000
00000100
00000001
,
00001000
00010000
00001000
00000001
,
00001000
00011000
00000000
01010000
,
00000000
00110000
00000000
00000000
,
00011000
00011000
00000000
00010000
,
00000010
00000001
00000011
00000000
,
00001001
00001001
00000000
00000001
,
00000100
00001000
00011000
00000000
,
00001000
00100000
10100000
00000000
,
10000000
00010000
00001000
00000010
,
00001000
00010000
00100000
00010000
,
00001000
00001001
00000000
00000000
,
00000000
00000000
00000000
10010000
,
10000000
00000000
00000000
00000000
00000000
01000000
00000000
00000000
00000000
00000000
00010000
00000000
00000000
00000000
00000000
00001000
00000000
00000000
00000000
00000000
00000010
00000000
00000000
00000000
00000000
00000000
00000000
00000000
00000000
00000000
00000001
00000000
,
00000000
00000000
00000000
00002002
00000000
00000000
00000000
00000000
,
00000000
00000000
00000000
00000000
,
00000000
00000000
00000000
00000000
,
00000000
00000000
00000000
00000000
,
00000000
00000000
00000000
00003003
,
00000000
00000000
00000000
00000000
;
#NOTES:
     dance-double:
     :
     Challenge:
     19:
     :
00000000
00000000
00000000
00000000
,
00000000
00000000
00000000
00000000
,
00000000
00000000
00000000
00000000
,
00000000
00000000
00000000
00000000
00000000
00000000
00001000
00000010
00000001
00000010
00000000
00000000
,
00001000
00000000
00000000
00010000
00100000
10000000
00100000
00000000
00000000
00010000
00000000
00000000
,
00001000
00000000
00000000
00000000
00000000
00000000
00000000
00000000
00000000
00000000
00000000
00000000
00000010
00000000
00000000
00000000
00000001
00000000
00000000
00000000
00000010
00000000
00000000
00000000
00000001
00000000
00000000
00000000
00000000
00000000
00000000
00000000
00000000
00001000
00000000
00000000
00000000
00000000
00000000
00000000
00000000
00000000
00000010
00000000
00000000
00000000
00000000
00000000
,
00000000
00010000
00000000
00000000
00000000
02200000
00000000
00000000
,
00000000
00000000
00000000
03000000
,
10300000
00100000
01000000
00010000
00100000
00001000
00011000
00000000
,
00110000
00000000
00010000
00100000
00010000
01000000
00001000
00010000
,
00011000
00000000
00001010
00000000
00000010
00001000
00000100
00000010
,
00000001
00001000
00001001
00000000
00000011
00000000
00000010
00000100
,
00010000
00000000
00000100
00000000
00000010
00000000
00000100
00000000
00010000
00001000
00010000
00001000
00010000
00000000
00000000
00000000
,
00000010
00001000
00000100
00000001
00000100
00010000
00011000
00000000
,
00101000
00000000
00100000
00010000
01000000
10000000
01000000
00001000
,
00010000
00001000
00010000
00001000
00010000
00000000
00000000
00000000
00001000
00000000
00000010
00000000
00001000
00000000
00100000
00000000
,
10000000
00000000
00100000
00000000
00001000
00000000
00000010
00000000
00000100
00000000
00001000
00000000
00000010
00000000
00000000
00010000
,
00000000
00000000
00010000
00000000
00000000
00100000
00000000
00000000
01000000
10000000
01000000
10000000
01000000
00100000
00010000
00100000
,
00010000
00000000
01000000
00000000
00010000
01000000
10000000
01000000
,
00010000
00000000
00100000
00000000
00010000
00100000
00010000
00000000
,
00100000
00010000
00100000
00001000
00010000
00000000
00000100
00000000
,
00001000
00000100
00000001
00000100
00001000
00000000
00000010
00000000
,
00001000
00000010
00001000
00000000
00000010
00001000
00000010
00010000
,
00001000
00000000
00100000
00000000
00010000
00100000
10000000
00100000
,
00010000
00000000
01000000
00000000
00010000
01000000
00010000
00000000
,
01000000
00010000
01000000
00001000
00010000
00000000
00000010
00000000
,
00001000
00000010
00000001
00000010
00001000
00000000
00000100
00000000
,
00001000
00000100
00001000
00000100
00000010
00000001
00001000
00000100
,
00001000
00000000
00000100
00000000
00010000
01000000
00100000
01000000
,
00100000
00000000
00010000
00000000
00100000
00010000
00100000
00000000
,
00010000
00100000
00010000
00100000
00001000
00000000
00010000
00000000
,
00001000
00000100
00000010
00000100
00000010
00000000
00001000
00000000
,
00000010
00001000
00000010
00001000
00000001
00000010
00000100
00000010
,
00000001
00000010
00000100
00001000
00000200
00000000
00000000
00000300
,
00010000
00000010
00001000
00000010
00000200
00000000
00000000
00000300
,
00001000
00010000
00100000
01000000
00200000
00000000
00000000
00300000
,
10000000
00100000
01000000
00010000
02000000
00000000
00000000
03000000
,
00001000
00100000
00010000
00100000
02000000
00000000
00000000
03000000
,
00010000
00001000
00000010
00000100
00000020
00000000
00000000
00000030
,
00000001
00000100
00000010
00001000
00020000
00000000
00000000
00030000
,
10000000
01000000
00100000
00010000
00002000
00000000
00000000
00003000
,
00000001
00000100
00000001
00000100
00000010
00000100
00000010
00001000
,
00000010
00001000
00000001
00000010
00000001
00001000
00000100
00010000
,
00001000
00010000
00100000
10000000
00100000
01000000
00010000
00100000
,
01000000
00100000
00001000
00010000
00001000
00000010
00001000
00010000
,
00022000
00000000
00000000
00033000
,
00000000
00000000
00000000
00000000
,
00011000
00000000
00000100
00001000
00000010
00000100
00001000
00010000
,
01000000
00100000
10000000
00000000
00100000
00010000
01000000
00000000
00001000
01000000
00100000
00010000
00100000
01000000
00001000
00010000
,
00001000
00000000
01000000
00010000
00100000
01000000
00010000
00001000
,
00000100
00000010
00000100
00000010
00001000
00000010
00001000
00000010
00001000
00000001
00000010
00000100
00001000
00010000
00100000
01000000
,
10000000
00000000
10000000
00100000
00010000
00001000
00000100
00000010
,
00010000
00000000
00001000
00000100
00000010
00000000
00001000
00000000
00000001
00000100
00000010
00000100
00000001
00001000
00000100
00000010
,
00000100
00000101
00001100
00011000
,
00001000
00000001
00001000
00000001
,
00001000
00000001
00001000
00000001
,
00001000
00000001
00000100
00000010
,
00001000
00010000
01000000
00100000
,
10000000
00000000
00000000
00000000
01100000
00000000
00000000
00000000
00010000
00000000
00000000
10000000
00100000
00000000
00010000
00000000
,
00001000
00000000
00001000
00000000
00000010
00000000
00000100
00000000
00000100
00001000
00000100
00000010
00000001
00000010
00000100
00001000
,
00000100
00000000
00000000
00000000
00000110
00000000
00000000
00000000
00001000
00000000
00000000
00000001
00000010
00000000
00001000
00000000
,
00100000
00010000
00100000
00010000
00100000
00001000
00010000
00001000
00010000
00000010
00000100
00000001
00000100
00000001
00000100
00001000
,
00010000
00000000
00000000
00000000
00011000
00000000
00000000
00000000
00001000
00000000
00000000
00010000
00100000
00000000
00100000
00000000
,
00001000
00000000
00000000
00010000
01000000
00000000
01000000
00000000
00010000
01000000
00010000
01000000
00100000
10000000
01000000
00100000
,
00020000
00100000
00001000
00130000
,
00110000
00000000
00011000
00000000
00000010
00000010
00000010
00000010
,
00001010
00000000
00011000
00000000
00120000
00000000
01030000
10000000
,
00000000
00000000
01000000
00000000
00000000
00000000
00010000
00000000
00100000
00000000
00010000
00200000
01000000
00000000
01000000
00000000
,
02300000
10000000
00100000
03100000
00001000
00001000
00010000
00010000
,
00001000
00000000
00000100
00000001
00000100
00000000
00000101
00000000
00000001
00001000
00000001
00000000
00001100
00000000
00000000
00000000
,
00000110
00000000
00001010
00000000
00000102
00000000
00000013
00001000
,
00000000
00000000
00000010
00000000
00000000
00000000
00000001
00000000
00001000
00000000
00000010
00002000
00000001
00000000
00000001
00000000
,
00000100
00000000
00003100
00010000
00001000
00000000
00010000
00000000
00001000
00000000
00001000
00000000
00100000
00000000
00100000
00000000
,
01000000
00010000
01000000
11000000
00000000
10000000
10100000
00000000
,
10010000
00000000
01100000
00000000
00210000
00000000
10300000
00020000
,
00000000
00000000
00001000
00000000
00000000
00000000
01030000
00000000
10000000
00000000
00010000
20000000
00100000
00000000
00100000
00000000
,
00010000
30010000
01000000
01000000
00001000
00001000
00100000
00100000
,
01000000
00000000
00010000
00001000
00010000
00000000
00011000
00000000
00001000
00010000
00000010
00000000
00010010
00000000
00000000
00000000
,
00000001
00000100
00000010
00001000
00000010
00000100
00000001
00000010
,
00000100
00001000
00000100
00010000
00000100
00010000
00001000
00010000
,
00001000
00100000
00010000
01000000
00100000
10000000
00100000
01000000
,
00010000
01000000
00001000
00010000
00000100
00001000
00000100
00010000
,
00002000
00000000
00000000
00000000
,
00010000
00000000
00000000
00000000
,
00013000
00000100
00000010
00000100
00001000
00000001
00000100
00001000
,
00000100
00000010
00000100
00000010
00000100
00000001
00000100
00001000
,
00000100
00001000
00000100
00000010
00001000
00000010
00010000
00001000
,
00010000
00001000
00100000
00001000
00100000
00010000
10000000
01000000
,
20000000
00000000
00000000
00000000
,
31000000
00010000
01000000
00010000
01000000
00100000
00010000
00100000
,
00001000
00010000
00001000
00010000
00000010
00001000
00000001
00000010
,
00000002
00000000
00000000
00000000
,
00000000
00000000
00000000
00000000
,
00000103
00001000
00000100
00001000
00000100
00001000
00010000
00001000
,
00100000
01000000
00100000
01000000
10000000
01000000
00100000
00010000
,
00002000
00000000
00000000
00000000
,
00013000
00100000
00010000
00100000
00010000
10000000
00100000
10000000
,
00100000
10000000
00100000
01000000
00010000
01000000
00010000
00100000
,
00010000
00100000
00001000
00010000
00001000
00010000
00000010
00001000
,
00000001
00000000
00000000
00000000
00000100
00000000
00000000
00000000
00001000
00000000
00000000
00000000
00010000
00000000
01000000
00000000
10000000
00000000
01000000
00010000
00001000
00000010
00000001
00000100
,
00001000
00000000
00000000
00000100
00000000
00000000
00010000
00000000
,
10000000
00000000
00000000
01000000
00000000
00000000
00001000
00000000
,
00000010
00000000
00000000
00000001
00000000
00000000
00001000
00000000
,
00010000
00000000
00001000
00000000
00100000
00001000
00010000
00001000
,
00000100
00000000
00000000
00010000
00000000
00000000
00100000
00000000
,
10000000
00000000
00000000
00010000
00000000
00000000
00001000
00000000
,
00010000
00000100
00001000
00000100
00001000
00000000
00000010
00000000
,
00000001
00000001
00000001
00000010
,
00001000
00000000
00000000
00010000
00000000
00000000
01000000
00000000
,
00001000
00000000
00000000
00000010
00000000
00000000
00001000
00000000
,
00100000
00000000
00000000
10000000
00000000
00000000
00010000
00000000
,
00000010
00000000
00000000
00000001
00000000
00000000
00001000
00000000
,
00010000
00000000
00000000
01000000
00000000
00000000
10000000
00000000
,
00010000
00000000
00000000
00001000
00000000
00000000
00000010
00000000
,
00001000
00000001
00000100
00001000
00010000
00001000
00010000
01000000
,
10000000
01000000
10000000
01000000
00010000
00001000
00000100
00000001
,
00000000
00000000
00000000
00000000
,
00000000
20000000
00000000
00000000
,
00000000
00000000
00000000
00020000
,
30000000
00002000
00030000
00020000
,
00000000
00000000
00003000
00030000
,
20010000
00000000
00000000
00010000
00000000
00000000
30010000
00000000
,
01100000
00100000
01000000
00010000
,
00001000
00000010
00001000
00100000
,
00010000
00000000
00000000
00000000
00100000
00000000
00000000
00000000
00010000
00001000
00000100
00000000
00010000
00001000
00000010
00000000
,
00010000
00001000
00000100
00000000
00001000
00010000
00100000
00000000
00001000
00010000
01000000
00000000
00001000
00010000
00100000
00010000
,
00001000
00000100
00001000
00000010
00000200
00000000
00000000
00000000
00000000
00000000
00000000
00000000
00000300
00000000
00000000
00000000
,
00000001
00000000
00000000
00001000
00000000
00000000
00000001
00000000
00000000
00000000
00000000
00000000
00000000
00000000
00000100
00000000
00000000
00000000
00000000
00000000
00000000
00000000
00001000
00000000
,
00000000
00000000
00000000
00001000
00000000
00000000
00000000
01000000
00000000
00000000
00000000
00001000
,
00000000
00011000
00000000
00010100
,
00000000
00000000
00000000
00000001
00000000
00000100
00000000
00000001
00000000
00001000
00000000
00000100
,
00000000
00000010
00000000
00000001
00000000
00000100
00000000
00000010
00000000
00001000
00000000
00001000
,
00000000
01000000
00000000
00010000
00000000
01000000
00000000
10000000
00000000
01000000
00000000
00010000
,
00000000
00010000
00000000
00001000
00000000
00000100
00000000
00000001
00000000
00000100
00000000
00000001
,
00000000
00000000
00000010
00000000
00000000
00000000
00000001
00000000
00000000
00000010
00000000
00000000
00000001
00000000
00000000
00001000
00000000
00000000
00000100
00000000
00000000
00001000
00000000
00000000
,
00000001
00000100
00001000
00010000
00001000
00100000
00010000
00100000
,
00001000
00010000
00100000
10000000
00010000
10000000
00100000
01000000
,
00010000
01000000
00010000
00100000
00001000
00010000
00000100
00001000
,
00000100
00001000
00000001
00000010
00000100
00001000
00000010
00010000
,
00001000
01000000
00010000
00100000
01000000
10000000
00100000
10000000
,
01000000
00100000
00010000
00001000
00000100
00000001
00000100
00010000
,
00000100
00000010
00000100
00010000
00001000
01000000
00001000
00010000
,
00001000
00010000
00011000
00000000
00011000
00000000
00011000
00000000
,
00000010
00001000
00000010
00000000
00001010
00000000
00001010
00000000
,
00001010
00000000
00010000
00001000
00010000
00000000
00011000
00000000
,
00101000
00011000
00101000
00011000
,
00010100
00000000
00011000
00000000
00001000
01000000
01100000
00000000
,
00000000
00011000
00000000
00000000
,
00000110
00000000
00000101
00000000
00000100
00000001
00000100
00000000
,
00000101
00000000
00001001
00000000
00010100
00000000
00000100
00010000
,
00001000
00011000
00000000
01100000
,
01100000
00000000
01100000
00000000
01100000
00000000
00100000
00001000
,
00010000
00011000
00011000
00000000
,
00001001
00001001
00001001
00001001
,
00001000
00010000
10010000
10010000
,
10010000
10010000
00000000
00000000
,
00000000
00000000
00000000
00011000
,
00000001
00000000
00000000
00000000
00000000
00000100
00000000
00000000
00000000
00000000
00001000
00000000
00000000
00000000
00000000
00010000
00000000
00000000
00000000
00000000
00100000
00000000
00000000
00000000
00000000
00000000
00000000
00000000
00000000
00000000
10100000
00000000
,
00000000
00000000
00000000
00022000
00000000
00000000
00000000
00000000
,
00000000
00000000
00000000
00000000
,
00000000
00000000
00000000
00000000
,
00000000
00000000
00000000
00000000
,
00000000
00000000
00000000
00033000
,
00000000
00000000
00000000
00000000
;
