
//----- song ID: dete -----//
#TITLE:Determination;
#ARTIST:柊木りお;
#ARTISTTRANSLIT:Rio Hiiragi;
#BANNER:Determination.png;
#BACKGROUND:Determination-bg.png;
#CDTITLE:./CDTitles/DDR A.png;
#MUSIC:Determination.ogg;
#SAMPLESTART:72.216;
#SAMPLELENGTH:15;
#BPMS:0=230;
#NOTES:
     dance-single:
     :
     Beginner:
     2:
     :
0000
0000
0000
0000
,
0000
0000
0000
0000
,
0000
0000
0000
0000
,
0000
0000
0000
0000
,
0000
0000
0000
0000
,
0000
0000
0000
0000
,
0000
0000
0000
0000
,
0000
0000
0000
0000
,
0000
0000
0000
0000
,
0000
0000
0000
0000
,
0001
0000
0000
0000
,
0000
0000
0000
0000
,
0001
0000
0000
0000
,
0000
0000
0000
0000
,
1000
0000
0000
0000
,
0000
0000
0000
0000
,
1001
0000
0000
0000
,
0000
0000
0000
0000
,
0100
0000
0100
0000
,
0100
0000
0100
0000
,
0100
0000
0000
0000
,
0000
0000
0000
0000
,
0010
0000
0010
0000
,
0010
0000
0010
0000
,
0010
0000
0000
0000
,
0000
0000
0000
0000
,
0001
0000
0001
0000
,
0001
0000
0001
0000
,
0001
0000
0000
0000
,
0000
0000
0000
0000
,
1000
0000
1000
0000
,
1000
0000
0000
0000
,
0001
0000
0001
0000
,
0001
0000
0000
0000
,
0000
0000
0100
0000
,
0000
0000
0100
0000
,
0000
0000
0100
0000
,
0000
0000
0000
0000
,
0000
0001
0000
0001
,
0000
0001
0000
0000
,
0000
0001
0000
0001
,
0000
0001
0000
0000
,
0000
0000
0100
0000
,
0000
0000
0100
0000
,
0000
0000
0010
0000
,
0000
0000
0010
0000
,
0000
1000
0000
1000
,
0000
1000
0000
0000
,
0000
1000
0000
1000
,
0000
1000
0000
0000
,
0000
0000
0100
0000
,
0000
0000
0100
0000
,
0000
0000
0010
0000
,
0000
0000
0010
0000
,
0001
0000
0000
0000
,
0000
0000
0000
0000
,
0010
0000
0000
0000
,
0000
0000
0000
0000
,
1000
0000
0000
0000
,
1000
0000
0000
0000
,
0010
0000
0000
0000
,
0010
0000
0000
0000
,
0001
0000
0000
0000
,
0000
0000
0000
0000
,
0100
0000
0000
0000
,
0000
0000
0000
0000
,
1000
0000
0000
0000
,
1000
0000
0000
0000
,
1000
0000
1000
0000
,
1000
0000
0000
0000
,
0100
0000
0100
0000
,
0100
0000
0100
0000
,
0100
0000
0000
0000
,
0000
0000
0000
0000
,
0010
0000
0010
0000
,
0010
0000
0010
0000
,
0010
0000
0000
0000
,
0000
0000
0000
0000
,
1000
0000
1000
0000
,
1000
0000
1000
0000
,
1000
0000
0000
0000
,
0000
0000
0000
0000
,
0001
0000
0001
0000
,
0001
0000
0000
0000
,
1000
0000
1000
0000
,
1000
0000
0000
0000
,
0000
0000
0100
0000
,
0000
0000
0100
0000
,
0000
0000
0010
0000
,
0000
0000
0010
0000
,
0000
0000
1000
0000
,
0000
0000
1000
0000
,
0000
0000
0001
0000
,
0001
0000
0000
0000
,
0000
0000
0000
0000
;
#NOTES:
     dance-single:
     :
     Easy:
     5:
     :
0000
0000
0000
0000
,
0000
0000
0000
0000
,
0000
0000
0000
0000
,
0000
0000
0000
0000
,
0000
0000
0000
0000
,
0000
0000
0000
0000
,
0000
0000
0000
0000
,
0000
0000
0000
0000
,
0000
0000
0000
0000
,
0000
0000
0000
0000
,
2000
0000
0000
0000
,
3000
0000
0000
0000
,
0002
0000
0000
0000
,
0003
0000
0000
0000
,
2000
0000
0000
0000
,
3000
0000
0000
0000
,
1001
0000
0000
0000
,
0000
0000
0000
0000
,
0000
0010
0000
0010
,
0000
1000
0000
0010
,
0000
1000
0000
0010
,
0000
1000
1000
1000
,
0000
0001
0000
0010
,
0000
0001
0000
0001
,
0000
0010
0010
0010
,
0000
0001
0001
0001
,
0000
1000
0000
0001
,
0000
1000
0000
1000
,
0000
0001
0000
0001
,
0000
1000
1000
1000
,
0000
0100
0000
0100
,
0000
0001
0000
1000
,
0000
0010
0010
0010
,
0000
0000
0000
0000
,
0100
0000
0010
0000
,
1000
0000
1000
0000
,
0010
0000
0100
0000
,
0001
0000
0001
0000
,
0000
1000
1000
1000
,
1000
1000
1000
1000
,
0000
0001
0001
0001
,
0001
0001
0001
0002
,
0000
0000
0003
0000
,
2000
0000
0000
3000
,
0001
1000
0000
1000
,
0000
0001
0001
0001
,
0000
0100
0100
0100
,
0100
0100
0100
0100
,
0000
0010
0010
0010
,
0010
0010
0010
0020
,
0000
0000
0030
0000
,
0200
0000
0000
0300
,
0010
0100
0000
0100
,
0000
0010
0010
0000
,
0002
0000
0000
0000
,
0003
0000
0000
0000
,
2000
0000
0000
0000
,
3000
0000
0000
0000
,
0001
0000
1001
0000
,
0100
0000
0010
0000
,
1000
0000
1001
0000
,
0100
0000
0001
0000
,
0020
0000
0000
0000
,
0030
0000
0000
0000
,
0200
0000
0000
0000
,
0300
0000
0000
0000
0000
0000
0000
0001
,
0000
0000
0000
0000
0000
0000
0000
1000
,
0000
0000
0000
0000
0000
0000
0000
0010
,
0000
0000
0000
0100
0000
0000
0000
1001
,
0000
0000
0000
0000
,
0001
0100
0000
0100
,
0000
0001
0000
1000
,
0000
0001
0000
0100
,
0000
0010
0100
0010
,
0000
1000
0000
0100
,
0000
1000
0000
0001
,
0000
0100
1000
0100
,
0000
0010
0001
0010
,
0000
1000
0000
0100
,
0000
0010
0000
0100
,
0000
1000
0000
0001
,
0000
1000
0001
1000
,
0000
0001
0000
0100
,
0000
0010
0000
0100
,
0000
0001
1000
0001
,
0000
0000
0000
0000
,
2000
0000
3001
0000
,
0200
0000
0310
0000
,
0002
0000
1003
0000
,
0020
0000
0130
0000
,
0002
0000
0013
0000
,
0020
0000
0130
0000
,
0200
0000
1300
0000
,
1001
0000
0000
0000
,
0000
0000
0000
0000
;
#NOTES:
     dance-single:
     :
     Medium:
     8:
     :
0000
0000
0000
0000
,
0000
0000
0000
0000
,
0000
0000
0000
0000
,
0000
0000
0000
0000
,
0000
0000
0000
0000
,
0000
0000
0000
0000
,
0000
0000
0000
0000
,
0000
0000
0000
0000
,
0000
0000
0000
0000
,
0000
0000
0000
0000
,
0200
0000
0000
0000
,
0000
0000
0000
0300
,
0020
0000
0000
0000
,
0000
0000
0000
0030
,
0200
0000
0000
0000
,
0000
0000
0000
0300
,
1001
0000
0000
0000
,
0000
0000
0000
0000
0000
0000
0000
0002
,
0000
1003
0100
1000
,
0100
0000
1000
0000
0001
0000
0000
2000
,
0000
3010
0100
0001
,
0100
0000
0100
0000
0100
0000
0100
0002
,
0000
0013
0100
1000
,
0100
0000
0010
0000
0001
0000
0000
2000
,
0000
3001
0100
0100
,
0000
0000
0010
0000
1000
0000
1000
0020
,
0000
0130
0001
1000
,
0001
0000
0100
0000
0010
0000
0000
0200
,
0000
0301
1000
0010
,
0100
0000
0001
0000
0001
0000
0001
0200
,
0000
0010
0000
0010
,
0300
0000
0001
0000
1000
0000
0001
0020
,
0000
0100
0100
0130
,
0000
0000
0000
0000
0000
0000
0000
0110
,
0000
0000
0010
0000
,
1000
0100
0010
0000
,
1100
0000
0010
0000
,
0001
0000
1000
0000
0010
0000
0000
0200
,
0000
0310
0010
0010
,
0010
0000
0010
0000
0010
0000
0010
2000
,
0000
3001
0001
0001
,
0001
0000
0001
0000
0001
0000
0001
0020
,
0000
0100
0130
0000
,
2000
0000
0001
0000
3001
0000
0000
0100
,
0000
0001
0001
1000
,
0000
0000
0001
0000
0100
0000
0000
0002
,
0000
0103
0100
0100
,
0100
0000
0100
0000
0100
0000
0100
0020
,
0000
1030
1000
1000
,
1000
0000
1000
0000
1000
0000
1000
0002
,
0000
0010
0013
0000
,
0200
0000
1000
0000
1300
0000
0000
0001
,
0000
0100
0100
0010
,
1000
0000
0001
0000
0100
0000
0000
0202
,
0000
0000
0000
0000
,
0000
0000
0000
0000
0000
0303
0000
2200
,
0000
0000
0000
0000
,
0000
0000
0000
0000
0000
3300
0000
0001
,
0000
0000
1100
0000
,
0010
0000
0001
0000
0100
0000
0000
0010
,
0000
0000
0101
0000
,
0010
0000
1000
0000
0100
0000
0000
0022
,
0000
0000
0000
0000
,
0000
0000
0000
0000
0000
0033
0000
2020
,
0000
0000
0000
0000
,
0000
0000
0000
0000
0000
3030
0000
0001
,
0000
0000
1100
0000
1100
0000
0000
1000
,
0000
0000
0101
0000
0101
0000
0000
0010
,
0000
0100
0000
0001
0000
1000
0000
0010
,
0000
0000
0000
0000
0000
0000
0000
2001
,
0000
3001
0010
0100
,
0010
0000
0001
0000
0100
0000
0000
1002
,
0000
1003
0010
1000
,
0001
0000
0100
0000
0100
0000
0001
2000
,
0000
3100
0010
0001
,
0010
0000
0100
0000
1000
0000
0000
1002
,
0000
0103
0010
0010
,
0000
0000
1001
0000
1001
0000
1000
0200
,
0000
0310
0001
0100
,
0010
0000
1000
0000
0001
0000
0000
0120
,
0000
0130
1000
0001
,
0100
0000
0010
0000
0010
0000
1000
0020
,
0000
0100
0100
0130
,
0001
0000
1000
0000
0100
0000
0010
0200
,
0000
0010
0010
0310
,
0000
0000
0000
0000
0000
0000
0000
2100
,
0000
0000
3001
0000
,
0201
0000
0310
0000
,
0102
0000
0000
0000
1003
0000
0000
1200
,
0000
0000
0000
0000
0310
0000
0000
0012
,
0000
0000
1003
0000
,
1020
0000
0000
0000
0130
0000
0000
0201
,
0000
0000
0000
0000
0310
0000
0000
1001
,
0000
0000
0000
0000
;
#NOTES:
     dance-single:
     :
     Hard:
     14:
     :
0000
0000
0000
0000
,
0000
0000
0000
0000
,
0000
0000
0000
0000
,
0000
0000
0000
0000
,
0000
0000
0000
0000
,
0000
0000
0000
0000
,
0000
0000
0000
0000
,
0000
0000
0000
0000
,
0000
0000
0000
0000
,
0000
0000
0000
0000
,
0020
0000
0000
0000
,
0000
0000
0000
0030
,
2000
0000
0000
0000
,
0000
0000
0000
3000
,
0002
0000
0000
0000
,
0000
0000
0000
0003
,
1001
0000
0000
0000
,
0000
0000
0010
0000
0001
1000
0000
2100
,
0000
3001
0102
1003
,
2010
0000
3001
0000
0012
0000
1003
0100
,
0000
0100
0010
0000
0001
0000
1000
0001
,
0000
0000
0010
0100
0010
0100
0010
0002
,
0000
0103
0120
1030
,
2010
0000
3001
0000
0012
0000
1003
0100
,
0000
0100
1000
0001
0010
0001
1000
0100
,
0000
0010
0001
1000
0010
1000
0001
0200
,
0000
0310
2010
3001
,
0102
0000
1003
0000
2100
0000
3001
0100
,
0000
0100
0010
0000
1000
0000
0001
1000
,
0000
0000
0010
0100
0010
0100
0010
2000
,
0000
3010
0100
0010
,
0100
0000
0100
0000
0010
0100
0010
0200
,
0000
0000
0301
0000
0001
0000
0001
1000
,
0000
0000
0000
0000
0000
0000
0000
1100
,
0000
0000
0110
0000
,
0001
0010
0001
0000
0100
0000
0000
0101
,
0000
0000
0010
0010
,
1000
0100
0010
0000
0010
0001
0000
1001
,
0000
0000
1000
0100
1000
0001
1000
0100
,
1000
0001
1000
0100
1000
0001
1000
0100
,
0000
0000
0010
0001
0010
0100
0010
0001
,
0010
0100
0010
0001
0010
0100
0010
0001
,
0000
0001
1000
0000
0010
0000
0100
0000
,
0010
0000
1000
0000
0001
0000
0010
0100
,
0000
0100
0010
0000
0001
0000
0100
0000
,
0010
0000
0010
0000
1000
0001
1000
0001
,
0000
0000
0100
0001
0100
0010
0100
0001
,
0100
0010
0100
0001
0100
0010
0100
0001
,
0000
0000
0010
0100
0010
1000
0010
0100
,
0010
1000
0010
0100
0010
1000
0010
0100
,
0000
0100
0010
0000
1000
0000
0100
0000
,
0010
0000
0001
0000
1000
0000
0010
0100
,
0000
0100
0010
0000
1000
0000
0001
0000
,
0100
0000
0110
0000
0110
0000
0000
0021
,
0000
0100
0100
0100
,
0100
0000
0100
0000
0130
0000
0010
2000
,
0000
0100
0100
0100
,
3100
0000
0010
1000
0100
0010
0001
0100
,
0000
0000
1001
0000
,
0100
1000
0001
0000
0010
0000
0000
1100
,
0000
0000
1001
0000
,
0100
0001
0010
0100
1000
0010
0000
2010
,
0000
0100
0100
0100
,
0100
0000
0100
0000
3100
0000
0010
0002
,
0000
0100
0100
0100
,
0103
0000
0010
0100
0010
0100
0000
0101
,
0000
1000
0010
0100
0001
1000
0100
1100
,
0000
1000
0100
0010
0001
0100
0001
0101
,
0000
1010
0000
1100
0000
0011
0000
1001
,
0000
0000
0000
0000
0000
0000
0000
0102
,
0000
0000
1003
0000
0100
1000
0001
0000
,
0012
0000
1003
0000
0010
1000
0001
0100
,
0000
0010
1000
0000
0001
0100
0010
1000
,
0000
1000
0001
1000
0001
1000
0000
1200
,
0000
0000
0310
0000
0010
0001
0100
0000
,
0201
0000
0310
0000
0010
1000
0001
0100
,
0000
0010
1000
0100
0010
0001
0100
0010
,
0000
0010
0100
0001
0010
0100
1000
0020
,
0000
0000
0130
0000
0100
0001
0010
0000
,
2100
0000
3010
0000
0100
0001
0010
0100
,
0000
1000
0001
0000
0100
0001
1000
0100
,
0000
0100
0010
0100
0010
0100
0000
0110
,
0000
1000
0100
1000
0010
0100
0010
1000
,
0001
0100
0010
1000
0100
0001
0100
0010
,
0001
0100
0010
0100
0001
0010
0100
1000
,
0000
0000
0000
0000
0000
0000
0000
0101
,
0000
0000
0110
0000
,
1000
0100
0010
0000
0001
0010
0001
0101
,
0000
0000
0000
0000
1100
0000
0000
2010
,
0000
0000
0000
0000
3001
0000
0000
1100
,
0000
0000
0110
0000
,
0001
0100
0010
0000
1000
0010
1000
1100
,
0000
0000
0000
0000
0101
0000
0000
1001
,
0000
0000
0000
0000
;
#NOTES:
     dance-double:
     :
     Easy:
     6:
     :
00000000
00000000
00000000
00000000
,
00000000
00000000
00000000
00000000
,
00000000
00000000
00000000
00000000
,
00000000
00000000
00000000
00000000
,
00000000
00000000
00000000
00000000
,
00000000
00000000
00000000
00000000
,
00000000
00000000
00000000
00000000
,
00000000
00000000
00000000
00000000
,
00000000
00000000
00000000
00000000
,
00000000
00000000
00000000
00000000
,
00200000
00000000
00000000
00000000
,
00300000
00000000
00000000
00000000
,
00020000
00000000
00000000
00000000
,
00030000
00000000
00000000
00000000
,
00002000
00000000
00000000
00000000
,
00003000
00000000
00000000
00000000
,
00011000
00000000
00000000
00000000
,
00000000
00000000
00000000
00000000
,
00000010
00001000
00000000
00001000
,
00000010
00000100
00000000
00000100
,
00000001
00000010
00000000
00000010
,
00000000
00001000
00001000
00001000
,
00010000
00001000
00000000
00001000
,
01000000
00010000
00000000
00010000
,
10000000
00100000
00000000
00100000
,
00000000
01000000
01000000
01000000
,
00100000
10000000
00000000
10000000
,
01000000
00100000
00000000
00100000
,
01000000
00010000
00000000
00010000
,
00000000
00001000
00001000
00001000
,
00010000
00000100
00000000
00000100
,
00001000
00000010
00000000
00000010
,
00000000
00000100
00000100
00000100
,
00000000
00000000
00000000
00000000
,
00000001
00000000
00001000
00000000
,
00000010
00000000
00001000
00000000
,
00010000
00000000
01000000
00000000
,
00010000
00000000
10000000
00000000
,
00000000
01000000
01000000
01000000
,
01000000
01000000
01000000
01000000
,
00000000
00100000
00100000
00100000
,
00100000
00100000
00100000
00100000
,
00000000
01000000
00000000
01000000
,
00000000
00010000
00000000
00010000
,
00000000
00001000
00000000
00001000
,
00000000
00010000
00010000
00010000
,
00000000
00000100
00000100
00000100
,
00000100
00000100
00000100
00000100
,
00000000
00000010
00000010
00000010
,
00000010
00000010
00000010
00000010
,
00000000
00000001
00000000
00000001
,
00000000
00001000
00000000
00001000
,
00000000
00000010
00000000
00000010
,
00000000
00000100
00000100
00000000
,
00000020
00000000
00000000
00000030
,
00000000
00000000
00000000
00000000
,
00200000
00000000
00000000
00300000
,
00000000
00000000
00000000
00000000
,
00010000
00000000
10010000
00000000
,
01000000
00000000
00100000
00000000
,
00010000
00000000
00011000
00000000
,
00010000
00000000
00100000
00000000
,
02000000
00000000
00000000
03000000
,
00000000
00000000
00000000
00000000
,
00000200
00000000
00000000
00000300
,
00000000
00000000
00000000
00000000
00000000
00000000
00000000
00001000
,
00000000
00000000
00000000
00000000
00000000
00000000
00000000
00000001
,
00000000
00000000
00000000
00000000
00000000
00000000
00000000
00000010
,
00000000
00000000
00000000
00000100
00000000
00000000
00000000
00001001
,
00000000
00000000
00000000
00000000
,
00000010
00000100
00000000
00000100
,
00000010
00001000
00000000
00001000
,
00000100
00010000
00000000
00010000
,
00000000
00001000
00001000
00001000
,
00100000
00010000
00000000
00010000
,
01000000
00100000
00000000
00100000
,
10000000
01000000
00000000
01000000
,
00000000
00100000
00100000
00100000
,
01000000
00010000
00000000
00010000
,
00001000
00010000
00000000
00010000
,
00000010
00001000
00000000
00001000
,
00000000
00000100
00000100
00000100
,
00000000
00001000
00000000
00000001
,
00000000
00000100
00000000
00001000
,
00000000
00010000
00001000
00010000
,
00000000
00000000
00000000
00000000
,
00200000
00000000
01300000
00000000
,
20000000
00000000
30010000
00000000
,
00200000
00000000
00301000
00000000
,
00002000
00000000
00013000
00000000
,
00000200
00000000
00001300
00000000
,
00000020
00000000
00000130
00000000
,
00000002
00000000
00001003
00000000
,
00001001
00000000
00000000
00000000
,
00000000
00000000
00000000
00000000
;
#NOTES:
     dance-double:
     :
     Medium:
     9:
     :
00000000
00000000
00000000
00000000
,
00000000
00000000
00000000
00000000
,
00000000
00000000
00000000
00000000
,
00000000
00000000
00000000
00000000
,
00000000
00000000
00000000
00000000
,
00000000
00000000
00000000
00000000
,
00000000
00000000
00000000
00000000
,
00000000
00000000
00000000
00000000
,
00000000
00000000
00000000
00000000
,
00000000
00000000
00000000
00000000
,
00000020
00000000
00000000
00000000
,
00000000
00000000
00000000
00000030
,
00000002
00000000
00000000
00000000
,
00000000
00000000
00000000
00000003
,
00000200
00000000
00000000
00000000
,
00000000
00000000
00000000
00000300
,
00011000
00000000
00000000
00000000
,
00000000
00000000
00000000
00000000
00000000
00000000
00000000
00002000
,
00000000
00103000
00010000
00100000
,
00010000
00000000
01000000
00000000
00100000
00000000
00000000
20000000
,
00000000
31000000
00010000
01000000
,
00000000
00000000
10000000
00000000
10000000
00000000
10000000
02000000
,
00000000
03100000
00010000
00100000
,
00001000
00000000
00010000
00000000
00000100
00000000
00000000
00000020
,
00000000
00000031
00000100
00000100
,
00000000
00000000
00001000
00000000
00001000
00000000
00001000
00200000
,
00000000
01300000
10000000
00100000
,
00010000
00000000
10000000
00000000
01000000
00000000
00000000
00020000
,
00000000
10030000
10000000
01000000
,
00000000
00000000
00010000
00000000
00010000
00000000
00010000
00002000
,
00000000
00000100
00000000
00003100
,
00000000
00000000
00000010
00000000
00000100
00000000
00001000
00020000
,
00000000
01000000
01000000
01030000
,
00000000
00000000
00000000
00000000
00000000
00000000
00000000
00011000
,
00000000
00000000
00000100
00000000
,
00001000
00000001
00000010
00000000
,
00001100
00000000
00000001
00000000
,
00001000
00000000
00000100
00000000
00010000
00000000
00000000
00011000
,
00000000
00100000
00100000
00100000
,
00100000
00000000
00100000
00000000
00100000
00000000
00100000
00002000
,
00000000
01003000
01000000
01000000
,
01000000
00000000
01000000
00000000
01000000
00000000
01000000
00100000
,
00000000
10000000
01000000
00010000
,
01000000
00000000
00100000
00000000
01000000
00000000
00000000
00010000
,
00000000
00100000
00100000
00001000
,
00001000
00000000
00010000
00000000
00010000
00000000
00000000
00011000
,
00000000
00000010
00000010
00000010
,
00000010
00000000
00000010
00000000
00000010
00000000
00000010
00020000
,
00000000
00030100
00000100
00000100
,
00000100
00000000
00000100
00000000
00000100
00000000
00000100
00000010
,
00000000
00000001
00000100
00001000
,
00000100
00000000
00000010
00000000
00001000
00000000
00000000
00001001
,
00000000
00000100
00000100
00001000
,
00001000
00000000
00010000
00000000
00010000
00000000
00000000
02002000
,
00000000
00000000
00000000
00000000
,
00000000
00000000
00000000
00000000
00000000
03003000
00000000
20200000
,
00000000
00000000
00000000
00000000
,
00000000
00000000
00000000
00000000
00000000
30300000
00000000
00010000
,
00000000
00000000
11000000
00000000
,
10000000
00000000
01000000
00000000
00010000
00000000
00000000
10010000
,
00000000
00000000
01100000
00000000
,
10000000
00000000
00100000
00000000
00010000
00000000
00000000
00202000
,
00000000
00000000
00000000
00000000
,
00000000
00000000
00000000
00000000
00000000
00303000
00000000
00020200
,
00000000
00000000
00000000
00000000
,
00000000
00000000
00000000
00000000
00000000
00030300
00000000
00001000
,
00000000
00000000
00010010
00000000
00010010
00000000
00000000
00001000
,
00000000
00000000
00000101
00000000
00000101
00000000
00000000
00000010
,
00000000
00001000
00000000
00010000
00000000
01000000
00000000
00100000
,
00000000
00000000
00000000
00000000
00000000
00000000
00000000
20010000
,
00000000
30010000
10000000
01000000
,
00100000
00000000
00010000
00000000
01000000
00000000
00000000
00002000
,
00000000
00103000
00001000
00010000
,
00010000
00000000
00000100
00000000
00001000
00000000
00000010
00002000
,
00000000
00003001
00000010
00000100
,
00001000
00000000
00000001
00000000
00000010
00000000
00000000
00002000
,
00000000
00013000
00001000
00000100
,
00000000
00000000
00001000
00000000
00011000
00000000
00010000
00200000
,
00000000
01300000
00010000
10000000
,
01000000
00000000
00100000
00000000
00010000
00000000
00000000
02000000
,
00000000
03010000
00100000
01000000
,
00010000
00000000
00001000
00000000
00000100
00000000
00000010
00002000
,
00000000
00000001
00000001
00003001
,
00000100
00000000
00001000
00000000
00100000
00000000
00010000
20000000
,
00000000
01000000
01000000
31000000
,
00000000
00000000
00000000
00000000
00000000
00000000
00000000
12000000
,
00000000
00000000
03010000
00000000
,
00012000
00000000
00003100
00000000
,
00000102
00000000
00000000
00000000
00000013
00000000
00000000
00000210
,
00000000
00000000
00000000
00000000
00001300
00000000
00000000
00021000
,
00000000
00000000
00130000
00000000
,
20100000
00000000
00000000
00000000
31000000
00000000
00000000
02100000
,
00000000
00000000
00000000
00000000
03010000
00000000
00000000
00011000
,
00000000
00000000
00000000
00000000
;
#NOTES:
     dance-double:
     :
     Hard:
     14:
     :
00000000
00000000
00000000
00000000
,
00000000
00000000
00000000
00000000
,
00000000
00000000
00000000
00000000
,
00000000
00000000
00000000
00000000
,
00000000
00000000
00000000
00000000
,
00000000
00000000
00000000
00000000
,
00000000
00000000
00000000
00000000
,
00000000
00000000
00000000
00000000
,
00000000
00000000
00000000
00000000
,
00000000
00000000
00000000
00000000
,
02000000
00000000
00000000
00000000
,
00000000
00000000
00000000
03000000
,
00020000
00000000
00000000
00000000
,
00000000
00000000
00000000
00030000
,
00000200
00000000
00000000
00000000
,
00000000
00000000
00000000
00000300
,
00001001
00000000
00000000
00000000
,
00000000
00000000
00000000
00000000
00000000
00000000
00000000
00000101
,
00000000
00000001
00000010
00000000
00000100
00000001
00000010
00000000
,
00000100
00001000
00000010
00010000
00001000
00010000
00000100
00001000
,
00000000
00001000
00000100
00000000
00010000
00000100
00010000
00001000
,
00000000
00001000
00100000
01000000
00100000
01000000
00100000
00010000
,
00000000
00010000
01000000
00000000
00100000
01000000
00010000
00000000
,
10000000
01000000
00100000
00000000
00001000
00010000
01000000
00100000
,
00000000
00100000
01000000
00010000
00001000
00000100
00000010
00000100
,
00000000
00000100
00000010
00001000
00000100
00000010
00000001
00001000
,
00000000
00001000
00000001
00000000
00001000
00000010
00000100
00000000
,
00001000
00000100
00000010
00000000
00010000
00001000
00000100
00000010
,
00000000
00000010
00001000
00000100
00001000
00010000
01000000
00100000
,
00000000
00100000
00010000
10000000
00010000
10000000
00010000
10000000
,
00000000
00000000
11000000
00000000
00010000
01000000
00100000
00000000
,
11000000
00000000
00100000
00000000
00001000
00010000
00000100
00000010
,
00000000
00000000
00000011
00000000
00000011
00000000
00000011
00000001
,
00000000
00000000
00000000
00000000
00000000
00000000
00000000
00001100
,
00000000
00000000
00001001
00000000
,
00000100
00001000
00010000
00000000
00100000
00000000
00000000
01100000
,
00000000
00000000
10010000
00100000
,
10000000
01000000
00100000
00000000
01000000
00100000
00000000
00110000
,
00000000
00000000
00001000
00100000
00010000
01000000
00001000
00010000
,
01000000
00100000
00010000
01000000
00001000
00100000
00010000
01000000
,
00000000
00001000
00010000
00000010
00001000
00000100
00001000
00000010
,
00010000
00001000
00000100
00000010
00001000
00000100
00010000
00001000
,
00000000
00001000
00000100
00000000
00000001
00000000
00000010
00000000
,
00001000
00000000
00000001
00000000
00000100
00000000
00001000
00000100
,
00000000
00000001
00000100
00000000
00000100
00000000
00001000
00000000
,
00010000
00000000
01000000
00000000
10000000
00100000
00000000
01100000
,
00000000
00000000
00100000
01000000
00010000
00100000
01000000
00010000
,
00001000
00100000
01000000
00100000
00001000
00100000
00001000
00010000
,
00000000
00000000
00001000
00000100
00000010
00000100
00001000
00010000
,
00001000
00010000
00100000
00010000
00001000
00000010
00001000
00010000
,
00000000
00010000
00000010
00000000
00000100
00000000
00000001
00000000
,
00000010
00000000
00001000
00000000
00000100
00000000
00000001
00000010
,
00000000
00000010
00001000
00000000
00000010
00000000
00000001
00000000
,
00000100
00000000
00000110
00000000
00000110
00000000
00000000
00002100
,
00000000
00000001
00000001
00000010
,
00000010
00000000
00010000
00000000
00013000
00000000
00001000
00020000
,
00000000
01000000
01000000
10000000
,
10030000
00000000
00010000
00100000
00010000
00100000
00000000
00011000
,
00000000
00000000
00011000
00000000
,
00001000
00000100
00000010
00000000
00000001
00000000
00000000
00000101
,
00000000
00000000
00001010
00000000
,
00010000
00001000
00100000
00010000
01000000
00100000
00000000
01020000
,
00000000
10000000
10000000
00100000
,
00100000
00000000
00001000
00000000
00031000
00000000
00010000
00002000
,
00000000
00000100
00000100
00000001
,
00003001
00000000
00001000
00000010
00001000
00000010
00000000
00001001
,
00000000
00000100
00000001
00000010
00001000
00010000
00000000
00011000
,
00000000
00001000
00010000
01000000
10000000
00100000
00000000
10100000
,
00000000
01010000
00000000
00101000
00000000
00010100
00000000
00001010
,
00000000
00000000
00000000
00000000
00000000
00000000
00000000
00001100
,
00000000
00001000
00000010
00000000
00000100
00001000
00000010
00000000
,
00000100
00000001
00000010
00000100
00001000
00000010
00000100
00001000
,
00000000
00001000
00010000
00000000
00010000
01000000
10000000
01000000
,
00000000
10000000
00100000
01000000
00100000
01000000
00100000
00010000
,
00000000
00001000
00010000
00000000
00100000
00010000
01000000
00000000
,
00010000
00100000
00001000
00010000
00001000
00000100
00000010
00001000
,
00000000
00001000
00000001
00000100
00000010
00001000
00000100
00010000
,
00000000
00001000
00100000
00010000
01000000
00100000
10000000
01000000
,
00000000
00100000
01000000
00000000
10000000
01000000
00010000
00000000
,
00001000
00100000
00001000
00000000
00010000
00000100
00001000
00000010
,
00000000
00000010
00000100
00000001
00001000
00000100
00000010
00000001
,
00000000
00000001
00000100
00000010
00000100
00000010
00000000
00001001
,
00000000
00000001
00000100
00000001
00000100
00001000
00000100
00001000
,
00010000
00001000
00010000
00001000
00100000
00010000
01000000
00100000
,
10000000
01000000
00100000
00010000
01000000
00100000
00010000
00001000
,
00000000
00000000
00000000
00000000
00000000
00000000
00000000
00011000
,
00000000
00000000
00010100
00000000
,
00001000
00000100
00000010
00000000
00000001
00000100
00000010
00001010
,
00000000
00000000
00000000
00000000
00001100
00000000
00000000
00020010
,
00000000
00000000
00000000
00000000
00130000
00000000
00000000
01010000
,
00000000
00000000
10100000
00000000
,
00010000
01000000
00100000
00000000
10000000
01000000
00100000
00110000
,
00000000
00000000
00000000
00000000
01001000
00000000
00000000
00011000
,
00000000
00000000
00000000
00000000
;
