
//----- song ID: dddd -----//
#TITLE:打打打打打打打打打打;
#ARTIST:ヒゲドライバー join. SELEN;
#TITLETRANSLIT:Dadadadadadadadadada;
#ARTISTTRANSLIT:Hige Diver join. SELEN;
#BANNER:Dadadadadadadadadada.png;
#BACKGROUND:Dadadadadadadadadada-bg.png;
#CDTITLE:./CDTitles/REFLEC BEAT groovin'!!.png;
#MUSIC:Dadadadadadadadadada.ogg;
#SAMPLESTART:59.816;
#SAMPLELENGTH:15;
#BPMS:0=156;
#NOTES:
     dance-single:
     :
     Beginner:
     2:
     :
0000
0000
0000
0000
,
0000
0000
0000
0000
,
0000
0000
0000
0000
,
0000
0000
0000
0000
,
0000
0000
0000
0000
,
0000
0000
0000
0000
,
0000
0000
0000
0000
,
1000
0000
1000
0000
,
0100
0000
0100
0000
,
1000
0000
1000
0000
,
0100
0000
0100
0000
,
0001
0000
0001
0000
,
0010
0000
0010
0000
,
0001
0000
0001
0000
,
0010
0000
0010
0000
,
1000
0000
0000
0000
,
0001
0000
0000
0000
,
1000
0000
0100
0000
,
0010
0000
0001
0000
,
0001
0000
0000
0000
,
1000
0000
0000
0000
,
0001
0000
0010
0000
,
0100
0000
1000
0000
,
0000
0000
0000
0000
,
0000
0000
0010
0010
,
0000
0000
0000
0000
,
0000
0000
0100
0100
,
0000
0000
0000
0000
,
0000
0000
0001
0001
,
0000
0000
0000
0000
,
0000
0000
0000
0000
,
1000
0000
0000
0000
,
0001
0000
0000
0000
,
1000
0000
0100
0000
,
0010
0000
0001
0000
,
0001
0000
0000
0000
,
1000
0000
0000
0000
,
0001
0000
0010
0000
,
0100
0000
1000
0000
,
0010
0000
0000
0000
,
0010
0000
0000
0000
,
0100
0000
0000
0000
,
0100
0000
0000
0000
,
0001
0000
0000
0000
,
0001
0000
0000
0000
,
1000
0000
0000
0000
,
1000
0000
0000
0000
,
0010
0000
0000
0000
,
0100
0000
0000
0000
,
0001
0000
0001
0000
,
0100
0000
0100
0000
,
0010
0000
0010
0000
,
0010
0010
0010
0000
,
1000
0000
1000
0000
,
0100
0000
0100
0000
,
0010
0000
0010
0000
,
0010
0010
0010
0000
,
0001
0000
1000
0000
,
0010
0000
0000
1001
,
0000
0000
0000
0000
,
0000
0000
0001
0001
,
0000
0000
0000
0000
,
0000
0000
0010
0010
,
0000
0000
0000
0000
,
0000
0000
0100
0100
,
0000
0000
0000
0000
,
0000
0000
1000
1000
,
0000
0000
0000
0000
;
#NOTES:
     dance-single:
     :
     Easy:
     5:
     :
0000
0000
0000
0000
,
0000
0000
0000
0000
,
0000
0000
0000
0000
,
0000
0000
0000
0000
,
0000
0000
0000
0000
,
0000
0000
0000
0000
,
0000
0000
0000
0000
,
0001
0000
0010
0000
,
0001
0000
1000
1001
,
1000
0000
0100
0000
,
1000
0000
0001
1001
,
0001
0000
0010
0000
,
0100
0000
1000
1001
,
1000
0000
0100
0000
,
0010
0000
0001
1001
,
0100
0000
0100
0000
,
0010
0000
0010
0000
,
1000
0100
0010
0001
,
1000
0100
0010
0001
,
0100
0000
0100
0000
,
0010
0000
0010
0000
,
0001
0010
0100
1000
,
0001
0010
0100
1000
,
0010
0000
0010
0000
,
0100
0000
1000
0110
,
0010
0000
0010
0000
,
0100
0000
0001
0110
,
1000
0000
1000
0000
,
0001
0000
0010
1001
,
1000
0000
1000
0000
,
0001
0000
0000
0000
,
0010
0000
0010
0000
,
0100
0000
0100
0000
,
0010
0100
1000
0001
,
0010
0100
1000
0001
,
0100
0000
0100
0000
,
0010
0000
0010
0000
,
0100
0010
1000
0001
,
0100
0010
1000
0000
,
0010
1000
0010
0000
,
0100
0001
0100
0000
,
0001
0010
0001
0000
,
0100
0010
0100
0000
,
0010
1000
0010
0000
,
0100
0001
0100
0000
,
0002
0000
0000
0000
,
0023
0000
0230
0000
,
2300
0000
3020
0000
,
0230
0000
0302
0003
,
1000
1000
1000
1000
,
0010
0010
0010
0010
,
0100
0100
0100
0100
,
0100
0100
0100
0000
,
0001
0001
0001
0001
,
0100
0100
0100
0100
,
0010
0010
0010
0010
,
0010
0010
0010
0000
,
2000
3000
0002
0003
,
0010
0010
0100
1001
,
0001
0000
0010
0000
,
0100
0000
1000
1001
,
1000
0000
0010
0000
,
0100
0000
0001
1001
,
0001
0000
0100
0000
,
0010
0000
1000
1001
,
0010
0010
0100
0100
,
0001
1000
0001
1001
,
0000
0000
0000
0000
;
#NOTES:
     dance-single:
     :
     Medium:
     11:
     :
0000
0000
0000
0000
,
0000
0000
0000
0000
,
0000
0000
0000
0000
,
0000
0000
0000
0000
,
0000
0000
0000
0000
,
0000
0000
0000
0000
,
0020
0000
0030
1001
,
0010
0000
0000
1000
0000
0000
0010
0000
0100
0000
0000
0001
0000
0000
0100
0000
,
0010
0000
0000
1000
0000
0000
0010
0000
1000
0000
0000
0000
0100
0000
0000
0000
,
0010
0000
0000
0001
0000
0000
0010
0000
0100
0000
0000
1000
0000
0000
0100
0000
,
0010
0000
0000
0001
0000
0000
0010
0000
0001
0000
0000
0000
0100
0000
0000
0000
,
0010
0000
0000
1000
0000
0000
0010
0000
0100
0000
0000
0001
0000
0000
0100
0000
,
0010
0000
0000
1000
0000
0000
0010
0000
1000
0000
0000
0000
0100
0000
0000
0000
,
0010
0000
0000
0001
0000
0000
0010
0000
0100
0000
0000
1000
0000
0000
0100
0000
,
0010
0000
0000
0001
0000
0000
0010
0000
0001
0000
0000
0000
0100
0000
0000
0000
,
0010
0010
0010
0010
,
0010
0010
0010
0010
,
1000
0001
0100
0000
0010
1000
0001
0000
,
0010
0100
1000
0000
0001
0100
0010
0000
,
1000
1000
1000
1000
,
1000
1000
1000
1000
,
0001
1000
0100
0000
0010
0001
1000
0000
,
0010
0100
0001
0000
1000
0000
0110
0000
,
0001
0000
0000
0100
0000
0000
0010
0000
1000
0000
0000
0100
0000
0000
0010
0000
,
0001
0000
0000
0100
0000
0000
0010
0000
2000
0000
0000
0000
3100
0000
0000
0000
,
1000
0000
0000
0100
0000
0000
0010
0000
0001
0000
0000
0100
0000
0000
0010
0000
,
1000
0000
0000
0100
0000
0000
0010
0000
0002
0000
0000
0000
0103
0000
0000
0000
,
0001
0000
0000
0100
0000
0000
0010
0000
1000
0000
0000
0100
0000
0000
0010
0000
,
0001
0000
0000
0100
0000
0000
0010
0000
2000
0000
0000
0000
3100
0000
0000
0000
,
1000
0000
0000
0100
0000
0000
0010
0000
0001
0000
0000
0100
0000
0000
0010
0000
,
1000
0000
0000
0100
0000
0000
0010
0000
0002
0000
0000
0000
0000
0000
0000
0000
,
0013
0010
0010
0010
,
0010
0010
0010
0010
,
0001
1000
0100
0000
1000
0001
0100
0000
,
0001
0100
0010
0000
1000
0100
0010
0000
,
0001
0001
0001
0001
,
0001
0001
0001
0001
,
1000
0001
0100
0000
0001
1000
0100
0000
,
1000
0100
0010
0000
0011
0000
1100
0000
,
0010
0000
0000
1000
0000
0000
0100
0000
0010
0000
0000
0001
0000
0000
0100
0000
,
0010
0000
0000
1000
0000
0000
0100
0000
0010
0000
0000
0000
0002
0000
0000
0000
,
0003
1000
0000
0010
0100
0000
0001
0000
,
1000
0010
1000
0010
1000
0000
1100
0000
,
0010
0000
0000
0001
0000
0000
0100
0000
0010
0000
0000
1000
0000
0000
0100
0000
,
0010
0000
0000
0001
0000
0000
0100
0000
0010
0000
0000
0000
2000
0000
0000
0000
,
3200
0000
0320
0000
,
0032
0000
0203
0000
,
0320
0000
2030
0000
,
3002
0000
0200
0303
,
0010
1000
0010
1000
0010
1000
0010
1000
0010
1000
0000
0000
,
0001
0100
0001
0100
0001
0100
0001
0100
0001
0100
0000
0000
,
0010
1000
0010
1000
0010
1000
0010
1000
0010
1000
0000
0000
,
0001
0100
0001
0100
0001
0100
0001
0000
0000
0000
0000
0000
,
1000
0100
1000
0100
1000
0100
1000
0100
1000
0100
0000
0000
,
0010
0001
0010
0001
0010
0001
0010
0001
0010
0001
0000
0000
,
1000
0100
1000
0100
1000
0100
1000
0100
1000
0100
0000
0000
,
0010
0001
0010
0001
0010
0001
0010
0000
0000
0000
0000
0000
,
0001
0100
0001
0100
0000
0000
0010
1000
0010
1000
0000
0000
,
0001
1000
0001
1000
0001
1000
0001
0000
0000
1001
0000
0000
,
0010
0000
0000
1000
0000
0000
0010
0000
0100
0000
0000
0001
0000
0000
0100
0000
,
0010
0000
0000
1000
0000
0000
0010
0000
1000
0000
0000
0000
0100
0000
0000
0000
,
0010
0000
0000
0001
0000
0000
0010
0000
0100
0000
0000
1000
0000
0000
0100
0000
,
0010
0000
0000
0001
0000
0000
0010
0000
0001
0000
0000
0000
0100
0000
0000
0000
,
0010
0000
0000
1000
0000
0000
0010
0000
0100
0000
0000
0001
0000
0000
0100
0000
,
0010
0000
0000
1000
0000
0000
0010
0000
1000
0000
0000
0000
0100
0000
0000
0000
,
0010
0000
0000
0001
0000
0000
0010
0000
0100
0000
0000
1000
0000
0000
0100
0000
,
0010
0000
0000
0001
0000
0000
0010
0000
0001
0000
1000
0000
0001
0000
0000
0000
,
0000
0000
0000
0000
;
#NOTES:
     dance-single:
     :
     Hard:
     13:
     :
0000
0000
0000
0000
,
0000
0000
0000
0000
,
0000
0000
0000
0000
,
0000
0000
0000
0000
,
0000
0000
0000
0000
,
0000
0000
0000
0000
,
0001
1000
0001
1000
0001
1000
0001
1000
0001
1000
0000
0000
,
0010
1000
0000
0010
0000
0000
0100
0000
0001
1000
0000
0001
0000
0000
0100
0000
,
0010
1000
0000
0010
0000
0000
0100
0000
0001
0000
1000
0000
1001
0000
0000
0000
,
0010
0001
0000
0010
0000
0000
0100
0000
1000
0001
0000
1000
0000
0000
0100
0000
,
0010
0001
0000
0010
0000
0000
0100
0000
1000
0000
0001
0000
1001
0000
0000
0000
,
0010
1000
0000
0010
0000
0000
0100
0000
0001
1000
0000
0001
0000
0000
1000
0000
,
0010
0100
0000
0010
0000
0000
1000
0000
0100
0000
1000
0000
1100
0000
0000
0000
,
0010
0001
0000
0010
0000
0000
0100
0000
1000
0001
0000
1000
0000
0000
0001
0000
,
0010
0100
0000
0010
0000
0000
0001
0000
0010
0000
0001
0000
0011
0000
0000
0000
,
0100
0100
0100
0100
,
0100
0100
0100
0100
,
0001
0100
0001
1000
0001
0100
0001
1000
,
0100
0010
0100
1000
0100
0010
0100
1000
,
0010
0010
0010
0010
,
0010
0010
0010
0010
,
1000
0100
1000
0001
1000
0100
1000
0001
,
0100
0010
0100
0001
0010
0000
1100
0000
,
1000
0100
1000
0100
0000
0000
0010
0000
0001
1000
0001
1000
0000
0000
0010
0000
,
1000
0100
1000
0100
0000
0000
0010
0000
0002
0000
0100
0000
0103
0000
0000
0000
,
0001
0100
0001
0100
0000
0000
0010
0000
1000
0001
1000
0001
0000
0000
0010
0000
,
0001
0100
0001
0100
0000
0000
0010
0000
2000
0000
0100
0000
3100
0000
0000
0000
,
0010
0001
0010
0001
0000
0000
0100
0000
0010
1000
0010
1000
0000
0000
0100
0000
,
0010
0001
0010
0001
0000
0000
0100
0000
0002
0000
1000
0000
1003
0000
0000
0000
,
0010
1000
0010
1000
0000
0000
0100
0000
0010
0001
0010
0001
0000
0000
0100
0000
,
0010
1000
0010
1000
0000
0000
0100
0000
2000
0000
0000
0000
3002
0000
0000
0000
,
0013
0010
0010
0010
,
0001
0001
0001
0001
,
0100
0001
0100
0010
0100
0001
0100
0010
,
1000
0100
1000
0010
1000
0100
1000
0010
,
0100
0100
0100
0100
,
0010
0010
0010
0010
,
1000
0100
0010
0100
1000
0100
0010
0001
,
0100
0010
1000
0010
0100
0000
0101
0000
,
0010
1000
0000
0002
0000
0000
0103
0000
0010
1000
0000
0002
0000
0000
0103
0000
,
0010
1000
0000
0200
0000
0000
0310
0000
0001
0000
1000
0000
0200
0000
0000
0000
,
0310
0000
0001
0000
0100
0000
0010
0000
1000
0000
0000
1000
0000
0000
0100
0000
,
0010
0001
0010
0100
2000
0000
3100
0000
,
0010
0001
0000
2000
0000
0000
3100
0000
0010
0001
0000
2000
0000
0000
3100
0000
,
0010
0001
0000
0200
0000
0000
0310
0000
1000
0000
0001
0000
0200
0000
0000
0000
,
0320
0000
2030
0000
3200
0000
0310
0001
,
0200
0320
2030
3002
,
0203
0000
0300
0010
2000
0000
3000
0000
,
0002
0000
0200
0303
,
0010
1000
0010
1000
0010
1000
0010
1000
0010
1000
0000
0000
,
0001
0100
0001
0100
0001
0100
0001
0100
0001
0100
0000
0000
,
0010
1000
0100
0001
0100
1000
0010
0100
0001
0100
0010
1000
,
0100
0001
0100
1000
0010
0100
0001
0000
0000
0000
0000
0000
,
0010
0001
0010
0001
0010
0001
0010
0001
0010
0001
0000
0000
,
1000
0100
1000
0100
1000
0100
1000
0100
1000
0100
0000
0000
,
0010
0001
0100
1000
0100
0001
0010
0100
1000
0100
0010
0001
,
0100
1000
0100
0001
0010
0100
1000
0000
0000
0000
0000
0000
,
0001
1000
0001
1000
0000
0000
0010
0100
0010
0100
0000
0000
,
0001
0010
0100
1000
0001
0100
0010
0000
0000
1001
0000
0000
,
0010
1000
0000
0010
0000
0000
0100
0000
0001
1000
0000
0001
0000
0000
1000
0000
,
0010
0100
0000
0010
0000
0000
1000
0000
0001
0000
1000
0000
1001
0000
0000
0000
,
0010
0001
0000
0010
0000
0000
0100
0000
1000
0001
0000
1000
0000
0000
0001
0000
,
0010
0100
0000
0010
0000
0000
0001
0000
1000
0000
0001
0000
1001
0000
0000
0000
,
0010
1000
0000
0010
0000
0000
0100
0000
0001
1000
0000
0001
0000
0000
1000
0000
,
0010
0100
0000
0010
0000
0000
1000
0000
0001
0000
0010
0000
0011
0000
0000
0000
,
1000
0100
1000
0100
0000
0000
0010
0000
0001
0100
0001
0100
0000
0000
0010
0000
,
1000
0100
0010
0001
0100
0000
0010
0000
1000
0000
0001
0000
1000
0000
0000
0000
,
0000
0000
0000
0000
;
#NOTES:
     dance-single:
     :
     Challenge:
     16:
     :
0000
0000
0000
0000
,
0000
0000
0000
0000
,
0000
0000
0000
0000
,
0000
0000
0000
0000
,
0000
0000
0000
0000
,
0000
0000
0000
0000
,
0001
0001
0001
0001
0001
0001
0001
0001
0001
0001
0000
0000
,
1000
0010
0000
1000
0010
0000
0100
0000
0001
0010
0000
0001
0010
0000
0100
0000
,
1000
0100
0000
1000
0100
0000
0010
0000
0001
0000
0010
0000
0110
0000
0000
0000
,
0001
0100
0000
0001
0100
0000
0010
0000
1000
0100
0000
1000
0100
0000
0010
0000
,
0001
0100
0000
0010
1000
0000
0100
0000
0010
0001
0010
0100
1000
0000
0000
0000
,
0001
0100
0000
0010
1000
0000
0100
0000
0010
0001
0000
1000
0010
0000
0100
0000
,
0001
0010
0000
0100
1000
0000
0010
0000
0100
0001
1000
0000
1001
0000
0000
0000
,
1000
0010
0000
0100
0001
0000
0010
0000
0100
1000
0000
0010
0100
0000
0001
0000
,
1000
0100
0000
0010
0001
0000
0010
0000
0110
0000
1001
0000
1001
0000
0000
0000
,
1000
0100
1000
0100
1000
0100
0000
0010
0000
0010
0000
0010
0001
0000
0001
0000
,
1000
0100
1000
0100
0010
0100
0010
0100
0010
0001
0010
0001
1000
0000
1000
0000
,
0001
0100
0001
0000
1000
0100
1000
0000
0001
0010
0001
0000
1000
0010
1000
0000
,
0001
0010
0100
1000
0010
0100
0010
0000
1000
0100
0010
0001
1000
0010
0100
0000
,
0001
0100
0001
0000
0100
0010
0100
0010
0100
0010
0100
0010
1000
0000
1000
0000
,
0001
0100
0001
0100
0010
0100
0010
0100
0010
1000
0010
1000
0001
0000
0001
0000
,
1000
0001
1000
0000
0010
0100
0010
0000
1000
0010
0100
0001
0010
0100
1000
0000
,
0100
0010
0001
0000
1000
0010
0100
0000
0110
0000
0000
0000
1001
0000
0000
0000
,
1000
0010
1000
0020
0000
0130
0001
0000
0010
0100
0010
0200
0000
1300
0001
0000
,
0100
0010
0100
0020
0000
1030
0001
0000
0011
0000
0110
0000
1100
0000
0000
0000
,
0010
0001
0010
0002
0000
1003
0100
0000
0010
0100
0010
0200
0000
1300
0001
0000
,
0100
0010
0100
0020
0000
1030
0001
0000
1001
0000
1010
0000
0110
0000
0000
0000
,
0010
1000
0010
1000
0010
0000
0110
0000
1000
0001
1000
0001
1000
0000
1100
0000
,
0001
0010
0001
0010
0001
0000
0110
0000
1001
0000
0110
0000
1001
0000
0000
0000
,
0001
0100
0001
0100
0001
0000
0110
0000
1000
0010
1000
0010
1000
0000
1001
0000
,
0100
0010
0100
0010
0100
0000
0020
0000
0200
0000
0000
0000
0330
0000
0000
0000
,
1000
0000
1000
0000
0010
0000
0010
0100
0000
0100
0000
0100
0001
0000
0001
0000
,
1000
0010
1000
0010
0100
0010
0100
0010
0100
0001
0100
0001
1000
0000
1000
0000
,
0001
0100
0010
1000
0001
0010
0100
0000
1000
0100
0010
0000
0001
0100
0010
0000
,
1000
0010
1000
0010
0100
0001
0100
0000
0001
0010
0200
0000
0000
0000
1300
0000
,
0001
0010
0001
0010
0001
0000
0010
0000
0100
1000
0100
1000
0100
0000
1000
0000
,
0001
0010
0001
0010
0100
0010
0100
0010
0100
1000
0100
1000
0001
0000
0001
0000
,
1000
0001
0100
0010
1000
0001
0010
0000
0100
1000
0100
0000
0010
0001
0010
0000
,
0001
0100
0010
1000
0001
0100
0010
0000
0110
0000
0000
0000
1001
0000
0001
1000
,
0100
0000
0010
0001
0000
0010
0100
0000
1000
0000
0001
0100
0000
0010
1000
0000
,
0001
0000
0010
0100
0000
1000
0001
0000
0100
0000
0010
1000
0001
0000
0000
0000
,
1000
0000
0100
0010
0001
0000
1000
0000
0010
0000
0100
0001
1000
0000
0100
0000
,
0010
0001
0010
0000
0100
1000
0100
0000
1001
0000
0000
0000
0110
0000
0001
0100
,
0010
0000
1000
0010
0000
0100
0001
0000
0010
0000
0100
1000
0000
0001
0100
0000
,
0010
0000
1000
0100
0000
0010
0001
0000
1000
0010
0100
0001
1000
0000
0000
0000
,
0200
0000
0010
0000
0010
0000
0310
0001
,
0022
0033
0220
0330
2200
3300
2002
3003
,
0100
0001
0100
0000
0010
1000
0010
0000
1000
0001
1000
0001
1000
0001
1000
0000
,
0200
0000
0310
0000
,
0001
0001
0001
0001
0001
0001
0001
0001
0001
0001
0000
0000
,
1000
1000
1000
1000
1000
1000
1000
1000
1000
1000
0000
0000
,
0001
0001
0001
0001
0001
0001
0001
0001
0001
0001
0001
0001
,
0001
0001
0001
0001
0001
0001
0001
0000
0000
0000
0000
0000
,
1000
1000
1000
1000
1000
1000
1000
1000
1000
1000
0000
0000
,
0001
0001
0001
0001
0001
0001
0001
0001
0001
0001
0000
0000
,
1000
1000
1000
1000
1000
1000
1000
1000
1000
1000
1000
1000
,
1000
1000
1000
1000
1000
1000
1000
0000
0000
0000
0000
0000
,
0001
0001
0001
0001
0000
0000
1000
1000
1000
1000
0000
0000
,
0010
0010
0010
0100
0100
0100
2002
0000
0000
3003
0000
0000
,
0001
0100
0000
0001
0100
0000
0010
0000
1000
0100
0000
1000
0100
0000
0010
0000
,
0001
0010
0000
0001
0010
0000
0100
0000
1000
0000
0100
0000
0110
0000
0000
0000
,
1000
0010
0000
1000
0010
0000
0100
0000
0001
0010
0000
0001
0010
0000
0100
0000
,
1000
0010
0000
0100
0001
0000
0010
0000
0100
1000
0100
0010
0001
0000
0000
0000
,
1000
0010
0000
0100
0001
0000
0010
0000
0100
1000
0000
0001
0100
0000
0010
0000
,
1000
0100
0000
0010
0001
0000
0100
0000
0010
1000
0001
0000
1001
0000
0000
0000
,
1000
0010
0100
0001
0000
0001
0010
0000
0100
1000
0010
0100
0000
0100
0001
0000
,
1000
0100
0010
0001
0100
0010
0100
0000
0110
0000
1001
0000
1001
0000
0000
0000
,
0000
0000
0000
0000
;
#NOTES:
     dance-double:
     :
     Easy:
     5:
     :
00000000
00000000
00000000
00000000
,
00000000
00000000
00000000
00000000
,
00000000
00000000
00000000
00000000
,
00000000
00000000
00000000
00000000
,
00000000
00000000
00000000
00000000
,
00000000
00000000
00000000
00000000
,
00000000
00000000
00000000
00000000
,
00100000
00000000
10000000
00000000
,
01000000
00000000
00010000
00001000
,
00000010
00000000
00000001
00000000
,
00000100
00000000
00001000
00010000
,
00100000
00000000
10000000
00000000
,
01000000
00000000
00010000
00001000
,
00000010
00000000
00000001
00000000
,
00000100
00000000
00001000
00010000
,
00001000
00000000
00001000
00000000
,
00010000
00000000
00010000
00000000
,
00100000
10000000
00010000
01000000
,
00100000
10000000
01000000
00000000
,
00010000
00000000
00010000
00000000
,
00001000
00000000
00001000
00000000
,
00000010
00000001
00001000
00000100
,
00000010
00000001
00000100
00000000
,
00001000
00000000
00010000
00000000
,
00001000
00000000
00010000
00011000
,
00100000
00000000
10000000
00000000
,
01000000
00000000
00010000
00011000
,
00001000
00000000
00010000
00000000
,
00001000
00000000
00010000
00011000
,
00000010
00000000
00000001
00000000
,
00000100
00000000
00001000
00010000
,
00001000
00000000
00001000
00000000
,
00010000
00000000
00010000
00000000
,
00100000
10000000
00010000
01000000
,
00100000
10000000
01000000
00000000
,
00010000
00000000
00010000
00000000
,
00001000
00000000
00001000
00000000
,
00000010
00000001
00001000
00000100
,
00000010
00000001
00000100
00000000
,
00001000
00010000
01000000
00000000
,
10000000
00100000
00010000
00000000
,
00001000
00000010
00000001
00000000
,
00000100
00000010
00001000
00000000
,
00000001
00000100
00001000
00000000
,
00010000
01000000
10000000
00000000
,
00020000
00000000
00230000
00000000
,
02300000
00000000
03020000
00000000
,
00032000
00000000
00003200
00000000
,
00000302
00000000
00002000
00003003
,
00000010
00000010
00000010
00000010
,
00000100
00000100
00000100
00000100
,
00000001
00000100
00001000
00010000
,
01000000
10000000
00010000
00000000
,
00100000
00100000
00100000
00100000
,
01000000
01000000
01000000
01000000
,
10000000
01000000
00010000
00001000
,
00000100
00000001
00001000
00000000
,
00000020
00000030
00000200
00000300
,
00000010
00000100
00001000
00011000
,
00100000
00000000
10000000
00000000
,
01000000
00000000
00010000
00001000
,
00000010
00000000
00000001
00000000
,
00000100
00000000
00001000
00010000
,
00100000
00000000
10000000
00000000
,
01000000
00000000
00010000
00001000
,
00000010
00000001
00000010
00001000
,
00010000
00100000
10000000
01100000
,
00000000
00000000
00000000
00000000
;
#NOTES:
     dance-double:
     :
     Medium:
     11:
     :
00000000
00000000
00000000
00000000
,
00000000
00000000
00000000
00000000
,
00000000
00000000
00000000
00000000
,
00000000
00000000
00000000
00000000
,
00000000
00000000
00000000
00000000
,
00000000
00000000
00000000
00000000
,
00020000
00000000
00030000
01010000
,
00100000
00000000
00000000
10000000
00000000
00000000
01000000
00000000
00100000
00000000
00000000
00010000
00000000
00000000
01000000
00000000
,
00100000
00000000
00000000
10000000
00000000
00000000
01000000
00000000
00010000
00000000
00000000
00000000
00011000
00000000
00000000
00000000
,
00000010
00000000
00000000
00000001
00000000
00000000
00000100
00000000
00000010
00000000
00000000
00001000
00000000
00000000
00000100
00000000
,
00000010
00000000
00000000
00000001
00000000
00000000
00000100
00000000
00001000
00000000
00000000
00000000
00011000
00000000
00000000
00000000
,
00100000
00000000
00000000
10000000
00000000
00000000
01000000
00000000
00100000
00000000
00000000
00010000
00000000
00000000
01000000
00000000
,
00100000
00000000
00000000
10000000
00000000
00000000
01000000
00000000
00010000
00000000
00000000
00000000
00011000
00000000
00000000
00000000
,
00000010
00000000
00000000
00000001
00000000
00000000
00000100
00000000
00000010
00000000
00000000
00001000
00000000
00000000
00000100
00000000
,
00000010
00000000
00000000
00000001
00000000
00000000
00000100
00000000
00001000
00000000
00000000
00000000
00011000
00000000
00000000
00000000
,
00010000
00010000
00001000
00001000
,
00010000
00100000
10000000
00010000
,
10000000
00100000
01000000
00000000
00010000
00100000
01000000
00000000
,
10000000
00100000
01000000
00000000
00010000
00000000
00011000
00000000
,
00001000
00001000
00010000
00010000
,
00001000
00000010
00000001
00001000
,
00000001
00000010
00000100
00000000
00001000
00000010
00000100
00000000
,
00000001
00000010
00000100
00000000
00001000
00000000
00011000
00000000
,
00100000
00000000
00000000
10000000
00000000
00000000
00100000
00000000
01000000
00000000
00000000
00010000
00000000
00000000
01000000
00000000
,
00100000
00000000
00000000
10000000
00000000
00000000
01000000
00000000
00010000
00000000
00000000
00000000
00001000
00000000
00000000
00000000
,
00000010
00000000
00000000
00000001
00000000
00000000
00000010
00000000
00000100
00000000
00000000
00001000
00000000
00000000
00000100
00000000
,
00000010
00000000
00000000
00000001
00000000
00000000
00000100
00000000
00001000
00000000
00000000
00000000
00010000
00000000
00000000
00000000
,
01000000
00000000
00000000
10000000
00000000
00000000
01000000
00000000
00100000
00000000
00000000
00010000
00000000
00000000
00100000
00000000
,
01000000
00000000
00000000
10000000
00000000
00000000
00100000
00000000
00010000
00000000
00000000
00000000
00001000
00000000
00000000
00000000
,
00000100
00000000
00000000
00000001
00000000
00000000
00000100
00000000
00000010
00000000
00000000
00001000
00000000
00000000
00000010
00000000
,
00000100
00000000
00000000
00001000
00000000
00000000
00010000
00000000
00002000
00000000
00000000
00000000
00013000
00000000
00000000
00000000
,
00001000
00001000
00010000
00010000
,
00100000
10000000
00100000
10000000
,
00010000
01000000
00010000
00000000
00100000
10000000
00100000
00000000
,
00010000
01000000
00100000
00000000
00010000
00000000
00011000
00000000
,
00010000
00010000
00001000
00001000
,
00000100
00000010
00000100
00000010
,
00001000
00000100
00001000
00000000
00000010
00000001
00000010
00000000
,
00001000
00000100
00000010
00000000
00001000
00000000
00011000
00000000
,
00100000
00000000
00000000
10000000
00000000
00000000
01000000
00000000
10000000
00000000
00000000
00100000
00000000
00000000
00010000
00000000
,
00100000
00000000
00000000
10000000
00000000
00000000
01000000
00000000
00010000
00000000
00000000
00000000
00002000
00000000
00000000
00000000
,
00003000
00000010
00000000
00000001
00000100
00000000
00000010
00000000
,
00001000
00000010
00001000
00000010
00001000
00000000
00011000
00000000
,
01000000
00000000
00000000
10000000
00000000
00000000
00100000
00000000
10000000
00000000
00000000
01000000
00000000
00000000
00010000
00000000
,
01000000
00000000
00000000
10000000
00000000
00000000
00100000
00000000
00010000
00000000
00000000
00000000
00002000
00000000
00000000
00000000
,
00003200
00000000
00000302
00000000
,
00002003
00000000
00003020
00000000
,
00000230
00000000
00002300
00000000
,
00023000
00000000
00002000
00033000
,
00100000
10000000
00100000
10000000
00100000
10000000
00100000
10000000
00100000
10000000
00000000
00000000
,
00010000
01000000
00010000
01000000
00010000
01000000
00010000
01000000
00010000
01000000
00000000
00000000
,
00010000
00100000
00010000
00100000
00010000
00100000
00010000
00100000
00010000
00100000
00010000
00100000
,
00010000
00100000
00010000
00100000
00010000
00100000
00010000
00000000
00000000
00011000
00000000
00000000
,
00000010
00000001
00000010
00000001
00000010
00000001
00000010
00000001
00000010
00000001
00000000
00000000
,
00001000
00000100
00001000
00000100
00001000
00000100
00001000
00000100
00001000
00000100
00000000
00000000
,
00001000
00000010
00001000
00000010
00001000
00000010
00001000
00000010
00001000
00000010
00001000
00000010
,
00001000
00000010
00001000
00000010
00001000
00000010
00001000
00000000
00000000
00011000
00000000
00000000
,
00100000
10000000
00100000
10000000
00000000
00000000
00010000
01000000
00010000
01000000
00000000
00000000
,
00010000
00100000
00010000
00100000
00010000
00100000
00010000
00000000
00000000
00011000
00000000
00000000
,
00000010
00000000
00000000
00000001
00000000
00000000
00000100
00000000
00000010
00000000
00000000
00001000
00000000
00000000
00000100
00000000
,
00000010
00000000
00000000
00000001
00000000
00000000
00000100
00000000
00001000
00000000
00000000
00000000
00011000
00000000
00000000
00000000
,
00100000
00000000
00000000
10000000
00000000
00000000
01000000
00000000
00100000
00000000
00000000
00010000
00000000
00000000
01000000
00000000
,
00100000
00000000
00000000
10000000
00000000
00000000
01000000
00000000
00010000
00000000
00000000
00000000
00011000
00000000
00000000
00000000
,
00000010
00000000
00000000
00000001
00000000
00000000
00000100
00000000
00000010
00000000
00000000
00001000
00000000
00000000
00000100
00000000
,
00000010
00000000
00000000
00000001
00000000
00000000
00000100
00000000
00001000
00000000
00000000
00000000
00011000
00000000
00000000
00000000
,
00100000
00000000
00000000
10000000
00000000
00000000
01000000
00000000
00100000
00000000
00000000
00010000
00000000
00000000
01000000
00000000
,
00100000
00000000
00000000
10000000
00000000
00000000
01000000
00000000
00010000
00000000
00001000
00000000
00010000
00000000
00000000
00000000
,
00000000
00000000
00000000
00000000
;
#NOTES:
     dance-double:
     :
     Hard:
     13:
     :
00000000
00000000
00000000
00000000
,
00000000
00000000
00000000
00000000
,
00000000
00000000
00000000
00000000
,
00000000
00000000
00000000
00000000
,
00000000
00000000
00000000
00000000
,
00000000
00000000
00000000
00000000
,
00001000
00010000
00001000
00010000
00001000
00010000
00001000
00010000
00001000
00010000
00000000
00000000
,
00100000
10000000
00000000
01000000
00000000
00000000
00100000
00000000
00010000
01000000
00000000
00100000
00000000
00000000
10000000
00000000
,
01000000
00010000
00000000
00001000
00000000
00000000
00000100
00000000
00000001
00000000
00001000
00000000
00000001
00000000
00000000
00000000
,
00000010
00000001
00000000
00000100
00000000
00000000
00000010
00000000
00001000
00000100
00000000
00000010
00000000
00000000
00000001
00000000
,
00000100
00001000
00000000
00010000
00000000
00000000
01000000
00000000
10000000
00000000
00010000
00000000
10000000
00000000
00000000
00000000
,
00100000
01000000
00000000
00010000
00000000
00000000
00100000
00000000
01000000
10000000
00000000
00100000
00000000
00000000
01000000
00000000
,
00010000
10000000
00000000
00100000
00000000
00000000
00010000
00000000
00001000
00000000
00000010
00000000
00000001
00000000
00000000
00000000
,
00000010
00000100
00000000
00001000
00000000
00000000
00000010
00000000
00000100
00000001
00000000
00000010
00000000
00000000
00000100
00000000
,
00001000
00000001
00000000
00000100
00000000
00000000
00001000
00000000
00010000
00000000
01000000
00000000
10000000
00000000
00000000
00000000
,
00100000
00100000
00100000
00100000
,
01000000
01000000
01000000
01000000
,
00010000
10000000
01000000
00100000
00010000
01000000
00100000
10000000
,
01000000
00010000
00001000
00000100
00000001
00000010
00000100
00001000
,
00000100
00000100
00000100
00000100
,
00000010
00000010
00000010
00000010
,
00000001
00000100
00000010
00001000
00000100
00000010
00000001
00001000
,
00000010
00000100
00001000
00010000
01000000
00000000
10010000
00000000
,
00100000
10000000
00100000
10000000
00000000
00000000
01000000
00000000
00100000
00010000
00100000
00010000
00000000
00000000
01000000
00000000
,
00100000
10000000
00100000
10000000
00000000
00000000
01000000
00000000
00020000
00000000
00001000
00000000
00031000
00000000
00000000
00000000
,
00000010
00000001
00000010
00000001
00000000
00000000
00000100
00000000
00000010
00001000
00000010
00001000
00000000
00000000
00000100
00000000
,
00000010
00000001
00000010
00000001
00000000
00000000
00000100
00000000
00002000
00000000
00010000
00000000
00013000
00000000
00000000
00000000
,
00100000
10000000
00100000
10000000
00000000
00000000
01000000
00000000
00100000
00010000
00100000
00010000
00000000
00000000
01000000
00000000
,
00100000
10000000
00100000
10000000
00000000
00000000
01000000
00000000
00020000
00000000
00001000
00000000
00031000
00000000
00000000
00000000
,
00000010
00000001
00000010
00000001
00000000
00000000
00000100
00000000
00000010
00001000
00000010
00001000
00000000
00000000
00000100
00000000
,
00000010
00000001
00000010
00000001
00000000
00000000
00000100
00000000
00002000
00000000
00000000
00000000
00013000
00000000
00000000
00000000
,
00100000
00100000
00100000
00100000
,
10000000
10000000
10000000
10000000
,
00100000
10000000
00010000
01000000
00100000
10000000
00010000
01000000
,
00100000
00010000
00001000
00000010
00000001
00000200
00000300
00000010
,
00001000
00001000
00001000
00001000
,
00000100
00000100
00000100
00000100
,
00000010
00000001
00001000
00000100
00000010
00000001
00001000
00000100
,
00000010
00001000
00010000
00100000
10000000
00000000
10100000
00000000
,
00100000
10000000
00000000
00020000
00000000
00000000
01030000
00000000
00100000
10000000
00000000
02000000
00000000
00000000
03100000
00000000
,
00010000
01000000
00000000
00200000
00000000
00000000
10300000
00000000
01000000
00000000
00010000
00000000
00002000
00000000
00000000
00000000
,
00013000
00000000
00001000
00000000
00000010
00000000
00000001
00000000
00001000
00000000
00000000
00001000
00000000
00000000
00000100
00000000
,
00000010
00000001
00000100
00001000
00010000
00000000
00011000
00000000
,
00100000
10000000
00000000
00020000
00000000
00000000
01030000
00000000
00100000
10000000
00000000
02000000
00000000
00000000
03100000
00000000
,
00010000
01000000
00000000
00200000
00000000
00000000
10300000
00000000
01000000
00000000
00010000
00000000
00002000
00000000
00000000
00000000
,
00003020
00000000
00000032
00000000
00000203
00000000
00000301
00001000
,
00000200
00000320
00000032
00000203
,
00002300
00000000
00003000
00010000
02000000
00000000
03000000
00000000
,
20000000
00000000
00020000
30030000
,
10000000
01000000
10000000
01000000
10000000
01000000
10000000
01000000
10000000
01000000
00000000
00000000
,
00100000
00010000
00100000
00010000
00100000
00010000
00100000
00010000
00100000
00010000
00000000
00000000
,
10000000
00100000
10000000
00100000
10000000
00100000
10000000
01000000
10000000
01000000
10000000
01000000
,
00010000
00001000
00010000
00001000
00010000
00001000
00010000
00000000
00000000
00001100
00000000
00000000
,
00000001
00000010
00000001
00000010
00000001
00000010
00000001
00000010
00000001
00000010
00000000
00000000
,
00000100
00001000
00000100
00001000
00000100
00001000
00000100
00001000
00000100
00001000
00000000
00000000
,
00000001
00000010
00000001
00000010
00000001
00000010
00000001
00000100
00000001
00000100
00000001
00000100
,
00001000
00010000
00001000
00010000
00001000
00010000
00001000
00000000
00000000
00110000
00000000
00000000
,
00010000
10000000
00010000
10000000
00000000
00000000
00100000
01000000
00100000
01000000
00000000
00000000
,
00010000
00100000
00010000
00100000
00010000
00100000
00010000
00000000
00000000
00011000
00000000
00000000
,
00000010
00000001
00000000
00000100
00000000
00000000
00000010
00000000
00001000
00000100
00000000
00000010
00000000
00000000
00000001
00000000
,
00000100
00001000
00000000
00010000
00000000
00000000
01000000
00000000
10000000
00000000
00010000
00000000
10000000
00000000
00000000
00000000
,
00100000
10000000
00000000
01000000
00000000
00000000
00100000
00000000
00010000
01000000
00000000
00100000
00000000
00000000
10000000
00000000
,
01000000
00010000
00000000
00001000
00000000
00000000
00000100
00000000
00000001
00000000
00001000
00000000
00000001
00000000
00000000
00000000
,
00000010
00000100
00000000
00001000
00000000
00000000
00000010
00000000
00000100
00000001
00000000
00000010
00000000
00000000
00000100
00000000
,
00001000
00000001
00000000
00000010
00000000
00000000
00001000
00000000
00010000
00000000
00100000
00000000
10000000
00000000
00000000
00000000
,
00010000
01000000
00010000
01000000
00000000
00000000
00100000
00000000
10000000
01000000
10000000
01000000
00000000
00000000
00010000
00000000
,
00001000
00010000
00001000
00010000
00001000
00000000
00000010
00000000
00000001
00000000
00001000
00000000
00000001
00000000
00000000
00000000
,
00000000
00000000
00000000
00000000
;
#NOTES:
     dance-double:
     :
     Challenge:
     16:
     :
00000000
00000000
00000000
00000000
,
00000000
00000000
00000000
00000000
,
00000000
00000000
00000000
00000000
,
00000000
00000000
00000000
00000000
,
00000000
00000000
00000000
00000000
,
00000000
00000000
00000000
00000000
,
10000000
10000000
10000000
10000000
10000000
10000000
10000000
10000000
10000000
10000000
00000000
00000000
,
10000000
00100000
00000000
10000000
00100000
00000000
01000000
00000000
00010000
00100000
00000000
00010000
00100000
00000000
00001000
00000000
,
00010000
00001000
00000000
00010000
00001000
00000000
00000010
00000000
00000001
00000000
00000010
00000000
00000110
00000000
00000000
00000000
,
00000001
00000100
00000000
00000001
00000100
00000000
00000010
00000000
00001000
00000100
00000000
00001000
00000100
00000000
00010000
00000000
,
00001000
00010000
00000000
00001000
00010000
00000000
00100000
00000000
10000000
00000000
00100000
00000000
01100000
00000000
00000000
00000000
,
10000000
00100000
00000000
01000000
00010000
00000000
00100000
00000000
01000000
10000000
00000000
00010000
00100000
00000000
00001000
00000000
,
00010000
00001000
00000000
00000100
00000010
00000000
00001000
00000000
00000001
00000000
00000010
00000000
00000110
00000000
00000000
00000000
,
00000001
00000100
00000000
00000010
00001000
00000000
00000100
00000000
00000010
00001000
00000000
00010000
00001000
00000000
00010000
00000000
,
00100000
01000000
00000000
00010000
10000000
00000000
01000000
00000000
00100000
00000000
00010000
00000000
00110000
00000000
00000000
00000000
,
10000000
10000000
10000000
10000000
,
10000000
01000000
10000000
01000000
00100000
00010000
00100000
00010000
01000000
00100000
01000000
00100000
10000000
00000000
10000000
00000000
,
00010000
01000000
00010000
00000000
10000000
01000000
10000000
00000000
01000000
00100000
00010000
00100000
00001000
00010000
00001000
00000000
,
00000100
00000001
00000100
00000000
00000010
00001000
00000010
00000000
00000100
00000001
00000010
00000100
00001000
00000010
00000100
00000000
,
00000001
00000001
00000001
00000001
,
00000001
00000100
00000001
00000100
00000010
00001000
00000010
00001000
00000100
00000010
00000100
00000010
00000001
00000000
00000001
00000000
,
00001000
00000001
00001000
00000000
00000010
00000100
00000010
00000000
00001000
00000010
00010000
00001000
00010000
00000000
01000000
00000000
,
10000000
00010000
01000000
00100000
10000000
00010000
00100000
00000000
01100000
00000000
00000000
00000000
10010000
00000000
00000000
00000000
,
10000000
00100000
10000000
00200000
00000000
01300000
00010000
00000000
00100000
01000000
00100000
02000000
00000000
13000000
00010000
00000000
,
10000000
01000000
10000000
02000000
00000000
03010000
00001000
00000000
00101000
00000000
00011000
00000000
00001100
00000000
00000000
00000000
,
00000010
00000001
00000010
00000002
00000000
00001003
00000100
00000000
00000010
00000100
00000010
00000200
00000000
00001300
00000001
00000000
,
00000100
00000010
00000100
00000020
00000000
00010030
00001000
00000000
00010010
00000000
00011000
00000000
01001000
00000000
00000000
00000000
,
00010000
01000000
00100000
10000000
00100000
00000000
00010000
00000000
00001000
00010000
00001000
00010000
00001000
00000000
00000100
00000000
,
00000001
00000010
00000100
00000010
00000001
00000000
00001000
00000000
00001001
00000000
00000110
00000000
00001001
00000000
00000000
00000000
,
00000001
00000010
00000100
00001000
00000100
00000000
00000010
00000000
00001000
00010000
00001000
00010000
00001000
00000000
01000000
00000000
,
00100000
10000000
00010000
10000000
00100000
00000000
02000000
00000000
00200000
00000000
00000000
00000000
03300000
00000000
00000000
00000000
,
10000000
10000000
10000000
10000000
,
10000000
01000000
00100000
00010000
10000000
00100000
01000000
00010000
10000000
00010000
00100000
01000000
10000000
00000000
10000000
00000000
,
00010000
01000000
00100000
10000000
00010000
00100000
01000000
00000000
10000000
01000000
00010000
00000000
00001000
00010000
00001000
00000000
,
00000100
00000001
00000100
00000001
00001000
00000010
00001000
00000000
00000001
00000010
00000200
00000000
00000000
00000000
00001300
00000000
,
00000001
00000001
00000001
00000001
,
00000001
00000010
00000100
00001000
00000001
00000100
00000010
00001000
00000001
00001000
00000100
00000010
00000001
00000000
00000001
00000000
,
00001000
00000001
00000100
00000010
00001000
00000001
00000010
00000000
00001000
00010000
00001000
00000000
00010000
00001000
00010000
00000000
,
00100000
01000000
00010000
10000000
00100000
01000000
00010000
00000000
01100000
00000000
00000000
00000000
10010000
00000000
00010000
10000000
,
01000000
00000000
00100000
00010000
00000000
00100000
01000000
00000000
10000000
00000000
00010000
01000000
00000000
00100000
10000000
00000000
,
01000000
00000000
00010000
00001000
00000000
00010000
00001000
00000000
00000010
00000000
00000001
00000010
00000100
00000000
00000000
00000000
,
00000010
00000000
00000100
00001000
00000001
00000000
00000100
00000000
00000010
00000000
00001000
00000001
00000100
00000000
00001000
00000000
,
00100000
00001000
00010000
00000000
00000010
00010000
00001000
00000000
00010000
00000000
00001000
00000000
00011000
00000000
00100000
01000000
,
00010000
00000000
10000000
00100000
00000000
01000000
00010000
00000000
00100000
00000000
01000000
10000000
00000000
00010000
01000000
00000000
,
00100000
00000000
10000000
01000000
00000000
00010000
00001000
00000000
00000010
00000001
00000010
00000100
00001000
00000000
00000000
00000000
,
00000200
00000000
00000010
00000000
00000010
00000000
00000310
00000001
,
00000002
00000103
00000200
00001300
00002000
00013000
00020000
00130000
,
01000000
00010000
01000000
00000000
00100000
10000000
00100000
00000000
10000000
00010000
10000000
00010000
10000000
00010000
10000000
00000000
,
02000000
00000000
03100000
00000000
,
10000000
10000000
10000000
10000000
10000000
10000000
10000000
10000000
10000000
10000000
00000000
00000000
,
00010000
00010000
00010000
00010000
00010000
00010000
00010000
00010000
00010000
00010000
00000000
00000000
,
00001000
00001000
00001000
00001000
00001000
00001000
00001000
00001000
00001000
00001000
00001000
00001000
,
00001000
00001000
00001000
00001000
00001000
00001000
00001000
00000000
00000000
00000000
00000000
00000000
,
00000001
00000001
00000001
00000001
00000001
00000001
00000001
00000001
00000001
00000001
00000000
00000000
,
00001000
00001000
00001000
00001000
00001000
00001000
00001000
00001000
00001000
00001000
00000000
00000000
,
00010000
00010000
00010000
00010000
00010000
00010000
00010000
00010000
00010000
00010000
00010000
00010000
,
00010000
00010000
00010000
00010000
00010000
00010000
00010000
00000000
00000000
00000000
00000000
00000000
,
10000000
10000000
10000000
10000000
00000000
00000000
00010000
00010000
00010000
00010000
00000000
00000000
,
00001000
00001000
00001000
00000100
00000100
00000100
00000001
00000000
00000000
00001001
00000000
00000000
,
00000001
00000100
00000000
00000001
00000100
00000000
00000010
00000000
00001000
00000100
00000000
00001000
00000100
00000000
00010000
00000000
,
00001000
00010000
00000000
00001000
00010000
00000000
01000000
00000000
10000000
00000000
01000000
00000000
01100000
00000000
00000000
00000000
,
10000000
00100000
00000000
10000000
00100000
00000000
01000000
00000000
00010000
00100000
00000000
00010000
00100000
00000000
00001000
00000000
,
00010000
00001000
00000000
00010000
00001000
00000000
00000100
00000000
00000001
00000000
00000100
00000000
00000110
00000000
00000000
00000000
,
00000001
00000100
00000000
00000010
00001000
00000000
00000100
00000000
00000010
00000001
00000000
00001000
00000100
00000000
00010000
00000000
,
00001000
00010000
00000000
00100000
01000000
00000000
00010000
00000000
10000000
00000000
01000000
00000000
01100000
00000000
00000000
00000000
,
10000000
01000000
00100000
00010000
00000000
01000000
00100000
00000000
00010000
00001000
00010000
00001000
00000000
00000100
00000010
00000000
,
00001000
00000001
00001000
00000001
00000010
00000100
00000010
00000000
00000110
00000000
00001001
00000000
00001001
00000000
00000000
00000000
,
00000000
00000000
00000000
00000000
;
