
//----- song ID: ding -----//
#TITLE:DREAMING-ING!!;
#ARTIST:ときめきアイドル project;
#ARTISTTRANSLIT:Tokimeki Idol project;
#BANNER:DREAMING-ING!!.png;
#BACKGROUND:DREAMING-ING!!-bg.png;
#CDTITLE:./CDTitles/DDR A.png;
#MUSIC:DREAMING-ING!!.ogg;
#SAMPLESTART:60.34;
#SAMPLELENGTH:15;
#BPMS:0=180;
#NOTES:
     dance-single:
     :
     Beginner:
     3:
     :
0000
0000
0000
0000
,
0000
0000
0000
0000
,
0000
0000
0000
0000
,
0000
0000
0000
0000
,
1000
0000
0000
0000
,
0001
0000
0000
0000
,
1000
0000
0000
0000
,
0001
0000
0000
0000
,
1000
0000
0200
0300
,
0000
0000
0000
0000
,
0001
0000
0001
0000
,
0001
0000
0000
0000
,
1000
0000
0000
0000
,
0001
0000
0001
0000
,
0001
0000
0000
0000
,
1000
0000
1000
0000
,
1000
0000
0000
0010
,
0000
0000
0000
0000
,
0001
0000
0000
0000
,
1000
0000
0001
0000
,
1000
0000
0000
0000
,
0001
0000
0000
0000
,
0010
0000
0000
0000
,
0001
0000
0000
0000
,
1000
0000
1000
0000
,
0001
0000
0001
0000
,
0001
0000
0000
0000
,
0000
0000
0000
0000
,
0001
0000
0000
0000
,
1000
0000
0000
0000
,
0010
0000
0000
0000
,
1000
0000
0000
0000
,
0001
0000
0001
0000
,
1000
0000
1000
0000
,
1000
0000
0000
0001
,
0000
0000
0000
0000
,
1000
0000
0000
0000
,
0001
0000
0000
0000
,
1000
0000
1000
0000
,
1000
0000
0000
0000
,
0001
0000
0000
0000
,
0000
0000
0000
0000
,
1000
0000
1000
0000
,
1000
0000
1000
0000
,
0010
0000
0000
0000
,
0100
0000
0000
0000
,
0001
0000
0000
0000
,
1000
0000
0100
0000
,
1000
0000
0000
0000
,
0001
0000
0000
0000
,
0002
0000
0003
0000
,
2000
0000
3000
0000
,
0001
0000
0000
0000
,
1000
0000
0010
0010
,
1000
0000
0000
0000
,
0001
0000
0100
0000
,
0001
0000
0000
0000
,
1000
0000
0000
0000
,
2000
0000
3000
0000
,
0002
0000
0003
0000
,
1000
0000
0000
0000
,
0001
0000
0000
0000
,
0010
0000
0010
0000
,
0010
0010
0000
0000
,
1000
0000
0000
0000
,
0001
0000
0001
0000
,
0001
0000
0000
0000
,
1000
0000
1000
0000
,
1000
0000
0000
0010
,
0000
0000
0000
0000
,
0001
0000
0000
0000
,
1000
0000
0001
0000
,
1000
0000
0001
0000
,
2002
0000
0000
0000
,
0000
0000
0000
3003
,
0000
0000
0000
0000
;
#NOTES:
     dance-single:
     :
     Easy:
     6:
     :
0000
0000
0000
0000
,
0000
0000
0000
0000
,
0000
0000
0000
0000
,
0000
0000
0000
0000
,
1000
0000
0000
0000
,
0001
0000
0000
0000
,
1000
0010
0001
0000
,
0001
0010
1000
0000
,
0001
1000
0200
0000
,
0010
0000
0010
0300
,
0001
0010
0001
1000
,
0001
0001
0000
0000
,
1000
0010
0001
0010
,
1000
0010
0001
0000
,
0001
0010
1000
0010
,
0001
0010
1000
0000
,
0001
0001
0000
1000
,
1000
0000
0010
0000
,
0010
0100
0010
0100
,
0001
1000
0100
0000
,
1000
0001
1000
0100
,
0001
0000
0100
0000
,
1000
0000
0100
0000
,
0010
0001
1000
0100
,
1000
1000
0001
0000
,
0001
0001
1000
0000
,
0100
0000
1001
0000
,
0010
0000
0001
0000
,
0001
1000
0001
0100
,
1000
0000
0100
0000
,
0001
0000
0100
0000
,
0010
1000
0001
0001
,
1000
0001
1000
0000
,
0001
0010
0100
0000
,
1000
0100
0010
0100
,
0110
0000
1000
0001
,
1000
0000
0010
0000
,
0001
0000
0010
0000
,
1000
0000
0001
0000
,
1000
0000
0001
1000
,
0100
0010
0001
0100
,
0001
0010
0100
0000
,
1001
0000
0110
0000
,
1001
0000
0110
0000
,
0001
1000
0001
1000
,
1001
0000
0000
0000
,
0001
0100
1000
0100
,
0001
0000
0100
0000
,
0001
1000
1000
0001
,
0001
0000
1000
0000
,
0002
0000
0023
0000
,
0230
0000
2300
0000
,
3001
0100
1000
0100
,
0001
1000
0001
1000
,
1000
0100
0001
0100
,
1000
0000
0100
0000
,
1000
0001
0001
1000
,
1000
0001
1000
0001
,
2000
0000
3010
0000
,
0200
0000
0301
0001
,
1000
1000
0001
0001
,
1000
0001
1000
0001
,
1000
0100
0010
0100
,
1000
0001
0000
0000
,
1000
0010
0001
0010
,
1000
0010
0001
0000
,
0001
0010
1000
0010
,
0001
0010
1000
0000
,
0001
0001
0000
1000
,
1000
0000
0010
0000
,
0010
0100
0010
0100
,
0001
1000
0100
0000
,
1000
0001
1000
0001
,
0220
0000
0000
0000
,
0000
0000
0000
0330
,
0000
0000
0000
0000
;
#NOTES:
     dance-single:
     :
     Medium:
     10:
     :
0000
0000
0000
0000
,
0000
0000
0000
0000
,
0000
0000
0000
0000
,
0000
0000
0000
0000
,
0001
0100
1000
0100
,
0001
0010
1000
0000
0010
0000
0001
0000
,
1000
0001
0010
0000
0001
0000
0000
0000
,
0001
1000
0010
0000
1000
0000
0000
0000
,
0001
1000
0200
0000
,
0001
0000
1000
0300
,
1000
0001
0010
0000
0001
0000
1000
0000
,
0001
1000
0100
0000
0000
0000
0000
0000
,
1000
0000
0101
0000
0001
1000
0100
0000
,
1000
0001
0010
0000
0001
0000
0100
0000
,
0001
0000
1100
0000
1000
0001
0100
0000
,
0001
1000
0010
0000
1000
0000
0100
0000
,
1000
0001
1000
0001
0000
0000
1000
0010
,
1000
0010
0000
0000
1000
0100
0000
1000
,
0000
0001
0010
0001
0010
0001
0010
0000
,
0001
1000
0000
0002
0000
0000
0103
0000
,
0001
0000
1000
0000
0001
0010
0100
0000
,
1000
0100
1000
0001
,
0010
0000
0001
0000
1000
0100
1000
0000
,
0001
0010
0001
0100
,
0001
0010
0001
0000
1000
0000
0100
0000
,
1000
0010
1000
0000
0001
0000
1000
0000
,
0000
1000
0100
0000
1000
0100
0000
0010
,
0000
0001
0000
1000
0000
0100
1000
0000
,
1000
0000
0001
0000
1000
0010
0100
0000
,
0001
0100
0001
1000
,
0010
0000
1000
0000
0001
0100
0001
0000
,
1000
0010
1000
0100
,
0010
1000
0010
0000
0001
0000
0000
0000
,
0100
1000
0100
0000
0001
0000
0010
0000
,
0001
0000
1000
0100
0000
0000
1000
0000
,
0010
0100
0000
0000
0101
0000
1100
0000
,
1000
0000
0000
0001
0010
0000
0000
0000
,
0001
0000
0000
0100
0010
0000
0000
0000
,
1000
0000
0000
0001
0000
0000
1000
0000
0001
0000
0000
0000
0000
0000
0000
0000
,
1000
0000
0000
0001
0000
0000
0010
0000
0001
0000
0000
0000
1000
0000
0000
0000
,
0100
0010
0001
0100
,
2000
0100
0100
3100
,
0001
0000
0100
0010
0000
0000
0010
0000
,
1000
0000
0001
0100
0000
0000
0100
0000
,
0001
0000
0000
1000
0000
0000
0001
0000
,
1001
1100
0101
1100
,
0001
0000
1100
0000
1000
0000
0001
0010
,
0001
1000
0100
0010
,
0001
0000
1000
0100
1000
0000
0001
0010
,
0001
1000
0001
1000
,
0001
0000
0000
0010
0000
0000
0001
0000
0010
0000
0000
0000
0000
0000
0000
0000
,
0100
0000
0000
0010
0000
0000
0100
0000
0010
0000
0000
0000
0000
0000
0000
0000
,
0001
0100
1000
0100
,
0001
0101
1100
1001
,
1000
0000
0101
0000
0001
0000
1000
0010
,
1000
0001
0100
0010
,
1000
0000
0001
0100
0001
0000
1000
0010
,
1000
0001
1000
0001
,
1000
0000
0000
0010
0000
0000
1000
0000
0010
0000
0000
0000
0000
0000
0000
0000
,
0100
0000
0000
0010
0000
0000
0100
0000
0010
0000
0000
0000
1000
0000
0000
0000
,
0001
1000
1000
0001
,
0001
1000
0001
1001
,
1000
0100
1000
0000
0001
0000
0010
0000
,
0001
0100
0001
0000
0000
0000
0000
0000
,
0001
0000
1100
0000
1000
0001
0100
0000
,
0001
1000
0010
0000
1000
0000
0100
0000
,
1000
0000
0101
0000
0001
1000
0100
0000
,
1000
0001
0010
0000
0001
0000
0100
0000
,
0001
1000
0001
1000
0000
0000
0001
0010
,
0001
0010
0000
0000
0001
1000
0000
0001
,
0000
1000
0100
1000
0100
1000
0100
0000
,
1000
0001
0000
0200
0000
0000
0310
0000
,
1010
0000
0000
0010
0000
0000
0001
0200
,
0000
0000
0000
0000
,
0000
0000
0000
0300
,
0000
0000
0000
0000
;
#NOTES:
     dance-single:
     :
     Hard:
     12:
     :
0000
0000
0000
0000
,
0000
0000
0000
0000
,
0000
0000
0000
0000
,
0000
0000
0000
0000
,
1000
0000
0100
0001
0100
0010
0100
1000
,
0001
0000
1000
0010
0000
1000
0100
0000
,
1000
0000
0000
0001
0000
0000
0010
0000
0001
0000
0000
0000
1001
0000
0000
0000
,
0001
0000
0000
1000
0000
0000
0010
0000
1000
0000
0000
0000
0001
0000
0000
0000
,
1000
0000
0000
0001
0200
0000
0000
0000
,
0001
0010
1000
0300
,
1000
0100
0010
0000
0001
0000
0010
0000
,
1000
0001
0100
0000
0001
0010
0100
0000
,
1000
0000
0001
0010
0000
0001
0100
0001
,
0010
0001
0010
1000
0000
0010
0001
0100
,
0000
0000
0010
1000
0100
0010
0100
1000
,
0001
1000
0010
0001
0000
0010
0100
0001
,
1000
0001
0100
0010
0000
0000
0001
0010
,
1000
0010
0000
0000
1000
0100
0000
1000
,
0000
0001
0010
0001
0100
0001
0010
0001
,
0100
1000
0000
0202
0000
0000
0303
0000
,
0001
0000
1000
0100
1000
0010
0000
1000
,
0001
0010
0001
0100
0001
1000
0001
0000
,
0010
0000
0001
0010
0000
1000
0000
0010
,
0001
0000
0010
0000
0001
0010
0100
0010
,
0001
0100
0001
1000
0100
1000
0000
0001
,
1000
0010
1000
0100
1000
0001
1000
0100
,
0000
1000
0100
0000
0001
0100
0000
0010
,
0000
0001
0000
1000
0000
0001
0010
0001
,
1000
0000
0001
0100
0001
0010
0000
0001
,
1000
0010
1000
0100
1000
0001
1000
0000
,
0010
0000
1000
0010
0000
0001
0000
0010
,
1000
0000
0010
0000
1000
0010
0100
0010
,
1000
0100
1000
0001
0100
0001
0000
1000
,
0001
0010
0001
0100
0001
1000
0001
0100
,
0001
0000
1000
1100
0000
0000
1000
0000
,
0001
0101
0000
0000
0001
0000
1000
0000
,
0001
0000
1000
0001
0010
0000
0001
0000
,
1000
0000
0001
1000
0010
0000
1000
0000
,
0001
0000
0000
0010
0000
0000
0100
0000
1000
0000
0000
0010
0000
0000
0100
0000
,
0001
0000
0000
1000
0000
0000
0010
0000
0001
0000
0000
0000
0010
0000
0000
0000
,
0100
0001
0010
0000
0001
0000
0100
0000
,
0001
1000
0100
1000
0010
0100
0010
0001
,
0010
0000
0100
0010
0000
0000
1010
0000
,
1000
0000
0001
0100
0000
0000
0110
0000
,
0011
0000
0000
1100
0000
0000
0001
0000
,
1001
0000
1000
0100
0010
0001
0100
0010
,
1000
0000
0001
0010
0001
0000
1000
0010
,
0001
0000
0010
0100
0000
0001
0010
0001
,
0100
0000
0001
0100
0001
0000
1000
0010
,
0001
0000
0010
0100
0010
1000
0001
0000
,
1000
0000
0000
0010
0000
0000
0001
0000
0010
0000
0000
0000
1000
0000
0000
0000
,
0100
0000
0000
0001
0000
0000
0100
0000
0010
0000
0000
0000
1000
0000
0010
0000
,
0001
0000
1000
0100
1000
0001
0100
0001
,
0000
0101
1100
1001
,
0001
0000
1000
0010
1000
0000
0001
0010
,
1000
0000
0010
0100
0000
1000
0010
1000
,
0100
0000
1000
0100
1000
0000
0001
0010
,
1000
0000
0010
0100
0010
0001
1000
0000
,
0001
0000
0000
0010
0000
0000
1000
0000
0010
0000
0000
0000
0001
0000
0000
0000
,
0100
0000
0000
1000
0000
0000
0100
0000
0010
0000
0000
0000
0001
0000
0010
0000
,
1000
0100
0010
0100
1000
0001
0100
0001
,
1000
0001
0010
0001
1000
0100
1000
0000
,
0100
0010
1000
0010
0001
0000
0010
0000
,
0001
0001
0001
0000
1000
0100
1000
0000
,
0001
0000
1000
0010
0000
1000
0100
1000
,
0010
1000
0010
0001
0000
0010
1000
0100
,
0000
0000
0010
0001
0100
0010
0100
0001
,
1000
0001
0010
1000
0000
0010
0100
1000
,
0001
1000
0100
0010
0000
0000
1000
0010
,
0001
0010
0000
0000
0001
0100
0000
0001
,
0000
1000
0010
1000
0100
1000
0010
1000
,
0100
0001
0000
0220
0000
0000
0330
0000
,
0011
0000
0000
0110
0000
0000
1000
0200
,
0000
0000
0000
0000
,
0000
0000
0000
0300
,
0000
0000
0000
0000
;
#NOTES:
     dance-double:
     :
     Easy:
     6:
     :
00000000
00000000
00000000
00000000
,
00000000
00000000
00000000
00000000
,
00000000
00000000
00000000
00000000
,
00000000
00000000
00000000
00000000
,
00001000
00000000
00000000
00000000
,
00010000
00000000
00000000
00000000
,
10000000
00100000
00010000
00000000
,
00001000
00000010
00000001
00000000
,
00000001
00001000
00000200
00000000
,
00001000
00000000
00010000
00000300
,
00001000
00010000
00001000
00010000
,
00011000
00011000
00000000
00000000
,
00001000
00100000
00010000
00100000
,
10000000
00100000
00001000
00000000
,
00010000
00000010
00001000
00000010
,
00000001
00000010
00010000
00000000
,
00001000
00010000
00000000
00001000
,
00010000
00000000
00100000
00000000
,
00100000
10000000
01000000
10000000
,
00010000
10000000
01000000
00000000
,
00010000
00001000
00001000
00000100
,
00000001
00000000
00000000
00000000
,
00000100
00000000
00001000
00000000
,
00010000
00000000
00100000
00000000
,
10000000
01000000
00010000
00000000
,
00001000
00000010
00001000
00000000
,
00010000
00000000
00001000
00000000
,
00010000
00001000
00010000
00000000
,
00001000
00010000
00010000
01000000
,
10000000
00000000
00000000
00000000
,
01000000
00000000
00010000
00000000
,
00001000
00000000
00000010
00000000
,
00000001
00000001
00001000
00000000
,
00001000
00001000
00000001
00000000
,
00000100
00000000
00001000
00000000
,
00010000
00001000
00010000
00001000
,
00010000
00000000
00100000
00000000
,
00010000
00000000
00000100
00000000
,
00010000
00000000
00001000
00000000
,
00010000
00000000
00100000
10000000
,
01000000
00100000
01000000
00000000
,
00010000
00001000
00010000
00000000
,
00000010
00000001
00000010
00000000
,
00010000
00001000
00010000
00000000
,
00001000
00010000
00100000
10000000
,
10010000
00000000
00000000
00000000
,
00010000
01000000
10000000
01000000
,
00100000
00010000
00001000
00000000
,
00010000
00001000
00000100
00000010
,
00000001
00000010
00001000
00000000
,
00000001
00000000
00001000
00000000
,
00010000
00000000
10000000
00000000
,
00010000
01000000
10000000
01000000
,
00010000
10000000
01000000
00010000
,
00001000
00000010
00000001
00000000
,
00000100
00001000
00010000
00000000
,
00001000
00010000
00100000
01000000
,
10000000
01000000
00010000
00000000
,
10000000
00000000
00010000
00000000
,
00001000
00000000
00000001
00000000
,
00000001
00000001
00000100
00000100
,
00001000
00001000
00010000
00010000
,
00001000
00010000
00001000
00000100
,
00001000
00010000
00000000
00000000
,
00001000
00100000
00010000
00100000
,
10000000
00100000
00001000
00010000
,
00010000
00000010
00001000
00000010
,
00000001
00000010
00010000
00001000
,
00010000
00010000
00000000
00001000
,
00001000
00000000
00010000
00000000
,
00100000
10000000
01000000
10000000
,
00010000
10000000
01000000
00000000
,
00010000
00001000
00000010
00000001
,
00000220
00000000
00000000
00000000
,
00000000
00000000
00000000
00000000
00000000
00000000
00000000
00000000
00000000
00000000
00000000
00000000
00000000
00000000
00000000
00000000
00000000
00000000
00000000
00000000
00000000
00000000
00000000
00000000
00000000
00000000
00000000
00000000
00000000
00000000
00000000
00000000
00000000
00000000
00000000
00000000
00000000
00000000
00000000
00000000
00000000
00000000
00000000
00000000
00000000
00000000
00000000
00000000
00000000
00000000
00000000
00000000
00000000
00000000
00000000
00000000
00000000
00000000
00000000
00000000
00000000
00000000
00000000
00000000
00000000
00000000
00000000
00000000
00000000
00000000
00000000
00000000
00000000
00000000
00000000
00000000
00000000
00000000
00000000
00000000
00000000
00000000
00000000
00000000
00000000
00000000
00000000
00000000
00000000
00000000
00000000
00000000
00000000
00000000
00000000
00000000
00000000
00000000
00000000
00000000
00000000
00000000
00000000
00000000
00000000
00000000
00000000
00000000
00000000
00000000
00000000
00000000
00000000
00000000
00000000
00000000
00000000
00000000
00000000
00000000
00000000
00000000
00000000
00000000
00000000
00000000
00000000
00000000
00000000
00000000
00000000
00000000
00000000
00000000
00000000
00000000
00000000
00000000
00000000
00000000
00000000
00000000
00000000
00000330
00000000
00000000
00000000
00000000
00000000
00000000
00000000
00000000
00000000
00000000
00000000
00000000
00000000
00000000
00000000
00000000
00000000
00000000
00000000
00000000
00000000
00000000
00000000
00000000
00000000
00000000
00000000
00000000
00000000
00000000
00000000
00000000
00000000
00000000
00000000
00000000
00000000
00000000
00000000
00000000
00000000
00000000
00000000
00000000
00000000
00000000
00000000
00000000
,
00000000
00000000
00000000
00000000
;
#NOTES:
     dance-double:
     :
     Medium:
     10:
     :
00000000
00000000
00000000
00000000
,
00000000
00000000
00000000
00000000
,
00000000
00000000
00000000
00000000
,
00000000
00000000
00000000
00000000
,
00000001
00000100
00001000
00000100
,
00000001
00000100
00001000
00000000
00010000
00000000
00100000
00000000
,
10000000
00010000
00100000
00000000
00010000
00000000
00000000
00000000
,
00010000
10000000
00100000
00000000
01000000
00000000
00000000
00000000
,
00010000
00100000
00001000
00000000
,
00010000
00000000
00000100
00000000
,
00001000
00000001
00000010
00000000
00000001
00000000
00001000
00000000
,
00000001
00000010
00000001
00000000
00000000
00000000
00000000
00000000
,
00000001
00000000
00000100
00000000
00001000
00010000
00100000
00000000
,
01000000
00010000
00100000
00000000
00010000
00000000
01000000
00000000
,
00010000
00000000
10000000
00000000
10000000
00010000
01000000
00000000
,
00001000
00010000
00001000
00000000
00000100
00000000
00000001
00000000
,
00000001
00000100
00000001
00000100
00000000
00000000
00001000
00010000
,
00001000
00010000
00000000
00000000
00001000
00010000
00000000
00001000
,
00000000
00010000
00100000
00010000
00100000
00010000
00100000
00000000
,
10000000
01000000
00000000
20000000
00000000
00000000
31000000
00000000
,
00010000
00000000
00001000
00000000
00010000
00100000
01000000
00000000
,
10000000
01000000
00100000
00010000
,
00001000
00000000
00000100
00000000
00000010
00000001
00000010
00000000
,
00001000
00000010
00000001
00000010
,
00001000
00000100
00001000
00000000
00000010
00001000
00000100
00000000
,
00010000
00001000
00100000
00000000
00010000
00000000
01000000
00000000
,
00000000
00010000
01000000
00000000
00010000
10000000
00000000
00100000
,
00000000
10000000
00000000
01000000
00000000
00010000
00001000
00000000
,
00011000
00000000
00010000
00000000
00001000
00000010
00000100
00000000
,
00000001
00000100
00000010
00001000
,
00010000
00000000
01000000
00000000
00100000
10000000
00100000
00000000
,
00010000
00100000
10000000
00100000
,
00010000
01000000
00010000
00000000
00100000
00010000
01000000
00000000
,
00001000
00010000
00000010
00000000
00001000
00000000
00000100
00000000
,
00010000
00000000
00001000
00010000
00000000
00000000
00100000
00000000
,
00010000
00001000
00000000
00000000
00010000
00000000
00001000
00000000
,
00010000
00000000
00000000
00001000
00100000
00000000
00000000
00000000
,
00010000
00000000
00000000
01000000
00100000
00000000
00000000
00000000
,
10000000
00000000
00000000
00010000
00000000
00000000
10000000
00000000
00010000
00000000
00000000
00000000
00000000
00000000
00000000
00000000
,
00100000
00000000
00000000
00001000
00000000
00000000
00100000
00000000
00001000
00000000
00000000
00000000
00010000
00000000
00000000
00000000
,
00001000
00000010
00000001
00000100
,
00000002
00000100
00000100
00000103
,
00000001
00000000
00000100
00001000
00000000
00000000
00010000
00000000
,
00001000
00000000
00010000
00100000
00000000
00000000
10000000
00000000
,
00010000
00000000
00000000
10000000
00000000
00000000
00010000
00000000
,
10010000
01100000
01010000
00011000
,
00001000
00000000
00000100
00000000
00000001
00000000
00001000
00000010
,
00001000
00000001
00000100
00000010
,
00000100
00000000
00001000
00010000
00100000
00000000
10000000
01000000
,
10000000
00010000
10000000
01000000
,
00010000
00000000
00000000
00001000
00000000
00000000
00010000
00000000
00001000
00000000
00000000
00000000
00000000
00000000
00000000
00000000
,
00000010
00000000
00000000
00000100
00000000
00000000
00000010
00000000
00000100
00000000
00000000
00000000
00000000
00000000
00000000
00000000
,
00000001
00000100
00000010
00001000
,
00010000
00001000
00000100
00001000
,
00001000
00000000
00000100
00000000
00000001
00000000
00001000
00000010
,
00001000
00000001
00000100
00000010
,
00000100
00000000
00001000
00010000
00100000
00000000
10000000
01000000
,
10000000
00010000
10000000
01000000
,
00010000
00000000
00000000
00001000
00000000
00000000
00010000
00000000
00001000
00000000
00000000
00000000
00000000
00000000
00000000
00000000
,
00000010
00000000
00000000
00000100
00000000
00000000
00000010
00000000
00000100
00000000
00000000
00000000
00001000
00000000
00000000
00000000
,
00000001
00000100
00000001
00000100
,
00001000
00010000
00100000
00010000
,
00001000
00010000
00100000
00000000
00010000
00000000
00001000
00000000
,
00010000
01000000
10000000
00000000
00000000
00000000
00000000
00000000
,
10000000
00000000
01000000
00000000
00010000
00001000
00000010
00000000
,
00000100
00001000
00000010
00000000
00001000
00000000
00000100
00000000
,
00001000
00000000
00000001
00000000
00000001
00001000
00000100
00000000
,
00010000
00001000
00010000
00000000
01000000
00000000
10000000
00000000
,
10000000
01000000
10000000
01000000
00000000
00000000
00010000
00001000
,
00010000
00001000
00000000
00000000
00010000
00000010
00000000
00010000
,
00000000
00001000
00000010
00000001
00000010
00000001
00000010
00000000
,
00000001
00000100
00000000
00000002
00000000
00000000
00000103
00000000
,
00000010
00000000
00000000
00010000
00000000
00000000
00001000
00020000
,
00000000
00000000
00000000
00000000
,
00000000
00000000
00000000
00030000
,
00000000
00000000
00000000
00000000
;
#NOTES:
     dance-double:
     :
     Hard:
     12:
     :
00000000
00000000
00000000
00000000
,
00000000
00000000
00000000
00000000
,
00000000
00000000
00000000
00000000
,
00000000
00000000
00000000
00000000
,
00001000
00000000
00000100
00010000
00000100
00001000
00000100
00010000
,
00000100
00000000
00001000
00000010
00000000
00001000
00000100
00000000
,
00001000
00000000
00000000
00000001
00000000
00000000
00000010
00000000
00000001
00000000
00000000
00000000
00000100
00000000
00000000
00000000
,
00001000
00000000
00000000
00010000
00000000
00000000
00100000
00000000
01000000
00000000
00000000
00000000
00010000
00000000
00000000
00000000
,
10000000
00000000
00000000
00010000
02000000
00000000
00000000
00000000
,
00010000
00100000
10000000
03000000
,
10000000
01000000
00100000
00000000
00010000
00000000
00001000
00000000
,
00000100
00000010
00001000
00000000
00000001
00000010
00000100
00000000
,
00001000
00000000
00000001
00000010
00000000
00000001
00000100
00000001
,
00000010
00000001
00000010
00001000
00000000
00010000
00001000
01000000
,
00000000
00000000
00100000
10000000
01000000
00100000
01000000
10000000
,
00010000
01000000
00001000
00010000
00000000
00100000
01000000
00010000
,
01000000
00100000
00010000
00001000
00000000
00000000
00000010
00001000
,
00010000
00001000
00000000
00000000
00010000
00000100
00000000
00001000
,
00000000
00000100
00000010
00000001
00000100
00000001
00000010
00000001
,
00000100
00001000
00000000
00022000
00000000
00000000
00033000
00000000
,
00010000
00000000
00100000
01000000
10000000
01000000
00010000
00000000
,
00010000
00100000
00001000
01000000
00010000
10000000
00010000
00000000
,
00100000
00000000
00010000
00100000
00000000
10000000
00000000
00100000
,
00001000
00000000
00010000
00000000
00001000
00000010
00000100
00000010
,
00000001
00000100
00000001
00001000
00000100
00001000
00000000
00000100
,
00010000
00000010
00001000
00000100
00001000
00000010
00000100
00001000
,
00000000
00010000
00100000
00000000
10000000
01000000
00000000
00100000
,
00000000
00010000
00000000
01000000
00000000
00100000
00010000
00000000
,
00000100
00000000
00000010
00000100
00000001
00000100
00001000
00000000
,
00001000
00000010
00010000
00000100
00001000
00000001
00001000
00000000
,
00000010
00000000
00001000
00000010
00000000
00000001
00000000
00000010
,
00010000
00000000
00001000
00000000
00010000
00100000
01000000
00100000
,
10000000
01000000
10000000
00010000
01000000
00010000
00000000
01000000
,
00001000
00100000
00010000
01000000
00010000
00100000
01000000
00000000
,
00010000
00000000
00001000
00000100
00000000
00000000
00000010
00000000
,
00010000
00001000
00000000
00000000
00010000
00000000
00000100
00000000
,
00000010
00000000
00000001
00001000
00000010
00000000
00001000
00000000
,
00000001
00000000
00000010
00001000
00010000
00000000
00001000
00000000
,
00010000
00000000
00000000
00100000
00000000
00000000
01000000
00000000
10000000
00000000
00000000
01000000
00000000
00000000
00100000
00000000
,
10000000
00000000
00000000
01000000
00000000
00000000
00100000
00000000
00010000
00000000
00000000
00000000
00100000
00000000
00000000
00000000
,
00001000
00010000
00001000
00000000
00001000
00000000
00000100
00000000
,
00000001
00001000
00000100
00001000
00000010
00000100
00000010
00000001
,
00000010
00000000
00000100
00001000
00000000
00000000
00011000
00000000
,
00100000
00000000
00010000
01000000
00000000
00000000
00100000
00000000
,
10100000
00000000
00000000
01100000
00000000
00000000
00011000
00000000
,
00000110
00000001
00001000
00000001
,
00001000
00000000
00000001
00000010
00000001
00000000
00001000
00000010
,
00000001
00000000
00000010
00000100
00000000
00000001
00000010
00000001
,
00000100
00000000
00001000
00010000
00100000
00000000
01000000
00100000
,
00010000
00000000
00100000
01000000
00100000
10000000
00010000
00000000
,
10000000
00000000
00000000
00100000
00000000
00000000
00010000
00000000
00001000
00000000
00000000
00000000
00010000
00000000
00000000
00000000
,
00000100
00000000
00000000
00001000
00000000
00000000
00000100
00000000
00010000
00000000
00000000
00000000
00001000
00000000
00000010
00000000
,
00000001
00000000
00001000
00000100
00010000
00001000
00100000
00001000
,
00000000
00110000
01100000
10010000
,
00010000
00000000
10000000
00100000
10000000
00000000
00010000
00100000
,
10000000
00000000
00100000
01000000
00000000
10000000
00100000
10000000
,
01000000
00000000
00010000
00001000
00000010
00000000
00000100
00000010
,
00001000
00000000
00000010
00000100
00000010
00000001
00001000
00000000
,
00000001
00000000
00000000
00000010
00000000
00000000
00001000
00000000
00010000
00000000
00000000
00000000
00001000
00000000
00000000
00000000
,
01000000
00000000
00000000
00010000
00000000
00000000
01000000
00000000
00001000
00000000
00000000
00000000
00010000
00000000
00000000
00000000
,
00001000
00000100
00000010
00000100
00000010
00010000
00000100
00001000
,
00000100
00010000
00000010
00001000
00000001
00000100
00000001
00000000
,
00000001
00000100
00001000
00010000
00100000
00000000
10000000
00000000
,
00010000
00010000
00010000
00000000
10000000
01000000
10000000
00000000
,
00010000
00000000
10000000
00100000
00000000
10000000
01000000
10000000
,
00100000
10000000
00100000
00010000
00000000
00001000
00010000
00000100
,
00000000
00000000
00000010
00000001
00000100
00000010
00000100
00000001
,
00001000
00000100
00010000
00001000
00000000
00000010
00000100
00001000
,
00000100
00000010
00001000
00010000
00000000
00000000
00100000
00010000
,
00001000
00010000
00000000
00000000
00001000
01000000
00000000
00010000
,
00000000
01000000
00100000
10000000
01000000
10000000
00100000
10000000
,
01000000
00010000
00000000
00022000
00000000
00000000
00033000
00000000
,
00001010
00000000
00000000
00000110
00000000
00000000
00000001
00000200
,
00000000
00000000
00000000
00000000
,
00000000
00000000
00000000
00000300
,
00000000
00000000
00000000
00000000
;
