
//----- song ID: ddrm -----//
#TITLE:DDR MEGAMIX;
#ARTIST:DDR;
#BANNER:DDR MEGAMIX.png;
#BACKGROUND:DDR MEGAMIX-bg.png;
#CDTITLE:./CDTitles/pop'n music 10.png;
#MUSIC:DDR MEGAMIX.ogg;
#SAMPLESTART:2;
#SAMPLELENGTH:15;
#DISPLAYBPM:65:333;
#BPMS:0=120.1,4=150,44=155.1,79=171,80=206,81=200,113=202,115=180,143=150.8,151=65.5,152=65,167=139,169=153,170=155,202=160.23,238=150,274=155.02,283.500=155,284=83,292=332;
#STOPS:283.5=0.774;
#NOTES:
     dance-single:
     :
     Beginner:
     6:
     :
0000
0000
0000
0000
,
0000
0000
0000
0000
,
0000
0000
0000
0000
,
0001
0000
0001
0000
,
0100
0000
0100
0000
,
0010
0000
0010
0000
,
1000
0000
1000
0000
,
0100
0000
0010
0000
,
0001
0000
1000
0000
,
0100
0000
0010
0000
,
0100
0000
1001
0000
,
1000
0000
0000
0000
,
0001
0000
1000
0000
,
0110
0000
0000
0000
,
0010
0000
0100
0000
,
1001
0000
0000
0000
,
0010
0000
0010
0000
,
0110
0000
0000
0000
,
0001
0000
1000
0000
,
0010
0000
0100
0000
,
1001
0000
0000
1000
,
0000
0100
0000
0001
,
0000
1001
0000
0001
,
0000
0001
0000
1000
,
0000
1001
0000
1000
,
0000
1000
0000
0001
,
0000
0110
0000
0001
,
0000
0100
0000
1000
,
0000
0110
0000
0001
,
0000
0001
0000
1000
,
0000
1000
0000
0001
,
0001
0001
0000
1000
,
1000
1000
0000
0010
,
0010
0010
0000
0100
,
0100
0100
0000
0001
,
0000
1000
0000
1001
,
0000
0000
0000
0000
,
0000
0000
0000
0001
,
0000
1000
0000
0010
,
0000
0010
0000
0010
,
0000
1000
0000
1000
,
0000
0100
0000
0000
,
0000
0000
1001
0000
,
1001
0000
0100
0000
,
0100
0000
0110
0000
,
0110
0000
0001
0000
,
0001
0000
1000
0000
,
0000
0000
0001
0000
,
0000
0000
0010
0000
,
0100
0000
0001
0000
,
1000
0000
0001
0000
,
0000
0000
1000
0000
,
1000
0000
0001
0000
,
0001
0000
1000
0000
,
1000
0000
0001
0000
,
0001
0000
0100
0000
,
0010
0000
0100
0000
,
0010
0000
0010
0000
,
0000
0000
0010
0000
,
0000
0000
0000
0000
,
0100
0100
0000
0100
,
0000
0100
0000
0100
,
0000
0001
0000
1000
,
0000
0100
0000
0001
,
0000
0100
0100
0000
,
0000
0100
0000
0100
,
0000
0001
0000
0100
,
0000
0001
0000
1001
,
0000
0110
0000
0001
,
0001
0001
0000
1000
,
1000
1000
0000
0001
,
0100
0000
0010
0000
,
1000
0000
0001
0000
,
1000
1000
0000
0000
,
0000
0000
0100
0000
,
0100
0000
0100
0000
,
0000
0000
0001
0000
,
0001
0000
0001
0000
,
0000
0000
0010
0000
,
0010
0000
0010
0000
,
0000
0000
1000
0000
,
0001
0000
0100
0000
,
0001
0000
0100
0000
,
0001
0000
0100
0000
,
0001
0000
1000
0000
,
1000
0000
0100
0000
,
1000
0000
0100
0000
,
1000
0000
0100
0000
,
1000
0000
0001
0000
,
0010
0000
0100
0000
,
0010
0000
0100
0000
,
0010
0000
0100
0000
,
0010
0000
1000
0000
,
0100
0000
0010
0000
,
0100
0000
0010
0000
,
0100
0000
0010
0000
,
0100
0000
0001
0000
,
0100
0000
0000
0000
,
1001
0000
0000
0000
,
0110
0000
0000
0000
,
1001
0000
0000
0000
,
0110
0000
0000
0000
,
1001
0000
0000
0000
,
0110
0000
0000
0000
,
0110
0000
0000
0000
,
1001
0000
0000
0000
,
0000
0000
0000
0000
;
#NOTES:
     dance-single:
     :
     Easy:
     8:
     :
0000
0000
0000
0000
,
0000
0000
0000
0000
,
0000
0000
0000
0000
,
0001
1000
0001
1000
,
0100
0010
0100
0010
,
0001
0000
0100
0000
,
1000
0000
0100
0000
,
0100
0000
0010
0010
,
0001
0000
1000
0010
,
1000
0000
0001
0010
,
1000
0001
1000
0000
,
1000
0000
1000
0010
,
0100
0001
1000
0010
,
0100
0000
0100
0001
,
1000
1000
1000
1000
,
0001
0000
1000
0010
,
0100
0100
0100
0010
,
1000
0000
1000
0001
,
0100
0010
1000
0001
,
0100
0100
0000
0100
0100
0100
0100
0000
,
0100
0000
0000
1000
,
0100
1000
1100
0001
,
1000
1001
0000
0001
,
0100
0001
0101
1000
,
0001
1001
0000
1000
,
0100
1000
1100
0001
,
1000
1001
0000
0001
,
0100
0001
0101
1000
,
0001
1001
0000
1000
,
1000
0100
0100
0010
,
0010
0001
0001
0001
,
0100
1000
0100
0001
,
0001
0001
0001
1000
,
1000
1000
1000
0001
,
0000
0001
0001
0001
,
1000
0100
0001
1000
,
0000
0000
0000
0000
,
0000
0000
0000
0000
0000
0000
0001
0001
,
0100
0000
1000
1000
0100
0000
0010
0000
,
0001
1000
0010
1000
0001
0100
0010
0100
,
0001
0000
1000
0010
0100
0001
1000
0100
,
0010
0001
0100
0010
1000
0001
2000
0000
,
0000
3001
1000
1000
,
0000
0100
0000
0001
,
0000
0100
0000
0010
,
0000
1001
0000
1001
,
0000
0100
0000
0001
,
0000
0100
0000
1000
,
0000
0100
0000
1000
,
0000
0001
0000
0100
,
0000
1001
0001
0000
,
0000
0000
1000
0100
,
1000
1001
0001
0100
,
0001
1001
1000
0100
,
1000
0010
0001
0100
,
0001
0010
0100
1001
,
0010
1000
0100
1001
,
0010
0001
0010
1000
,
0100
0010
0100
0001
,
0010
0100
0010
0000
,
0100
0100
1001
0100
,
1001
0100
1000
0100
,
0010
0001
1000
1000
,
0100
0100
0010
0001
,
1000
0100
0001
0000
,
0000
1000
0100
0100
,
0010
0001
1000
0100
,
0010
0001
0000
1001
,
0000
0110
0000
0000
,
0001
0110
0001
0001
,
1000
1000
0010
1000
,
0100
0010
1000
0001
,
0010
0100
0001
1000
,
0100
0000
0010
0000
,
0100
0000
0010
0000
,
0100
0000
0001
0000
,
1000
0000
0010
0000
,
0100
0000
0010
0000
,
0100
0000
0010
0000
,
0100
0000
1000
0000
,
0001
0000
0010
0000
,
0100
1000
0100
0000
,
0010
0000
0001
0000
,
0010
0001
0010
0000
,
0100
0000
1000
0000
,
0001
0100
0001
0000
,
1000
0000
0010
0000
,
1000
0100
1000
0000
,
0001
0000
0010
0000
,
0010
1000
0010
0000
,
0100
0000
0001
0000
,
0100
0001
0100
0000
,
0010
0000
1000
0000
,
0001
0010
0001
0000
,
1000
0000
0100
0000
,
1000
0010
1000
0000
,
0001
0000
0100
0000
,
1000
0000
0000
0001
0000
0000
1000
0000
,
0100
0000
0100
0000
,
0001
0000
0000
0001
0000
0000
0001
0000
,
1000
0000
0000
1000
0000
0000
1000
0000
,
0100
0000
0000
0100
0000
0000
0100
0000
,
0010
0000
0000
0010
0000
0000
0010
0000
,
0100
0000
0000
0010
0000
0000
1000
0000
,
0001
0000
0000
0100
0000
0000
0010
0000
,
2002
0000
0000
0000
,
0000
0000
0000
0000
,
0000
0000
0000
0000
,
0000
0000
0000
0000
,
0000
0000
0000
0000
,
0000
0000
0000
0000
,
3003
0000
0000
0000
,
0000
0000
0000
0000
;
#NOTES:
     dance-single:
     :
     Medium:
     13:
     :
0000
0000
0000
0000
,
0000
0000
0000
0000
,
0000
0000
0000
0000
,
1000
0001
0010
0100
,
0001
0100
1000
0100
,
0010
0100
0001
1000
,
0010
0000
0100
0000
0001
1000
0001
0000
,
0010
0010
0100
0100
,
1000
1000
0001
0100
,
0001
0001
1000
0100
,
0001
1000
0001
0101
,
0010
0000
0100
0001
,
1000
0000
0010
0000
0100
0000
0010
0010
,
1000
1000
0001
0100
,
0001
0000
1000
1000
0010
0000
0100
0100
,
0001
0000
1000
0010
,
0100
0000
0001
0000
1000
0000
0001
0001
,
0100
0000
0100
0000
0010
0000
1000
0001
,
0100
0000
0100
0010
1000
1000
0000
0000
,
0001
1000
0000
0001
1000
0001
1000
0000
,
0010
0000
0000
0000
0000
0000
1000
0001
,
0000
0100
0001
1100
,
0101
0000
1001
0000
0000
0000
0001
1000
,
0000
0100
1000
0101
,
1100
0000
1001
0000
0000
0000
1000
0001
,
0000
0100
0001
1100
,
0101
0000
1001
0000
0000
0000
0001
1000
,
0000
0100
1000
0101
,
1100
1001
0000
1000
,
0001
1000
0001
1000
,
0001
0000
0000
1000
0000
0000
0001
0000
0000
0001
0000
0100
,
0010
0000
0000
1000
0000
0100
0010
0000
0000
0001
0000
0000
,
1001
0001
0011
1000
,
1010
1000
1001
0010
,
0000
1001
0100
0011
,
0100
0010
1000
0002
,
0000
0000
0000
0000
,
0000
0000
0000
0000
0003
0000
0010
1000
,
0001
0000
1000
0100
0000
0000
0001
0000
0000
1000
0000
0000
0001
0000
0000
0110
0000
0000
0010
0000
0000
0000
0000
0001
,
1000
0000
0001
0100
0000
0000
1000
0000
0010
0100
0000
0000
0001
0000
0000
0110
0000
0000
0001
0000
0000
1000
0000
0000
,
0100
0000
0000
0000
0000
0000
1000
0000
0000
0001
0000
0000
0100
0000
0000
1010
0000
0000
1000
0000
0100
0010
0000
0000
,
0001
0000
0100
0010
0000
0000
0010
0000
0001
0100
0000
0000
1000
0000
0000
0101
0000
0000
0020
0000
0000
0000
0000
0000
,
0000
0130
1000
1000
,
0100
0001
0010
1001
,
0010
1000
0100
0000
0001
0000
0100
0000
,
0100
1000
0010
1001
,
0010
0001
0100
0000
0010
0000
1000
0000
,
1000
0001
0100
1000
,
0100
0001
0100
1000
,
0100
1000
0010
0000
1001
0000
1001
0000
,
0010
1000
0100
0000
1000
0001
0100
0000
,
0010
1000
1100
0001
,
0010
0100
1000
0000
0101
0000
1000
0000
,
0010
0100
0001
0000
0001
0100
1000
0000
,
1000
0100
0001
0000
0010
0000
0010
0000
,
1100
1001
0010
0001
,
0100
1000
0010
1000
,
0100
0001
0010
1100
,
0001
1000
0010
1100
,
0001
1000
1001
0000
,
0000
0000
1100
1100
,
0101
0000
0101
0000
0001
0100
0001
0000
,
1000
0100
1000
0000
1010
0000
1010
0000
,
0001
0100
1000
0010
,
0100
0100
0100
0000
0001
0000
0100
0000
,
0010
0000
1000
0000
1000
0100
1000
0000
,
0001
0010
0001
0000
0100
0000
1000
0000
,
0100
1000
0001
0010
,
0100
0000
1000
0000
0000
1000
0100
0010
,
0000
1001
0000
0000
1000
1000
0000
0001
,
0010
0001
0000
1000
0001
1000
0001
1000
,
0100
0000
0000
0000
0010
0000
0000
1000
1000
0000
0000
0000
0001
0000
0000
0000
,
0100
0000
0000
0000
0010
0000
0000
0001
0001
0000
1000
0000
1000
0000
0100
0000
,
0010
0001
0010
0001
,
0010
0001
1000
0001
,
1000
0100
1000
0100
,
1000
0100
1000
0001
,
0010
0100
0010
0100
,
0010
0100
1000
0100
,
0010
0100
0010
0100
,
0010
0100
0001
0100
,
1000
0100
0010
0001
,
0010
0000
0100
0000
1000
0001
1000
0000
,
0001
0010
0100
1000
,
0100
0000
0010
0000
0001
1000
0001
0000
,
1000
0010
0100
0001
,
0100
0000
0010
0000
1000
0001
1000
0000
,
0001
0100
0010
1000
,
0010
0000
0100
0000
0001
1000
0001
0000
,
1000
0100
1000
0001
,
0100
0000
0010
0000
1000
0001
1000
0000
,
0001
0100
0001
1000
,
0100
0000
0010
0000
0001
1000
0001
0000
,
1000
1000
0100
0100
,
0010
0010
0001
0001
,
1000
0100
0010
0001
,
1000
0100
0010
0001
,
0011
0000
0000
1001
0000
0000
1100
0000
,
0100
0000
0000
1001
0000
0000
0010
0000
,
1010
0000
0000
1001
0000
0000
0101
0000
,
0110
0000
0000
1010
0000
0000
1001
0000
,
1100
0000
0000
0110
0000
0000
0011
0000
,
1001
0000
0000
1010
0000
0000
0110
0000
,
0011
0000
0000
1001
0000
0000
0101
0000
,
1010
0000
0000
1001
0000
0000
1100
0000
,
0220
0000
0000
0000
,
0000
0000
0000
0000
,
0000
0000
0000
0000
,
0000
0000
0000
0000
,
0000
0000
0000
0000
,
0000
0000
0000
0000
,
0330
0000
0000
0000
,
0000
0000
0000
0000
;
#NOTES:
     dance-single:
     :
     Hard:
     15:
     :
0000
0000
0000
0000
,
0000
0000
0000
0000
,
0000
0000
0000
0000
,
0010
0100
1000
0100
,
0010
0100
0001
0100
,
0010
1000
0100
0000
0010
0001
0100
0000
,
0010
1000
0100
0010
0001
0100
0101
0000
,
1010
0000
0101
0000
0010
1000
0100
0000
,
1000
0001
0100
0000
0010
0001
0100
0000
,
0001
0100
1000
0000
1000
0100
0001
0000
,
1000
0010
0001
0010
0001
0010
0110
0000
,
0010
0000
0000
0000
0010
0000
0000
0000
0001
0000
0000
1000
0100
0000
0010
0000
,
0001
0000
1000
0000
0001
0000
0100
0010
,
1000
0000
0000
0000
1000
0000
0000
0000
0100
0000
0000
0010
1000
0000
0001
0000
,
0100
0010
1000
0001
0100
0010
1000
1000
,
0001
0000
0000
0000
0001
0000
0000
0000
0010
0000
0000
0100
0001
0000
1000
0000
,
0010
0000
0110
0000
0100
0000
0001
1000
,
0100
0000
0000
0000
0010
0000
0000
0000
1000
0000
0000
0010
0100
0000
0001
0000
,
1000
0010
0100
0001
1000
1000
0010
0100
,
0001
0001
0000
1000
0010
1000
0001
0000
,
1100
0000
0000
0000
0000
0000
0010
0001
,
0000
0100
0001
1000
0100
0000
0010
0001
,
1000
0000
1001
0000
0000
0000
0010
1000
,
0000
0100
1000
0001
0100
0000
0010
1000
,
0001
0000
1001
0000
0000
0000
0010
0001
,
0000
0100
0001
1000
0100
0000
0010
0001
,
1000
0000
1001
0000
0000
0000
0010
1000
,
0000
0100
1000
0001
0100
0000
0010
1000
,
0001
1001
0000
0001
,
1000
0000
0000
0001
0000
0000
1000
0000
0000
0001
0000
0001
,
1000
0000
1000
0001
0000
0001
1000
0000
0000
0010
0000
0100
,
0001
0000
0010
0100
0000
1000
0010
0000
0100
0001
0000
1000
,
0001
0000
1000
0001
0000
1000
0001
0000
1000
0010
0000
0100
,
0010
0000
0100
0010
0000
0100
0010
0000
0100
0001
0000
1000
,
0000
0000
0001
1000
0000
0001
1000
0000
0001
1000
0000
0001
,
0010
0000
0010
0100
0000
0100
1000
0000
1000
0002
0000
0000
,
0000
0000
0000
0000
,
0000
0000
0000
0000
0000
0000
0000
0000
0000
0000
0000
0000
0003
0000
0000
0000
0000
0000
1000
0001
0100
0001
0000
1000
,
0001
0000
0010
0001
0000
0100
0001
0000
0100
0010
0000
1000
0001
1000
0010
1000
0000
0100
1000
0000
0000
0000
0001
0100
,
0010
0000
1000
0001
0000
0100
0010
0000
0001
1000
0000
0100
0010
1000
0001
0010
0000
0100
1000
0001
0100
0010
0000
1000
,
0000
0001
0000
1000
0000
0001
0000
1000
0100
1000
0000
0001
0100
0000
0010
1000
0000
0100
0010
0000
0001
0010
0000
0100
,
1000
0001
1000
0010
0000
0100
0001
1000
0001
0010
0000
0100
0000
1000
0001
1000
0000
0000
0002
0000
0000
0000
0000
0000
,
0000
0000
1003
0000
0110
0000
1000
0001
,
0000
1000
0100
0100
0000
0110
0000
0011
,
0000
1100
0000
0000
1010
0000
0100
0001
,
0000
0010
0001
0010
0000
1100
0000
0011
,
0000
1100
0000
0000
0001
0000
1000
0100
,
0000
1000
0000
0010
0000
0001
0000
1000
,
0000
0001
0000
0010
0000
0001
0100
0000
,
0010
1000
0100
0000
0010
0001
0100
0000
,
0010
1000
0100
0000
0000
1000
0001
0000
,
0010
0010
1100
0011
,
1000
0000
0010
0100
0001
0000
1010
0000
,
0001
0000
0110
0001
1000
0000
0011
0000
,
1000
0000
0110
1000
0001
0000
0110
0000
,
0001
0010
0100
1000
1001
0000
0101
0000
,
1100
0001
0100
0000
1001
0000
1100
0000
,
0101
1000
0100
0000
1001
0000
0100
1000
,
0000
0000
1001
0000
0100
0001
1000
0100
,
0000
0010
0010
0001
0000
0100
0100
0000
,
0000
0000
0000
0000
0100
0010
1001
0000
,
0100
0010
1001
0000
1000
0010
1000
0000
,
0001
0100
0001
0000
1000
0100
0010
0001
,
1000
0100
1000
0001
0010
0001
0010
0001
,
1000
0100
0100
0000
1000
0100
0001
0000
,
1000
0100
0001
0000
1000
0100
0001
0100
,
1000
0100
0001
0000
0110
0000
0110
0000
,
1001
0110
0011
1001
,
1100
0000
1001
0000
0000
0001
1000
0100
,
0000
0000
0110
0000
0000
0000
0000
0000
0100
0010
0100
0000
0000
0000
0001
0000
,
1000
0000
0100
0000
0000
0000
0010
0000
0001
1000
0001
0000
0100
0000
0010
0000
,
0100
0000
0000
1000
0000
0000
0010
0000
0000
0000
0000
0000
0000
0000
0001
0000
1001
0000
0000
0000
0000
0000
0100
0000
0100
0000
0000
0001
0000
0000
0010
0000
,
0010
0000
0000
0001
0000
0000
0100
0000
0000
0000
0000
0000
0000
0000
1000
0000
1001
0000
0000
0000
0000
0000
0010
0000
0010
0000
0000
1000
0000
0000
0100
0000
,
0010
0001
0010
0001
,
1000
0000
0100
0000
1000
0100
1000
0000
,
0010
1000
0010
1000
,
0001
0000
0100
0000
0001
0100
0001
0000
,
1000
0000
0001
0000
0010
0100
1000
0000
,
0001
0000
1000
0000
0010
0100
0001
0000
,
0010
0000
0100
0000
1000
0001
1000
0000
,
0001
1000
0010
0000
0100
0001
1000
0000
,
0001
0000
1000
0100
1000
0000
1000
0100
,
1000
0000
0001
0100
0001
0000
0001
0100
,
0001
0000
1000
0001
1000
0000
1000
0100
,
1000
0000
0001
1000
0001
0000
0001
0100
,
0010
0000
0100
0001
0100
0000
0010
1000
,
0010
0000
0100
0001
0100
0000
0010
1000
,
0001
0000
0010
0001
0010
0000
0001
0100
,
0001
0000
1000
0010
1000
0000
0001
0100
,
0010
1000
0010
1000
0010
1000
0001
0000
,
0010
0001
0010
0001
0010
0001
1000
0000
,
0010
1000
0010
0100
0001
1000
0100
0000
,
0010
0001
0010
0100
1000
0001
0100
0000
,
0010
1000
0001
0010
0100
0000
1000
0100
,
0010
0001
1000
0010
0100
0000
0001
0100
,
0010
1000
0100
0010
0001
0100
0010
1000
,
0100
0010
0001
0100
0010
1000
0001
0100
,
0001
0000
0000
1010
0000
0000
1001
0000
,
0101
0000
0000
0010
1000
0000
1010
0000
,
1001
0000
0000
0100
0001
0000
0101
0000
,
1001
0000
0000
0010
0001
0000
0011
0000
,
1001
0000
0000
0100
1000
0000
1100
0000
,
1001
0000
0000
0010
1000
0000
1010
0000
,
0010
0100
0000
0001
0100
0000
1001
0000
,
0010
0001
0000
0001
0100
0000
0110
0000
,
2002
0000
0000
0000
,
0000
0000
0000
0000
,
0000
0000
0000
0000
,
0000
0000
0000
0000
,
0000
0000
0000
0000
,
0000
0000
0000
0000
,
3003
0000
0000
0000
,
0000
0000
0000
0000
;
#NOTES:
     dance-single:
     :
     Challenge:
     16:
     :
0000
0000
0000
0000
,
0000
0000
0000
0000
,
0000
0000
0000
0000
,
1001
0000
0001
0100
0000
0010
0000
1000
0000
0010
0000
0100
0010
0000
1000
0000
,
0001
1100
1000
0101
0001
1100
1000
0101
,
0001
1010
1000
0011
0001
1010
1000
0011
,
0001
1010
1000
0011
0001
1010
0110
0000
,
1001
0000
0001
0010
0000
0100
0000
1000
0000
0100
0000
0010
0001
0000
1000
0000
,
1001
0000
1000
0010
0000
0100
0000
0001
0000
0100
0000
0010
1000
0000
0001
0000
,
1001
0000
1000
0100
0000
0010
0000
0001
0000
0010
0000
0100
1000
0000
0001
0000
,
1000
1000
0001
1000
0220
0000
0330
0000
,
0010
1000
0000
0001
0000
0011
0000
1000
0000
1010
0000
0100
0010
0000
1000
0000
,
0001
0100
0010
1000
0000
0100
1000
0100
0010
0001
1000
0001
0100
0000
0010
0000
,
0100
0001
0000
1000
0000
1100
0000
0001
0000
0101
0000
0010
0100
0000
0000
0000
,
0001
0100
0010
1000
0001
0000
1000
0010
1000
0001
1000
0000
0001
0000
0001
0000
,
0010
0001
0000
1000
0000
1010
0000
0001
0000
0011
0000
0100
0010
0000
0001
0000
,
1000
0100
0010
0001
0000
0100
0001
0100
0010
1000
0001
1000
0100
0000
0010
0000
,
0100
1000
0000
0001
0000
0101
0000
1000
0000
1100
0000
0010
0100
0000
0000
0000
,
1000
0100
0010
0100
1000
0000
0001
0100
0010
0100
0001
0000
1000
0100
0010
0100
,
1000
0110
0000
0011
1001
1010
1001
0000
,
0110
0000
0000
0000
0000
0000
0001
0010
,
1000
0001
0100
1000
0001
0010
0110
1001
,
0110
0000
0202
0000
0303
0000
1000
0010
,
0001
1000
0100
0001
1000
0010
0110
1001
,
0110
0000
2200
0000
3300
0000
0001
0100
,
1000
0001
0010
1000
0001
0100
0110
1001
,
0110
0000
0022
0000
0033
0000
1000
0100
,
0001
1000
0010
0001
1000
0100
0110
1001
,
0110
0000
0000
2020
0000
0000
3030
0000
0000
0001
0000
0001
,
0100
0000
0100
1000
0000
1000
0100
0000
0100
0001
0000
0001
,
0010
0000
0010
1000
0000
1000
0010
0000
0010
0001
0000
1000
,
0010
0000
0001
0010
0000
1000
0010
0000
0001
0100
0000
1000
,
0100
0000
0001
0100
0000
1000
0100
0000
0001
1000
0000
1000
,
0100
0000
0100
0001
0000
0001
0100
0000
0100
1000
0000
1000
,
0010
0000
0010
0001
0000
0001
0010
0000
0010
1000
0000
0001
,
0010
0000
1000
0010
0000
0001
0010
0000
1000
0200
0000
0000
,
0000
0000
0000
0000
,
0000
0000
0000
0000
0000
0000
0000
0000
0000
0000
0000
0000
0300
0000
0000
0000
0000
0000
1000
0100
1000
0010
1000
0100
,
0010
0001
0100
0010
1000
0100
0010
1000
0010
0001
1000
0100
0010
0100
1000
0010
0100
0001
1000
0000
0000
0000
0100
1000
,
0010
0001
0010
0100
0001
0010
0001
1000
0010
1000
0001
0010
0100
1000
0001
1000
0000
0000
0001
0100
0010
0001
0010
1000
,
0100
0010
0100
0001
0100
1000
0001
0010
0001
0010
0100
0010
1000
0010
1000
0010
0001
1000
0010
1000
0010
0100
0001
0100
,
0001
0010
0001
1000
0100
1000
0010
0001
0010
1000
0001
0100
0010
1000
0001
1000
0000
0000
0200
0000
0000
0000
0000
0000
,
0000
0000
0310
0000
1000
0010
0100
0002
,
0000
1003
0100
0010
0000
0011
0000
1100
,
0000
0011
0001
0010
0001
0010
0100
2000
,
0000
3001
0100
0010
0000
1010
0000
0101
,
0001
1000
0100
1000
0001
0100
1000
0100
,
0000
0001
0000
0011
0000
1010
0000
1100
,
0000
0101
0000
0001
0000
0020
0100
0100
,
0100
0100
0130
1000
0000
0020
0100
0100
,
0100
0100
0100
0130
0001
1000
1001
0000
,
0000
0000
0000
0000
0010
0000
0000
0000
1000
0000
0001
0000
0100
0000
0001
1000
,
0001
0000
0100
0000
0010
0000
0000
0000
1000
0000
0001
0000
0010
0000
0001
1000
,
0001
0000
0010
0000
0100
0000
0000
0000
1000
0000
0100
0000
0010
0000
0001
0010
,
0001
0000
0010
0000
0100
0000
0000
0000
1000
0000
0010
0000
0100
0000
0001
0100
,
0001
0100
0010
0000
1010
0001
0010
0000
,
1100
0001
0100
0000
0011
1000
0010
0000
,
0101
1000
0100
0000
0001
0010
1000
0010
,
1000
0010
0001
0010
1000
0010
1000
0010
,
0001
0100
0010
1000
0001
1001
1001
0000
,
0000
0000
0000
0000
0001
1000
0110
0001
,
1000
0001
0110
0001
1000
0100
0010
0001
,
0000
0001
0010
0100
1000
0001
0100
0000
,
0010
1000
0100
0000
0010
0001
1000
0000
,
0010
0100
0010
0000
0002
0000
0023
0000
,
1030
0100
0001
0000
2000
0000
3020
0000
,
0031
0100
1000
0000
0001
0010
0100
0010
,
0100
0010
1000
0001
0100
0010
1000
0100
,
0010
0001
0100
0010
0110
1000
1000
0001
,
0000
0000
0022
0000
0000
0000
0033
0000
1000
0010
1000
0000
0000
0000
0001
0000
,
0010
0000
0000
0000
0000
0000
0000
0000
0110
0000
0000
0000
0000
0000
0000
0000
0000
0000
0000
0000
0000
0000
0000
0000
1000
0000
0000
0000
0000
0000
0000
0000
0001
0000
0000
0000
0100
0000
0000
0000
0001
0000
0000
0000
0000
0000
0000
0000
1000
0000
0000
0000
0000
0000
0000
0000
2200
3300
0000
0000
0000
0000
0000
0000
,
0002
0000
0000
2003
0000
0000
0020
0000
0000
0000
0000
0000
0000
0000
0000
0000
3030
0000
0000
0000
0000
0000
0100
0000
0100
0000
0000
0010
0000
0000
1000
0000
,
2000
0000
0000
3002
0000
0000
0020
0000
0000
0000
0000
0000
0000
0000
0000
0000
0033
0000
0000
0000
0000
0000
0100
0000
0100
0000
0000
0010
0000
0000
0001
0000
,
1000
0010
1000
0100
,
1000
0000
0010
0000
1000
0100
1000
0000
,
0001
0010
0001
0100
,
0001
0000
0010
0000
0001
0100
0001
0000
,
1000
0100
0010
0001
1000
0000
0001
0100
,
0010
1000
0001
0000
1000
0010
0100
0010
,
1000
0000
0001
0010
0100
0010
0001
0000
,
1000
0000
0001
0000
0100
0010
0100
0010
,
1000
0000
1000
0001
0010
0000
0010
0001
,
1000
0000
1000
0001
0100
0000
0100
0001
,
1000
1100
0110
0011
,
0001
0010
0100
1000
,
0001
0000
0001
1000
0010
0000
0010
1000
,
0001
0000
0001
1000
0100
0000
0100
1000
,
0001
0101
0110
1010
,
1000
0010
0100
0001
,
1000
0100
0010
0100
0010
0001
0010
0000
,
0001
0100
0010
0100
0010
1000
0010
0000
,
1000
0001
1000
0001
0100
0010
1000
0000
,
0001
1000
0001
1000
0100
0010
0001
0000
,
0010
0001
1000
0010
0100
0001
1000
0100
,
0010
0001
1000
0010
0100
0001
1000
0100
,
0010
0001
0100
0010
1000
0100
0010
0001
,
0100
0010
1000
0100
0010
0001
0100
0000
,
1010
0000
0000
1001
0000
0000
1100
0000
,
0002
0010
0003
0020
0100
0030
1100
0000
,
2000
0010
3000
0020
0100
0030
0101
0000
,
2000
0100
3000
0200
0010
0300
0011
0000
,
0002
1000
0003
2000
0010
3000
0101
0000
,
2000
0001
3000
0002
0010
0003
1100
0000
,
0220
0330
0000
2200
3300
0000
1001
0000
,
0220
0330
0000
0202
0303
0000
1001
0000
,
0220
0000
0000
0000
,
0000
0000
0000
0000
,
0000
0000
0000
0000
,
0000
0000
0000
0000
,
0000
0000
0000
0000
,
0000
0000
0000
0000
,
0330
0000
0000
0000
,
0000
0000
0000
0000
;
#NOTES:
     dance-double:
     :
     Easy:
     8:
     :
00000000
00000000
00000000
00000000
,
00000000
00000000
00000000
00000000
,
00000000
00000000
00000000
00000000
,
00000001
00001000
00000001
00001000
,
00000100
00010000
00000100
00010000
,
00001000
00000000
01000000
00000000
,
00010000
00000000
10000000
00000000
,
00100000
00000000
00001000
00010000
,
00000010
00000000
00000100
00000001
,
00000010
00000000
00000100
00001000
,
00010000
00001000
00010000
00001000
,
01000000
00000000
00001000
00010000
,
00000010
00000010
00000010
00001000
,
00000001
00000000
00000100
00000010
,
00010000
00010000
00001000
01000000
,
00100000
00000000
10000000
00010000
,
01000000
01000000
01000000
00001000
,
00010000
00000000
00000010
00001000
,
00000100
00010000
00001000
00100000
,
00010000
00000000
00000000
10000000
00010000
10000000
00010000
00000000
,
01000000
00000000
00000000
10000000
,
01000000
00010000
00001000
00000100
,
00000001
00001001
00000000
00000001
,
00000100
00001000
00010000
01000000
,
10000000
10010000
00000000
10000000
,
01000000
00010000
00001000
00000100
,
00000001
00001001
00000000
00000001
,
00000100
00001000
00010000
01000000
,
10000000
10010000
00000000
00100000
,
00100000
01000000
01000000
10000000
,
10000000
00010000
00010000
00100000
,
10000000
01000000
00010000
00010000
,
00001000
00000010
00000001
00000100
,
00001000
00010000
00100000
10000000
,
00000000
01000000
00010000
00001000
,
00000010
00000001
00000100
00001000
,
00000000
00000000
00000000
00000000
,
00000000
00000000
00000000
00000000
00000000
00000000
00100000
01000000
,
00001000
00000000
00010000
00000010
00000100
00000000
00000010
00000000
,
00000001
00000010
00000100
00001000
00010000
00100000
01000000
00100000
,
10000000
00000000
01000000
00100000
00001000
00010000
00000100
00000010
,
00000001
00000100
00000010
00010000
00001000
01000000
00200000
00000000
,
00000000
01300000
10000000
10000000
,
00010000
01000000
00010000
00010000
,
00000010
00000100
00000001
00000001
,
00001000
00000100
00010000
00010000
,
00100000
01000000
00010000
00000000
,
10000000
00000000
00010000
00000000
,
10000000
00000000
00010000
00001000
,
00000010
00000000
00000001
00000100
,
00001000
00000000
00001000
00000001
,
00000000
00000000
00000001
00000010
,
00000010
00000100
00000100
00000010
,
00001000
00010000
00100000
00001000
,
00000010
00000001
00000100
00000100
,
00001000
00000100
00001000
00000010
,
00000001
00000110
00001000
00010000
,
00100000
10000000
00010000
01000000
,
01000000
10000000
01000000
01000000
,
00010000
01000000
00010000
00000000
,
00100000
00100000
11000000
00000000
,
01010000
00000000
00100000
00100000
,
01000000
00010000
00001000
00010000
,
00001000
01000000
00001000
00010000
,
00000010
00000100
00001001
00000000
,
00000000
00000000
00000100
00000100
,
00001000
00000010
00000001
00000001
,
00001000
00001000
00000100
00001000
,
00010000
00100000
10000000
01000000
,
00010000
00011000
00000010
00000010
,
00000001
00000100
00001000
00010000
,
00100000
10000000
01000000
00010000
,
00001000
00000100
00000001
00001000
,
00000100
00000010
00000001
00000000
,
00000100
00000000
00000100
00000000
,
00001000
00000000
00010000
00000000
,
01000000
00000000
00100000
00000000
,
10000000
00000000
01000000
00000000
,
10000000
00000000
00010000
00000000
,
10000000
00000000
00100000
00000000
,
01000000
00000000
00001000
00000000
,
00010000
00001000
00010000
00000000
,
00000100
00000000
00000100
00000000
,
00000010
00000000
00000001
00000000
,
00000100
00000000
00000001
00000000
,
00000100
00000010
00000100
00000000
,
00001000
00000000
00001000
00000000
,
00010000
00000000
00100000
00000000
,
00010000
00000000
00001000
00000000
,
00010000
01000000
00010000
00000000
,
00001000
00000000
00010000
00000000
,
01000000
00000000
00100000
00000000
,
00001000
00000000
00010000
00000000
,
00000100
00000000
00000010
00000000
,
00000001
00000000
00000100
00000000
,
00001000
00000000
00010000
00000000
,
00100000
00000000
10000000
00000000
,
01000000
00000000
00000000
01000000
00000000
00000000
01000000
00000000
,
00010000
00000000
00010000
00000000
,
00001000
00000000
00000000
00001000
00000000
00000000
00001000
00000000
,
00000100
00000000
00000000
00000100
00000000
00000000
00000100
00000000
,
00000001
00000000
00000000
00000001
00000000
00000000
00000001
00000000
,
00000010
00000000
00000000
00000010
00000000
00000000
00000010
00000000
,
00001000
00000000
00000000
00001000
00000000
00000000
00001000
00000000
,
00010000
00000000
00000000
00010000
00000000
00000000
00010000
00000000
,
00022000
00000000
00000000
00000000
,
00000000
00000000
00000000
00000000
,
00000000
00000000
00000000
00000000
,
00000000
00000000
00000000
00000000
,
00000000
00000000
00000000
00000000
,
00000000
00000000
00000000
00000000
,
00033000
00000000
00000000
00000000
,
00000000
00000000
00000000
00000000
;
#NOTES:
     dance-double:
     :
     Medium:
     13:
     :
00000000
00000000
00000000
00000000
,
00000000
00000000
00000000
00000000
,
00000000
00000000
00000000
00000000
,
00010000
00001000
00000100
00000001
,
00000010
00000100
00010000
00001000
,
00100000
01000000
00010000
00001000
,
00000010
00000000
00000001
00000000
00000100
00001000
00000100
00000000
,
00001000
00001000
00010000
00010000
,
01000000
01000000
00010000
00001000
,
00010000
00010000
00000010
00000100
,
00000001
00001000
00000100
00010100
,
00000010
00010000
00001000
00100000
,
00010000
00000000
10000000
00000000
00100000
00000000
01000000
00010000
,
10000000
00000000
00100000
00101000
,
00000100
00000000
00000100
00000000
00001000
00000001
00001000
00000001
,
00000100
00000100
00000001
00001000
,
00000010
00000000
00010000
00000000
00001000
00000000
01000000
00010000
,
10000000
00000000
00100000
00100000
,
10000000
00000000
00010000
00100000
00001000
00010000
00000000
00000000
,
00000010
00001000
00000000
00000001
00000100
00000001
00000100
00000000
,
00001001
00000000
00000000
00000000
00000000
00000000
00001000
00000100
,
00000000
00000001
00000100
00000000
00001000
00000000
00010000
00000000
,
01000000
00000000
01100000
00000000
00000000
00000000
00010000
01000000
,
00000000
10000000
01000000
00000000
00010000
00000000
00001000
00000000
,
00000100
00000000
00000110
00000000
00000000
00000000
00001000
00000100
,
00000000
00000001
00000100
00000000
00001000
00000000
00010000
00000000
,
01000000
00000000
01100000
00000000
00000000
00000000
00010000
01000000
,
00000000
10000000
01000000
00000000
00010000
00000000
00001000
00000000
,
00000100
00000110
00000000
00001000
,
00010000
00001000
00010000
00001000
,
00010000
00000000
00000000
00001000
00000000
00000000
00010000
00000000
00000000
00100000
00000000
10000000
,
00010000
00000000
00000000
00100000
00000000
01000000
10000000
00000000
00000000
00010000
00000000
00000000
,
01000000
00001000
00010000
00000100
,
00001000
00000000
00000000
00010000
00000000
00000000
00001000
00000000
00000000
00100000
00000000
00100000
,
00000000
10000000
00010000
01000000
,
00100000
00000000
00000000
10000000
00000000
00000000
01000000
00000000
00100000
01000000
00000000
00000000
,
00000000
00000000
00000000
00000000
,
00000000
00000000
00000000
00000000
00000000
00000000
00100000
00001000
,
01000000
00000000
00001000
00010000
00000000
00000000
00000010
00000000
00000000
00000100
00000000
00000000
00000001
00000000
00000000
00000010
00000000
00000000
00000100
00000000
00000000
00000000
00000000
00010000
,
00001000
00000000
00000000
01000000
00000000
00000000
00100000
00000000
10000000
01000000
00000000
00000000
00010000
00000000
00000000
00001000
00000000
00000000
00000010
00000000
00000000
00000001
00000000
00000000
,
00000100
00000000
00000000
00000000
00000000
00000000
00000010
00000000
00000000
00010000
00000000
00000000
01000000
00000000
00100000
00001000
00000000
00000000
00010000
00000000
00100000
10000000
00000000
00000000
,
01000000
00000000
00000000
00010000
00000000
00000000
00001000
00000000
00000010
00000001
00000000
00000000
00000100
00000000
00000000
00001000
00000000
00000000
00000000
00000000
00000000
00000000
00000000
00000000
,
00000000
00000000
10010000
10010000
,
00001000
00010000
00011000
00011000
,
00000001
00000100
00001001
00001001
,
00010000
00001000
00011000
00011000
,
10000000
01000000
00010000
01000000
,
10000000
01000000
00010000
01000000
,
10000000
01000000
00010000
00001000
,
00000010
00000001
00000001
00000100
,
00001000
00000000
00010000
00000000
00000000
00001000
00010000
00000000
,
00000000
00000000
00000110
00001000
,
00010000
00000000
00001000
00000100
00000001
00000000
00000100
00000000
,
00001000
00000000
00010000
01000000
10000000
00000000
01100000
00000000
,
11000000
00000000
00100000
00010000
00001000
00000000
00010010
00000000
,
00001000
00000010
00000100
00000000
00000101
00000000
00001100
00000000
,
00000010
00001000
00010000
00000000
00100000
00010000
00001000
00000000
,
01001000
01010000
00100000
00010000
,
11000000
00100000
10000000
01010000
,
10010000
01000000
00011000
00000000
,
00001000
00000000
00001000
00000000
00010000
00001000
00010000
00000000
,
00000010
00001000
00000100
00000000
00000001
00000000
00000001
00000000
,
00001000
00000000
00001000
00000000
00000001
00000010
00000001
00000000
,
00001000
00000100
00010000
00000000
00001000
00000000
00001000
00000000
,
00010000
01000000
00100000
00000000
10000000
00000000
00100000
00000000
,
01000000
00010000
10000000
10000000
,
01000000
00000000
01000000
00000000
00100000
00010000
01000000
00000000
,
10000000
00010000
01000000
00000000
01000000
00000000
00001000
00000000
,
00010000
00000000
00000010
00000000
00000000
00000100
00001000
00010000
,
00000000
01100000
00000000
00000000
00100000
00001000
00000000
00010000
,
00001000
00000100
00000000
00000001
00000010
00000100
00001000
00000001
,
00000001
00000000
00000000
00000000
00000010
00000000
00000000
00000100
00000100
00000000
00000000
00000000
00000010
00000000
00000000
00000000
,
00000001
00000000
00000000
00000000
00000100
00000000
00000000
00001000
00001000
00000000
00010000
00000000
00100000
00000000
01000000
00000000
,
00010000
10000000
00010000
01000000
,
00100000
10000000
01000000
00010000
,
00001000
00000010
00000100
00000010
,
00000001
00000100
00001000
00000100
,
00000010
00001000
00000100
00000010
,
00000001
00000100
00001000
00010000
,
00001000
00010000
00100000
10000000
,
01000000
00100000
00010000
01000000
,
00100000
10000000
01000000
00010000
,
00001000
00000000
00000010
00000000
00000100
00001000
00000100
00000000
,
00000010
00000001
00000100
00001000
,
00010000
00000000
00100000
00000000
01000000
00010000
01000000
00000000
,
00100000
10000000
01000000
00100000
,
00001000
00000000
00010000
00000000
00000100
00000010
00000100
00000000
,
00000010
00000001
00000100
00000010
,
00010000
00000000
00001000
00000000
01000000
00100000
01000000
00000000
,
00010000
10000000
01000000
00100000
,
00001000
00000000
00010000
00000000
00000010
00000100
00000001
00000000
,
00001000
00000001
00000100
00000010
,
00010000
00000000
00001000
00000000
00100000
01000000
10000000
00000000
,
00010000
00010000
01000000
01000000
,
00100000
00100000
00010000
00010000
,
00001000
00001000
00000100
00000100
,
00000010
00000010
00001000
00001000
,
00001100
00000000
00000000
00001001
00000000
00000000
00001010
00000000
,
00000100
00000000
00000100
00000000
,
00010010
00000000
00000000
00011000
00000000
00000000
00010100
00000000
,
00011000
00000000
00000000
00101000
00000000
00000000
01100000
00000000
,
11000000
00000000
00000000
10010000
00000000
00000000
01010000
00000000
,
01001000
00000000
00000000
00011000
00000000
00000000
00010010
00000000
,
00001010
00000000
00000000
00000110
00000000
00000000
00000101
00000000
,
00000110
00000000
00000000
00001010
00000000
00000000
00010010
00000000
,
00022000
00000000
00000000
00000000
,
00000000
00000000
00000000
00000000
,
00000000
00000000
00000000
00000000
,
00000000
00000000
00000000
00000000
,
00000000
00000000
00000000
00000000
,
00000000
00000000
00000000
00000000
,
00033000
00000000
00000000
00000000
,
00000000
00000000
00000000
00000000
;
#NOTES:
     dance-double:
     :
     Hard:
     16:
     :
00000000
00000000
00000000
00000000
,
00000000
00000000
00000000
00000000
,
00000000
00000000
00000000
00000000
,
10000000
01000000
00010000
00001000
,
00010000
00001000
00000010
00000001
,
00000010
00000001
00000100
00000000
00000010
00001000
00000100
00000000
,
00010000
00001000
00010000
00100000
10000000
01000000
00010000
00000000
,
00011000
00000000
00010100
00000000
00001000
00000001
00000100
00000000
,
00000010
00010000
00001000
00000000
00100000
00010000
01000000
00000000
,
00010000
10000000
01000000
00000000
00100000
00001000
00010000
00000000
,
00001000
00010000
00001000
00000100
00000001
00000010
00000100
00000000
,
00000001
00000000
00001000
00000001
00000100
00000000
00010000
00001000
,
01000000
00000000
01000000
00000000
01000000
00100000
10000000
00010000
,
01000000
00000000
00000000
00000000
01000000
00000000
00100000
00000000
10000000
00000000
00000000
10000000
00010000
00000000
00100000
00000000
,
00001000
00000000
00001000
00000000
00010000
00000000
00000010
00001000
,
00000100
00000000
00000000
00000000
00000010
00000000
00000000
00000000
00001000
00000000
00000000
00000001
00001000
00000000
00000010
00000000
,
00000100
00000000
00000100
00000000
00001000
00000000
00100000
00010000
,
10000000
00000000
00000000
00000000
00100000
00000000
00000000
00000000
01000000
00000000
00000000
00010000
10000000
00000000
00100000
00000000
,
01000000
00010000
00100000
00001000
00010000
00000100
00000000
00000000
,
00001000
00000010
00000000
00010000
00000100
00010000
00000100
00000000
,
00001000
00000000
00000000
00000000
00000000
00000000
00000010
00001000
,
00000000
00000010
00000001
00000100
00001000
00000000
00010000
01000000
,
10000000
00000000
10010000
00000000
00000000
00000000
00100000
00010000
,
00000000
00100000
10000000
01000000
00010000
00000000
00001000
00000100
,
00000001
00000000
00001001
00000000
00000000
00000000
00000010
00001000
,
00000000
00000010
00000001
00000100
00001000
00000000
00010000
01000000
,
10000000
00000000
10010000
00000000
00000000
00000000
00100000
00010000
,
00000000
00100000
10000000
01000000
00010000
00000000
00001000
00000100
,
00000001
00000000
00000000
00001001
00000000
00000000
00000000
00000000
00000000
00001000
00000000
00000001
,
00001000
00000000
00000001
00001000
00000000
00000001
00001000
00000000
00000001
00001000
00000000
00000001
,
00001000
00000000
00000001
00001000
00000000
00000001
00001000
00000000
00000001
00000010
00000000
00000100
,
00001000
00000000
00000000
00000001
00000000
00000100
00000010
00000000
00000000
00001001
00000000
00000000
,
00010100
00101000
10010000
10010000
,
01001000
00000000
00000000
00010010
00000000
00000000
00001001
00000000
00000000
00000001
00000000
00000100
,
00000000
00001010
00011000
01010000
,
00100000
00000000
10000000
01000000
00000000
00000000
00100000
00000000
00010000
01000000
00000000
00000000
,
00000000
00000000
00000000
00000000
,
00000000
00000000
00000000
00000000
00000000
00000000
00000000
00000000
00000000
00000000
00000000
00000000
00000000
00000000
00000000
00000000
00000000
00000000
10000000
01000000
00100000
00001000
00000000
00010000
,
00000100
00000000
00000010
00000001
00000000
00000001
00000100
00000000
00000010
00001000
00000000
00000100
01000000
00100000
10000000
00010000
00000000
01000000
00100000
00000000
00000000
00000000
10000000
01000000
,
00100000
00000000
00001000
00010000
00000000
00000010
00000100
00000000
00000001
00000010
00000000
00000100
00010000
00001000
00010000
00000100
00000000
00000000
00000010
00000001
00000010
00000100
00000000
00010000
,
00000000
00001000
00000000
01000000
00000000
01000000
00000000
00100000
10000000
00100000
00000000
01000000
00001000
00000000
00010000
00000010
00000000
00010000
00000100
00000000
00000010
00000001
00000000
00000100
,
00000010
00010000
00000100
00010000
00000000
00001000
01000000
00100000
00000000
10000000
00000000
01000000
00000000
00010000
00000000
00001000
00000000
00000000
00200000
00000000
00000000
00000000
00000000
00000000
,
00000000
00310000
10010000
11000000
,
00100000
00010000
01000000
00000000
00011000
00000000
01000000
00000000
,
00001000
00010000
00000010
00000000
00001001
00000000
00000101
00000000
,
00000010
00001000
00000100
00000000
00011000
00000000
00000100
00000000
,
00010000
00001000
00100000
00000000
10010000
00000000
01000000
00000000
,
01010000
00001000
00011000
00000100
,
00001100
00000001
00001000
00000100
,
00000001
00000010
00010000
01000000
,
10000000
00000000
00100000
00000000
00000000
10000000
01000000
00000000
,
00010000
01000000
00100000
11000000
,
00100000
00000000
00010000
00001000
00000010
00000000
00000110
00000000
,
00000010
00000001
00000100
00001000
00010000
00000000
01100000
00000000
,
10000000
01000000
00010000
00001000
00000100
00000000
00000101
00000000
,
00000010
00000001
00000100
00001000
00010000
00000000
00101000
00000000
,
00100000
00010000
01000000
00000000
01001000
00000000
01010000
00000000
,
00100000
00001000
00010000
00000000
00010010
00000000
00001000
00000100
,
00000001
00000000
00001010
00000000
00000001
00000100
00001000
00010000
,
00000010
00000100
00001000
00010000
00011000
00000000
00000000
00000000
,
00001000
00010000
00001000
00000000
00000010
00001000
00000100
00000000
,
00000010
00000001
00000100
00000000
00000010
00000001
00000010
00000000
,
00000100
00001000
00000100
00000000
00010000
00000100
00010000
00001000
,
00010000
00100000
01000000
00000000
00100000
01000000
00010000
10000000
,
00010000
01000000
01000000
00000000
00100000
00000000
00100000
00000000
,
10000000
00010000
01000000
00001000
00010000
00000000
00010000
00000000
,
00001000
00010000
00000010
00000000
00000001
00000000
00000001
00000000
,
00001000
00001000
00000010
00011000
,
01000000
00000000
00011000
00000000
00000000
00000010
00001000
00000100
,
00000000
00001001
00000000
00000000
00010000
00010000
00000000
01000000
,
10000000
00100000
00000000
00010000
00001000
00000010
00000001
00000100
,
00000100
00000000
00000000
00000010
00000000
00000000
00000001
00000000
00000000
00000000
00000000
00000000
00000000
00000000
00000100
00000000
00000100
00000000
00000000
00000000
00000000
00000000
00001000
00000000
00001000
00000000
00000000
00010000
00000000
00000000
00100000
00000000
,
01000000
00000000
00000000
10000000
00000000
00000000
00100000
00000000
00000000
00000000
00000000
00000000
00000000
00000000
01000000
00000000
01000000
00000000
00000000
00000000
00000000
00000000
00001000
00000000
00001000
00000000
00000000
00010000
00000000
00000000
00000100
00000000
,
00000010
00000001
00001000
00010000
,
00100000
00000000
10000000
00000000
00010000
10000000
01000000
00000000
,
00010000
00001000
00010000
00000100
,
00000010
00000000
00000001
00000000
00000100
00001000
00000100
00000000
,
00010000
00000000
00100000
00000000
10000000
01000000
10000000
00000000
,
01000000
00000000
00010000
00000000
00001000
00010000
00001000
00000000
,
00000010
00000000
00000001
00000000
00001000
00000001
00000100
00000000
,
00001000
00000000
00010000
00000000
01000000
00100000
00001000
00000000
,
00010000
00000000
00100000
10000000
00100000
00000000
10000000
01000000
,
10000000
00000000
01000000
00010000
01000000
00000000
00010000
00001000
,
00010000
00000000
00001000
00000010
00001000
00000000
00000010
00000001
,
00000010
00000000
00000001
00000100
00000010
00000000
00010000
00001000
,
00010000
00000000
00100000
10000000
01000000
00000000
00100000
00001000
,
00010000
00000000
00001000
00000010
00000100
00000000
00001000
00000001
,
00000100
00000000
00001000
00010000
00100000
00000000
00010000
00100000
,
01000000
00000000
00100000
10000000
01000000
00000000
01000000
00010000
,
00001000
00000000
00001000
00000010
00000001
00000000
00001000
00000100
,
00000010
00000000
00000001
00000100
00000010
00000000
00010000
00001000
,
00010000
00000000
00100000
10000000
00100000
00000000
01000000
00010000
,
10000000
00000000
01000000
00010000
00001000
00000000
00010000
00001000
,
00000010
00000000
00000001
00000100
00000010
00000000
00010000
00001000
,
00010000
00000000
00000100
00000010
00000001
00000000
00000100
00001000
,
00010000
00000000
00001000
00010000
00100000
00000000
10000000
01000000
,
00100000
00001000
00010000
00100000
01000000
00001000
00010000
00000000
,
00011000
00000000
00000000
01001000
00000000
00000000
00110000
00000000
,
00100000
00000000
00000000
00010000
01000000
00000000
01010000
00000000
,
10100000
00000000
00000000
01000000
00001000
00000000
00011000
00000000
,
00010100
00000000
00000000
00001000
00000100
00000000
00000011
00000000
,
00001001
00000000
00000000
00000100
00000001
00000000
00010010
00000000
,
00011000
00000000
00000000
00001000
01000000
00000000
01010000
00000000
,
00100000
10000000
00000000
10000000
01000000
00000000
00101000
00000000
,
00010000
00000100
00000000
00000100
00000010
00000000
00000011
00000000
,
00002002
00000000
00000000
00000000
,
00000000
00000000
00000000
00000000
,
00000000
00000000
00000000
00000000
,
00000000
00000000
00000000
00000000
,
00000000
00000000
00000000
00000000
,
00000000
00000000
00000000
00000000
,
00003003
00000000
00000000
00000000
,
00000000
00000000
00000000
00000000
;
#NOTES:
     dance-double:
     :
     Challenge:
     17:
     :
00000000
00000000
00000000
00000000
,
00000000
00000000
00000000
00000000
,
00000000
00000000
00000000
00000000
,
00001001
00000000
00001000
00000100
00000000
00000010
00000000
00000001
00000000
00000100
00000000
00000010
00001000
00000000
00000010
00000000
,
00010000
00001000
00000010
00001000
00010000
00001000
00000010
00001000
,
00010000
00100000
10000000
00100000
00010000
00100000
10000000
00100000
,
00010000
00001000
00000100
00001000
00010000
00000010
00001010
00000000
,
00001001
00000000
00000010
00000001
00000000
00000100
00000000
00001000
00000000
00010000
00000000
01000000
10000000
00000000
00010000
00000000
,
10010000
00000000
00100000
10000000
00000000
01000000
00000000
00010000
00000000
00001000
00000000
00000100
00000001
00000000
00001000
00000000
,
00001001
00000000
00000010
00000001
00000000
00000100
00000000
00001000
00000000
00010000
00000000
01000000
10000000
00000000
00010000
00000000
,
10000000
10000000
00010000
10000000
02200000
00000000
03300000
00000000
,
10000000
01000000
00000000
00100000
00000000
01000000
00000000
00100000
00000000
00010000
00000000
00001000
00000100
00000000
00000010
00000000
,
00000001
00001000
00000001
00000100
00000000
00000010
00001000
00000100
00000010
00000001
00001000
00000001
00000100
00000000
00000010
00000000
,
00000100
00001000
00000000
00010000
00000000
01000000
00000000
10000000
00000000
00100000
00000000
01000000
00100000
00000000
00000000
00000000
,
10000000
00100000
01000000
00100000
10000000
00000000
00010000
10000000
01000000
00100000
00010000
00000000
00001000
00000000
00010000
00000000
,
00001000
00000100
00000000
00000010
00000000
00000001
00000000
00000100
00000000
00000010
00000000
00001000
00000100
00000000
00001000
00000000
,
00000010
00010000
00001000
00010000
00000000
00000100
00001000
00000100
00010000
00001000
00100000
00010000
00100000
00000000
00010000
00000000
,
01000000
00100000
00000000
10000000
00000000
00010000
00000000
01000000
00000000
10000000
00000000
01000000
00010000
00000000
00000000
00000000
,
10000000
01000000
00100000
00010000
00100000
00000000
00001000
00010000
00000010
00001000
00000010
00000000
00000100
00000001
00001000
00000100
,
00001000
00000110
00000000
00000011
00001001
00001010
00001001
00000000
,
00000110
00000000
00000000
00000000
00000000
00000000
00000001
00001000
,
00000100
00010000
00001000
01000000
00010000
10000000
10100000
00010000
,
01010000
00000000
22000000
00000000
33000000
00000000
10000000
00010000
,
01000000
00001000
00010000
00000100
00001000
00000001
00000011
00001000
,
00001100
00000000
00000202
00000000
00000303
00000000
00000001
00000100
,
00010000
00001000
00100000
10000000
00010000
01000000
01100000
00100000
,
10100000
00000000
20020000
00000000
30030000
00000000
10000000
01000000
,
00001000
00010000
00000010
00000001
00001000
00000100
00000110
00000010
,
00000011
00000000
00000000
00002002
00000000
00000000
00003003
00000000
00000000
00000001
00000000
00000001
,
00000100
00000000
00000100
00001000
00000000
00001000
00010000
00000000
00010000
01000000
00000000
01000000
,
10000000
00000000
10000000
00100000
00000000
00100000
00010000
00000000
00010000
00001000
00000000
00100000
,
00010000
00000000
00001000
00010000
00000000
00100000
00010000
00000000
00001000
00010000
00000000
01000000
,
00010000
00000000
00001000
00010000
00000000
01000000
00010000
00000000
00001000
00010000
00000000
00010000
,
00001000
00000000
00001000
00000100
00000000
00000100
00000001
00000000
00000001
00000010
00000000
00000010
,
00001000
00000000
00001000
00010000
00000000
00010000
00001000
00000000
00001000
00010000
00000000
00000010
,
00001000
00000000
00010000
00001000
00000000
00000010
00001000
00000000
00010000
00002000
00000000
00000000
,
00000000
00000000
00000000
00000000
,
00000000
00000000
00000000
00000000
00000000
00000000
00000000
00000000
00000000
00000000
00000000
00000000
00003000
00000000
00000000
00000000
00000000
00000000
00100000
00010000
00100000
01000000
10000000
01000000
,
00100000
00010000
01000000
00100000
10000000
01000000
00100000
00010000
00001000
00010000
00001000
00000100
00010000
00001000
00000100
00000010
00001000
00000100
00000010
00000000
00000000
00000000
00000001
00001000
,
00000100
00000010
00000001
00000100
00000010
00001000
00010000
00001000
00010000
01000000
00010000
01000000
00100000
10000000
01000000
00100000
00000000
00000000
00001000
00100000
01000000
10000000
01000000
00100000
,
00001000
01000000
00100000
10000000
00100000
01000000
00001000
00010000
00001000
00000010
00001000
00000010
00000001
00000010
00000001
00001000
00000001
00001000
00000001
00000001
00000001
00000100
00000100
00000100
,
00001000
00001000
00001000
00010000
00010000
00010000
00100000
10000000
00100000
00010000
00001000
00010000
00001000
00000100
00000001
00001000
00000000
00000000
00000200
00000000
00000000
00000000
00000000
00000000
,
00000000
00000000
00000310
00000000
00000001
00000100
00000010
00002000
,
00000000
00003010
00001000
00010000
00000000
01010000
00000000
10100000
,
00000000
01010000
10000000
01000000
10000000
01000000
00100000
00020000
,
00000000
00130000
00010000
00001000
00000000
00001100
00000000
00000011
,
00001000
00000010
00000100
00000001
00001000
00000010
00010000
00001000
,
00000000
00010000
00000000
00001010
00000000
00011000
00000000
00110000
,
00000000
00011000
00000000
00001000
00000000
00020000
01000000
01000000
,
01000000
01000000
01030000
00010000
00000000
00002000
00000100
00000100
,
00000100
00000100
00000100
00003100
00000010
00000100
00000010
00000000
,
00000000
00000000
00001000
00000000
00000001
00000100
00001000
00010000
,
00000010
00001000
00010000
00000000
01000000
00100000
10000000
01000000
,
00100000
00010000
10000000
00000000
00010000
10000000
01000000
00010000
,
00001000
00000010
00000001
00000000
00001000
00000001
00000100
00001000
,
00010000
00100000
10000000
00000000
12000000
00000000
03010000
00000000
,
10200000
00310000
00001020
00000031
,
00001200
00000000
00000301
00000000
00001000
00000010
00000001
00000010
,
00000001
00000010
00001000
00000100
00000001
00000100
00000001
00000100
,
00001000
00010000
00100000
01000000
10000000
10010000
10010000
00000000
,
00000000
00000000
00000000
00000000
10000000
00010000
01010000
00000000
,
10000000
00010000
01010000
00000000
00100000
10000000
01000000
00100000
,
00000000
00001000
00010000
00001000
00000010
00000001
00000100
00000000
,
00000010
00001000
00000100
00000000
00000010
00000100
00000001
00000100
,
00001000
00000010
00000100
00000000
00002100
00000000
00013000
00000000
,
00001000
00100000
01000000
00000000
01020000
00000000
00031000
00000000
,
00010000
00000010
00000100
00000000
00001000
00000100
00000001
00000000
,
00001000
00000100
00000001
00000000
00001000
00000010
00000001
00000100
,
00000010
00010000
00001000
00100000
00110000
01000000
10000000
00100000
,
00000000
00000000
02200000
00000000
00000000
00000000
03300000
00000000
10000000
00010000
10000000
00000000
00000000
00000000
00100000
00000000
,
01000000
00000000
00000000
00000000
00000000
00000000
00000000
00000000
01010000
00000000
00000000
00000000
00000000
00000000
00000000
00000000
00000000
00000000
00000000
00000000
00000000
00000000
00000000
00000000
00001000
00000000
00000000
00000000
00000000
00000000
00000000
00000000
00010000
00000000
00000000
00000000
00001000
00000000
00000000
00000000
00010000
00000000
00000000
00000000
00000000
00000000
00000000
00000000
00000010
00000000
00000000
00000000
00000000
00000000
00000000
00000000
00002020
00003030
00000000
00000000
00000000
00000000
00000000
00000000
,
00000001
00000000
00000000
00000020
00000000
00000000
00002000
00000000
00000000
00000000
00000000
00000000
00000000
00000000
00000000
00000000
00003030
00000000
00000000
00000000
00000000
00000000
00010000
00000000
00010000
00000000
00000000
01000000
00000000
00000000
10000000
00000000
,
10000000
00000000
00000000
00200000
00000000
00000000
00020000
00000000
00000000
00000000
00000000
00000000
00000000
00000000
00000000
00000000
00330000
00000000
00000000
00000000
00000000
00000000
00001000
00000000
00001000
00000000
00000000
00000100
00000000
00000000
00000001
00000000
,
00000001
00000100
00000010
00001000
,
00010000
00000000
01000000
00000000
00100000
10000000
00100000
00000000
,
10000000
01000000
00100000
00010000
,
00001000
00000000
00000100
00000000
00000010
00000001
00000010
00000000
,
00000001
00000100
00000010
00000100
00000010
00000000
00001000
00000000
,
00000010
00010000
00001000
00010000
00001000
00000000
01000000
00000000
,
00100000
10000000
00010000
10000000
00010000
00000000
00100000
00000000
,
01000000
00000000
10000000
00000000
00010000
01000000
00100000
10000000
,
00010000
00000000
10000000
01000000
00100000
00000000
01000000
00100000
,
00010000
00000000
00100000
00010000
00001000
00000000
00010000
00001000
,
00000100
00000110
00000011
00001001
,
00001000
00000010
00000100
00000001
,
00001000
00000000
00000001
00000100
00000010
00000000
00000100
00000010
,
00001000
00000000
00000010
00001000
00010000
00000000
00001000
00010000
,
01000000
01100000
10100000
10010000
,
00010000
00100000
01000000
10000000
,
00010000
01000000
00001000
00010000
00000010
00000000
00001000
00000000
,
00000100
00010000
00001000
00100000
00010000
00000000
01000000
00000000
,
00010000
00100000
00001000
00010000
00000100
00000000
00001000
00000000
,
00000010
00010000
00001000
01000000
00010000
00000000
00100000
00000000
,
01000000
00100000
01000000
00100000
00010000
00001000
00010000
00001000
,
00000100
00000010
00000100
00000010
00000001
00001000
00000001
00001000
,
00000010
00000100
00000010
00000100
00001000
00000100
00001000
00000100
,
00001000
00010000
00001000
00010000
00100000
00010000
00100000
00000000
,
01100000
00000000
00000000
01100000
00000000
00000000
10010000
00000000
,
10000000
00100000
00000000
10000000
00100000
00000000
01010000
00000000
,
10000000
01000000
00000000
00010000
00001000
00000000
00011000
00000000
,
00001000
00000100
00000000
00000001
00001000
00000000
00001001
00000000
,
00000001
00000010
00000000
00001000
00010000
00000000
00011000
00000000
,
00010000
00100000
00000000
10000000
00010000
00000000
10010000
00000000
,
01001000
00000000
00000000
00010010
00000000
00000000
00001001
00000000
,
00010100
00000000
00000000
00101000
00000000
00000000
10010000
00000000
,
02200000
00000000
00000000
00000000
,
00000000
00000000
00000000
00000000
,
00000000
00000000
00000000
00000000
,
00000000
00000000
00000000
00000000
,
00000000
00000000
00000000
00000000
,
00000000
00000000
00000000
00000000
,
03300000
00000000
00000000
00000000
,
00000000
00000000
00000000
00000000
;
