
//----- song ID: cosy -----//
#TITLE:Cosy Catastrophe;
#ARTIST:SYUNN;
#BANNER:Cosy Catastrophe.png;
#BACKGROUND:Cosy Catastrophe-bg.png;
#CDTITLE:./CDTitles/DDR A.png;
#MUSIC:Cosy Catastrophe.ogg;
#SAMPLESTART:13.328;
#SAMPLELENGTH:15;
#BPMS:0=90,19=360,87=90,103=360,167=180,231=360,355=90,356=180,388=360;
#NOTES:
     dance-single:
     :
     Beginner:
     6:
     :
0000
0000
0000
0000
,
0000
0000
0000
0000
,
0000
0000
0000
0000
,
1000
0000
0000
0000
,
0010
0000
0001
0001
,
0000
0000
0000
0001
,
0000
0000
0000
1000
,
0000
1000
0000
0010
,
0000
0000
0000
0010
,
0000
0010
0000
0100
,
0000
0000
0000
0100
,
0000
0100
0000
0001
,
0000
0000
0000
0001
,
0000
0001
0000
1000
,
0000
0001
0000
1000
,
0000
0001
0000
1000
,
0000
0001
0000
1000
,
0000
0001
0000
0010
,
0000
0001
0000
0010
,
0000
0001
0000
1000
,
0000
0000
0000
0000
,
0000
0000
0000
0010
,
0000
0100
0100
0010
,
0000
1000
1000
0001
,
0000
1000
0001
0001
,
0000
0010
0010
0001
,
0000
0000
0000
0001
,
0000
0000
0000
0010
,
0000
0010
0000
0010
,
0000
0000
0000
1000
,
0000
0000
0000
1000
,
0000
0000
0000
0010
,
0000
0010
0000
0010
,
0000
0000
0000
0001
,
0000
0000
0000
1000
,
0000
0000
0000
0100
,
0000
0100
0000
0100
,
0000
0000
0000
1000
,
0000
1000
0000
0001
,
0000
0001
0000
0100
,
0000
0000
0000
0000
,
0000
0000
0000
0001
,
0000
0000
0000
0000
,
0000
0000
0000
1000
,
0000
0000
0000
1000
,
0000
0000
0000
0010
,
0000
0000
0000
0000
,
0000
0000
0000
0100
,
0000
0000
0000
0100
,
0000
0000
0000
0001
,
0000
1000
0000
0100
,
0000
0010
0010
0010
,
0000
1000
0000
0001
,
0000
0100
0100
0100
,
0000
1000
0000
0010
,
0000
0100
0100
0100
,
0000
0010
0000
1000
,
0000
0010
0010
0010
,
0000
0000
0000
0100
,
0000
0100
0000
0001
,
0000
0000
0000
0010
,
0000
0001
0000
0010
,
0000
0000
0000
0001
,
0000
0001
0000
1000
,
0000
0000
0000
0010
,
0000
1000
0000
0010
,
0000
0000
0000
0100
,
0000
0100
0000
1000
,
0000
0000
0000
0010
,
0000
1000
0000
0010
,
0000
0000
0000
1000
,
0000
1000
0000
0001
,
0000
0000
0000
0010
,
0000
0001
0000
0010
,
0000
0010
0000
0010
,
0000
0000
0000
0100
,
0000
0100
0000
0100
,
0000
0000
0000
2000
,
0000
3000
0000
0020
,
0000
0030
0000
2000
,
0000
3000
0000
0200
,
0000
0300
0000
0010
,
0000
0010
0000
0010
,
0000
0000
0000
0100
,
0000
0100
0000
0100
,
0000
0000
0000
1000
,
0000
0001
0000
1000
,
0000
0001
0000
0100
,
0000
0010
0000
0100
,
0100
0000
0100
0000
,
0001
0001
0001
0000
,
0001
0000
0001
0000
,
0010
0010
0010
0000
,
1000
0000
1000
0000
,
0010
0010
0010
0000
,
1000
0000
0001
0000
,
1000
1000
0001
0001
,
0001
0000
0001
0000
,
0100
0000
0100
0000
,
0001
0000
0001
0000
,
1000
0000
0100
0000
,
1000
0000
1000
0000
,
0001
0000
0010
0000
,
0001
0000
0001
0000
,
0100
0000
0010
0000
,
1000
0000
1000
0000
,
0100
0000
0100
0000
,
1000
0000
1000
0000
,
0001
0000
0100
0000
,
0010
0000
1000
0000
,
1000
0000
0010
0000
,
0001
0000
0001
0000
,
0010
0000
0100
0000
,
0010
0000
0000
0000
,
0000
0000
0000
0000
;
#NOTES:
     dance-single:
     :
     Easy:
     9:
     :
0000
0000
0000
0000
,
0000
0000
0000
0000
,
0000
0000
0000
0000
,
1000
0010
1000
0000
0010
0100
0010
0000
,
1000
0001
1000
0000
0001
0000
1000
0000
,
0000
0000
0000
1000
,
0000
0001
0000
1000
,
0000
0100
0000
0100
,
0000
1000
0000
0001
,
0000
0100
0000
0100
,
0000
0010
0000
1000
,
0000
0001
0000
0001
,
0000
0010
0000
0100
,
0000
1001
0000
0001
,
1000
0001
0000
0010
,
0001
0010
0000
0100
,
1000
0100
0000
1000
,
0001
1000
0000
0010
,
1000
0010
1000
0001
,
0100
0001
0000
0010
,
0000
0000
0000
0000
,
0000
0000
0000
1001
,
0001
0000
0010
0010
0001
0000
0010
0100
,
1000
0000
0010
0100
0001
0000
1001
0000
,
1000
0000
0100
0100
1000
0000
0010
0100
,
0001
0000
0010
0100
1000
0000
2001
0000
,
0000
3000
0000
0010
,
1000
0010
0000
0010
,
0100
0001
0000
1000
,
0100
0010
0000
0002
,
0000
0003
0000
0010
,
0001
0010
0000
1001
,
0000
0110
0000
0010
,
0100
0010
0000
2001
,
0000
3000
0000
0001
,
0100
0001
0000
0010
,
0001
0100
0000
0010
,
1000
0001
0000
0010
,
0001
0010
0001
1000
,
0001
1000
0000
1001
,
0000
0000
0000
0000
,
0000
0000
0000
1002
,
0000
0000
0000
0000
,
0000
0000
0003
2000
,
0000
0000
3000
0020
,
0000
0000
0030
0200
,
0000
0000
0000
0000
,
0000
0000
0300
0002
,
0000
0000
0003
2000
,
0000
0000
3000
0001
,
1000
0001
0100
0001
,
0010
0001
1000
0100
,
1000
0001
1000
0010
,
1000
0100
0100
0010
,
0001
0100
0100
0010
,
1000
0100
0100
0001
,
0100
1000
0010
1000
,
0001
0010
0010
0001
,
0000
0010
0000
0100
,
0000
0001
0000
0100
,
0000
1000
0000
0001
,
0001
1000
0000
0010
,
0000
0001
0000
1000
,
0000
0100
0000
0001
,
0000
0010
0000
0100
,
0000
1000
1000
0001
,
0000
1000
0000
0100
,
0000
0001
0000
0100
,
0000
0010
0000
0001
,
0001
1000
0000
0010
,
0000
0001
0000
0010
,
0000
1000
1000
0100
,
0000
1000
0000
0001
,
0000
0100
0100
0001
,
1000
0001
0000
1000
,
1000
0001
0000
0100
,
0001
0100
0000
0001
,
0001
0100
0000
0001
,
0000
0010
0000
0100
,
0000
1000
0000
0100
,
0000
0010
0000
0100
,
0000
1000
0000
0100
,
1000
0100
0000
1000
,
1000
0001
0000
0100
,
0001
0100
0000
0001
,
0001
0100
0000
1000
,
0000
0100
0000
0001
,
0000
0100
0000
0010
,
0000
1000
0000
0100
,
1001
1000
1000
1000
,
0001
0100
0110
0110
,
1001
0001
0001
0001
,
1000
0100
0110
0110
,
1001
0100
0001
1001
,
0010
0100
0010
1001
,
0100
0010
0001
0100
,
0001
0010
0100
0000
,
1000
0000
1000
0100
,
0010
0000
0001
0010
,
0100
0000
0100
1000
,
0100
0010
0001
0000
,
0100
0000
0001
0100
,
0010
0000
1000
0010
,
0100
0000
0100
0001
,
0010
0100
1000
0000
,
0100
0000
0001
0100
,
1000
0000
0001
0100
,
1000
0000
0100
0001
,
0100
0001
1000
0000
,
0010
0000
0001
0010
,
0100
0000
0001
0010
,
0100
0000
0010
0000
,
0001
1000
0010
1000
,
0100
0000
0000
0000
,
0000
0000
0000
0000
;
#NOTES:
     dance-single:
     :
     Medium:
     13:
     :
0000
0000
0000
0000
,
0000
0000
0000
0000
,
0000
0000
0000
0000
,
1000
0000
0000
0000
0001
0000
0100
0000
1000
0100
0001
0000
0101
0000
0000
0000
,
0001
0000
0000
0000
1000
0000
0010
0000
0001
0010
1000
0000
1010
0000
0000
0000
,
0000
0000
0000
0001
,
0000
0100
0000
0000
1000
0000
0000
0100
,
0000
0001
0000
1000
,
0000
0100
0000
0000
0001
0000
0000
0100
,
0000
1000
0000
0010
,
0000
0100
0000
0000
1000
0000
0000
0100
,
0000
0010
0000
1000
,
0000
0100
0000
0000
0010
0000
0000
0100
,
0000
1000
0000
0100
,
1000
0100
1000
0001
,
0100
0001
0000
0010
,
0001
0010
0001
1000
,
0100
1000
0000
0010
,
0100
0001
0010
0001
,
0010
0100
1000
1200
,
0000
0000
0000
0000
,
0000
0310
0000
1001
,
0010
0000
0001
0000
1000
0001
1000
0001
1000
0000
0010
0000
1000
0000
0200
0000
,
0010
0010
1300
0001
1000
0000
1010
0000
,
1000
0000
0100
0000
0010
0001
0010
0001
1000
0000
0100
0000
1000
0000
0001
0000
,
1000
0000
0100
0000
0010
0000
0001
0000
0100
0001
1000
0100
0010
0000
0000
0000
,
0000
1100
0000
0010
,
0100
0010
0000
1000
,
0100
0010
0001
0100
,
0010
0001
0000
0010
,
1000
0010
0001
0010
,
0100
1000
0100
0001
,
0010
0001
1000
0100
,
1000
1001
0000
0001
,
1000
0010
0001
0010
,
1000
0001
0100
0010
,
0001
0010
1000
0100
,
0001
0100
0010
0001
,
0100
0001
0010
0100
,
1000
0010
0100
0002
,
0000
1000
0000
1000
,
0000
0013
0000
0210
,
0000
0000
0000
0000
,
0000
0000
0000
2000
,
0000
3000
0000
0002
,
0000
0003
0000
2300
,
0000
0000
0000
0000
,
0000
0000
0000
0200
,
0000
0300
0000
0020
,
0000
0000
0030
0000
0000
0000
3001
0100
,
0001
0100
0000
0100
0001
0010
0001
0010
,
0000
0010
0100
1000
0100
0000
0010
0001
,
0010
0100
0000
1000
0001
0000
0100
0010
,
0100
0001
0000
0001
0100
0000
0010
1000
,
0010
1000
0000
1000
0010
0100
0001
0010
,
0000
0100
0010
0001
0100
0000
0001
0010
,
0100
1000
0000
1000
0100
1000
0001
0010
,
0001
0100
1000
0100
0001
0010
0100
0000
,
1000
0100
0001
0100
,
1000
0100
1000
0010
,
0100
0001
0100
0101
,
0000
1001
0000
1000
,
0001
0010
0100
1000
,
0100
0001
0100
1000
,
0010
0100
0010
1000
,
0001
1001
0000
1000
,
0100
0010
0001
0100
,
0001
0010
1000
0010
,
0001
0100
1000
1100
,
0000
0101
0000
0001
,
1000
0100
0010
0100
,
0010
0001
0100
1000
,
0100
0010
0100
0001
,
1000
1001
0000
1100
,
0000
0001
0100
1000
,
0010
0002
0000
1003
,
0100
0001
0000
1000
,
0100
0001
0000
0100
,
0010
0001
1000
0010
,
0100
0001
0010
0001
,
0010
0100
0010
1000
,
0010
0002
0000
1003
,
0000
0010
0001
0010
,
1000
0020
0000
0130
,
0001
0010
1000
0010
,
0001
0100
0000
0010
,
0100
0010
1000
0001
,
1000
0100
0010
0100
,
1000
0010
0100
0101
,
0001
0100
1000
0100
,
0101
0000
1100
0000
0101
0000
0001
0001
,
1000
0100
0001
0100
,
1100
0000
0101
0000
1100
0000
1000
1000
,
0001
0100
0110
1010
,
0011
0101
0011
1100
,
0001
1000
0001
0100
0010
0100
0001
0010
,
0100
0010
0100
1000
0200
0000
0000
0000
,
1300
0100
0010
0001
,
0100
0010
1000
0100
,
0010
0001
0100
0010
,
1000
0100
0001
0100
,
1000
0100
0010
0100
,
1000
0010
0001
0010
,
1000
0100
0010
0001
,
0100
0010
1000
0100
,
0001
0100
1000
0001
,
0100
1000
0001
0010
,
1000
0001
0010
1000
,
0010
0100
1000
0100
,
0010
0001
0100
0010
,
1000
0100
0001
0100
,
1000
0010
1000
0100
,
1000
0001
0010
0001
,
0101
0000
0000
0000
,
0000
0000
0000
0000
;
#NOTES:
     dance-single:
     :
     Hard:
     16:
     :
0000
0000
0000
0000
,
0000
0000
0000
0000
,
0000
0000
0000
0000
,
0110
0000
0000
1000
0001
0010
0100
0000
1000
0100
0010
0001
0011
0000
0000
0010
,
0001
0000
0000
0100
0001
0010
0001
0010
0100
1000
0100
0000
1001
0000
0000
0000
,
0000
0000
0001
1000
0100
0010
0001
0000
,
0000
1000
0000
0000
0110
0000
0000
0110
,
0000
1001
0000
1000
,
0000
0001
0000
0000
0110
0000
0000
0110
,
0000
1001
0000
0001
,
0000
1000
0000
0000
0011
0000
0000
0011
,
0000
0110
0000
1000
,
0000
0001
0000
0000
1010
0000
0000
1010
,
0000
0110
0000
0010
,
1000
0010
1000
0100
,
0010
0100
0010
0001
,
0010
0001
0100
0010
,
1000
0000
0010
0000
0100
0000
0001
0010
,
0001
0000
0100
0001
0100
0000
0001
1000
,
0100
0010
0001
0010
0100
1000
0002
0000
,
0000
0000
0000
0003
,
0000
0000
0000
0000
0110
0000
0000
0000
0000
0000
0000
0000
1100
0000
0000
1000
,
0100
0000
0000
0000
0010
0000
0000
0000
0001
0010
0001
0010
0001
0000
1000
0000
0001
0000
1000
0000
0000
0000
1000
0000
0100
0000
0000
0000
0001
0000
0100
0000
,
1100
0000
0000
0101
0000
0000
0101
0000
0001
0000
0100
0000
0000
0000
1000
0000
0100
0000
0000
0000
0000
0000
0000
0000
1001
0000
0000
0000
0010
0000
0100
0000
,
1000
0000
0100
0000
0010
0000
0000
0000
0001
1000
0001
1000
0001
0000
1000
0000
0100
0000
0010
0000
0011
0000
0000
0000
0001
0000
0000
0010
0000
0000
0001
0000
,
0000
0100
0000
0000
0101
0000
0000
0000
1000
0000
0000
0010
0000
0000
1000
0000
0000
0100
0000
0000
1100
0000
0000
0000
1001
0000
0000
0000
0000
0000
0000
0000
,
0000
0000
0010
0000
0001
0000
0100
1000
,
0100
0010
0000
1000
,
0100
0000
0010
0001
0010
0000
1100
0000
,
0110
1100
0000
1000
,
0100
0000
0001
0100
1000
0000
0010
0000
,
0001
0000
0010
1000
0100
0000
1000
0000
,
0100
0001
1000
0010
,
0001
0000
1000
0001
1000
0000
1001
0000
,
0010
0100
1000
0000
0001
0100
0001
0000
,
0100
0101
0000
1001
,
0010
0100
0001
0000
1000
0100
1000
0000
,
0100
0000
1100
0000
0000
0000
1000
0010
,
1000
0010
0001
0000
0010
1000
0010
1000
,
0100
0000
0001
0100
1000
0002
2000
0000
,
0000
0000
0000
0000
0000
3003
0000
0000
,
0000
0000
0001
1000
0100
0010
0200
0000
,
0000
0000
0000
0000
,
0000
0000
0000
0002
,
0000
0003
0000
0020
,
0000
0030
0000
2300
,
0000
0100
0000
0000
0100
0000
0000
0010
,
0000
0100
0100
3002
,
0000
0100
0000
0000
0010
0000
0000
1000
,
0000
0000
0013
0000
1001
0000
1000
0100
,
1000
0001
0010
0001
0100
0010
0100
1000
,
0100
1000
0100
0001
0010
1000
0010
0100
,
0010
0001
0010
0001
0101
0000
1001
0100
,
0010
0100
1000
0001
0110
0000
1001
0010
,
0001
0100
1000
0100
0001
0100
0010
1000
,
0010
0001
0011
0000
1010
1000
0001
0010
,
0001
0010
1000
0010
0110
0000
1001
0100
,
0010
0001
0010
0100
0010
1000
0001
0000
,
0100
1000
0001
0010
,
1000
0000
0100
0010
0001
0000
0010
0000
,
1000
0001
0100
1000
,
0001
0000
0010
0100
1000
0000
0100
0000
,
0010
0001
0100
0010
,
0001
0000
0010
1000
0100
0000
0010
0100
,
1000
0000
0010
0000
0100
1000
0100
0000
,
0001
0000
0100
0001
0010
0000
0001
0000
,
0100
0000
1000
0000
0100
0001
1000
0000
,
0100
0000
1000
0001
0100
0000
1000
0000
,
0100
0001
0010
0100
,
0010
0000
0001
0100
0010
0000
1000
0000
,
0100
0000
0001
0000
0100
1000
0001
0000
,
0100
0000
0001
1000
0100
0000
0001
0100
,
1000
0000
0010
0000
0001
0010
1000
0000
,
0010
0000
1000
0100
0010
0000
0001
0000
,
0010
0000
0100
0000
1000
0100
1000
0100
,
1000
0100
0010
0001
,
0100
0000
0010
0000
0100
0010
0100
0000
,
0001
0000
1100
0000
0100
0000
0010
0001
,
0010
0000
0001
0000
1000
0100
1000
0000
,
0010
0000
0001
0010
0001
0000
0010
0000
,
0100
1000
0100
0000
1000
0000
0100
0000
,
0001
0000
1001
0000
0010
0100
0010
0000
,
0001
0000
1000
0000
0001
0100
0001
0100
,
0001
0010
0100
1000
,
0100
0000
1000
0000
0100
0001
0100
0000
,
1000
0001
0100
0110
,
0010
1000
0100
0010
,
1000
0001
0100
0110
,
0010
0000
0000
0000
0001
0000
0000
0000
0100
0000
0000
0000
0010
0000
0010
0010
,
0110
0000
1010
0000
0011
0001
0010
1000
,
1100
0000
0110
0000
1001
0001
0001
0000
,
0110
0000
1100
0000
0101
0001
0100
1000
,
1010
0000
0011
0000
1001
1000
1000
0000
,
0110
0000
1100
0000
0101
0001
0010
0100
,
1100
0000
0101
0000
1100
1000
1010
0000
,
0101
0000
0001
1001
0000
0100
0110
0000
,
1001
0000
0100
0220
0000
0000
0330
0000
,
1000
0000
0100
0010
0001
0000
1000
0000
,
0010
0100
0001
0000
1000
0000
0001
0010
,
0100
0000
1000
0000
0001
0100
0010
0000
,
0100
0000
0010
0100
0010
0000
1000
0000
,
0100
0000
0010
0001
0100
0000
0010
0000
,
0100
0001
0010
0000
0001
1000
0001
0000
,
0100
0000
0010
1000
0100
0000
0010
0000
,
0100
1000
0010
0000
0001
0000
0010
1000
,
0010
0000
0100
0001
1000
0000
0100
0000
,
0010
0001
0100
0000
0010
0000
1000
0001
,
0100
0000
0010
0000
0100
0001
0010
0000
,
0001
0000
0010
0100
0010
0000
0001
0000
,
1000
0000
0010
1000
0100
0000
0010
0000
,
0100
1000
0010
0000
0001
0000
0010
1000
,
0100
0000
0010
0001
0100
0000
1000
0000
,
0100
0001
0010
0000
0100
0000
1000
0000
,
1100
0000
0000
0000
,
0000
0000
0000
0000
;
#NOTES:
     dance-single:
     :
     Challenge:
     18:
     :
0000
0000
0000
0000
,
0000
0000
0000
0000
,
0000
0000
0000
0000
,
0001
0000
0000
0000
0000
0000
0010
0000
0100
0000
0000
0000
1000
0000
0001
0000
0000
0000
0100
0000
0000
0000
1000
0100
1000
0000
0000
0000
0000
0000
0100
0000
,
0010
0000
0000
0000
0000
0000
1000
0000
0001
0000
0010
0000
0110
0000
0000
0000
0001
0000
0010
0000
1000
0000
0010
0001
0200
0000
0000
0000
0000
0000
0000
0000
,
0000
0000
0310
1000
0010
0100
0001
0000
,
0000
0011
0000
0000
0101
0000
0000
1010
,
0000
0110
0000
0101
,
0000
0011
0000
0000
1100
0000
0000
0110
,
0000
0000
1000
0100
0010
0001
0010
0000
,
0000
1001
0000
0000
1010
0000
0000
0101
,
0000
0011
0000
1010
,
0000
0101
0000
0000
1100
0000
0000
1001
,
0000
0000
1000
0001
0010
1000
0010
0000
,
0001
0010
0001
0010
,
0100
0010
0100
1000
,
0010
1000
0010
0100
,
0001
0000
0100
0000
0001
0000
1000
0001
,
1000
0001
1000
0010
1000
0010
0001
0010
,
1000
0001
1000
0001
0010
0100
0020
0000
,
0000
0000
0000
0030
,
0000
0000
0000
0000
0000
0000
0000
0000
0001
0000
0000
0000
0100
0000
0000
0000
0010
0000
0000
0000
1000
0000
0000
0000
0100
0000
0000
0000
0010
0001
0010
0100
,
0010
0100
0010
0100
1000
0100
1000
0000
1000
0001
1000
0001
1000
0001
1000
0001
1000
0000
0100
0000
0110
0000
0000
0000
0001
0000
0100
0000
2000
0000
0000
0000
,
0100
0000
0000
0010
0000
0000
0001
0000
3001
0000
0100
0000
0001
0000
0100
0000
2000
0000
0000
0000
3100
0000
0000
0000
0101
0000
0000
0000
0010
1000
0001
1000
,
0100
1000
0001
1000
0100
1000
0001
0000
1000
0001
0100
0001
1000
0001
0100
0001
1000
0000
0001
0000
1000
0000
0010
0000
1000
0000
0100
0001
0000
0100
1000
0000
,
0100
0010
0000
0001
0010
0000
1000
0000
0010
0000
0001
0010
0000
1000
0010
0000
0001
0010
0000
0001
1000
0010
0001
0010
1000
0000
0000
0000
0000
0000
0000
0000
,
0001
0000
0010
0000
1000
0000
0010
0001
,
0010
0001
0010
0000
0001
0000
0100
0000
,
0010
0100
0010
0100
0010
0100
0001
0000
,
1000
0000
0001
1000
0001
0000
1010
0000
,
1010
0011
0011
1100
,
1100
0000
0001
1000
0001
1000
0001
0000
,
1000
0010
0000
1000
0001
0000
0100
0010
,
0000
1000
0001
1000
0010
0100
0010
0000
,
1000
0001
0000
0100
0001
0000
0010
0001
,
0000
1000
0001
0000
0010
0100
0010
0000
,
0001
1000
0000
0100
1000
0000
0010
1000
,
0000
0001
1000
0100
0001
0100
1000
0000
,
0001
0100
1000
0100
0001
0010
0001
0010
,
0100
1000
0001
1000
0010
0100
0020
0000
,
0000
0000
0000
0000
,
0030
0000
0001
1000
0100
0001
2000
0000
,
0000
0000
0000
0000
,
0000
0000
0000
0020
,
0000
0030
0000
0200
,
0000
0300
0000
3200
,
0000
1000
0000
0000
0010
0000
0000
0001
,
0000
0010
0010
0000
1300
0010
0200
0000
,
0000
1000
0000
0000
0010
0000
0000
0001
,
0000
0000
0010
0010
0010
0000
0301
1000
,
0001
0010
1000
0010
0001
0100
1000
0100
,
0010
0000
0001
1000
0100
0000
0010
0000
1010
0000
0000
0000
1100
0000
0010
0000
,
0001
0000
1000
0100
1000
0000
0100
0000
0001
0100
0001
0000
1000
0000
0010
0000
,
0001
0000
1000
0100
1000
0000
0001
0000
0100
0001
0100
0000
1001
0000
1000
0000
,
0100
0001
0100
1000
0001
0010
0100
1000
,
0010
0000
0100
1000
0100
0000
0001
0000
0101
0000
0000
0000
1010
0000
0010
0000
,
1000
0000
0001
0010
0100
0000
1000
0000
1100
0000
0010
0001
0010
0000
0001
0000
,
0100
0000
0010
0100
0001
1000
0001
0100
0010
1000
0100
0010
0110
0000
0000
0000
,
0001
0000
0100
0000
0001
1000
0010
0000
,
0001
0000
0010
0000
1000
0000
0001
0010
,
0001
0100
1000
0100
0001
0010
0001
0000
,
0100
0000
0001
0010
0100
0000
0110
0000
,
1000
0000
0100
0000
1000
0001
0010
0000
,
1000
0000
0010
0000
0001
0000
1000
0010
,
1000
0100
0001
0100
1000
0010
1000
0000
,
0100
0000
1000
0100
0010
0000
0011
0000
,
0001
0000
0100
0000
0010
1000
0100
0000
,
1000
0000
0100
0000
0001
0000
0100
1000
,
0010
0100
0010
1000
0100
1000
0010
0000
,
0001
0000
0010
1000
0100
0000
1100
0000
,
1000
0000
0100
0000
0010
0001
0100
0000
,
0001
0000
0100
0000
1000
0000
0100
0001
,
0010
0100
0010
0001
0100
0001
0010
0000
,
1000
0000
0010
0001
0100
0000
0101
0000
,
0001
0000
1000
0000
0100
1000
0100
1000
,
0100
0000
1000
0100
0001
0100
0001
0100
,
0001
0000
0100
0000
0010
0001
0010
0000
,
0001
0000
1000
0100
1000
0000
0020
0000
,
0001
0100
1000
0230
,
1000
0010
0001
0320
,
1000
0000
0100
0000
0031
0000
0100
0010
,
0100
0010
0100
0010
1000
0000
1001
0000
,
0010
0000
0001
0000
0100
0001
0100
0001
,
0100
0000
0001
1000
0100
0001
0100
0001
,
0100
0000
1000
0000
0010
0100
0010
0000
,
1000
0000
0001
1000
0001
0000
0011
0000
,
1000
0010
1001
0100
,
0001
1100
0010
1001
,
0010
0000
0000
0000
0000
0000
0000
0000
1000
0000
0000
0000
0000
0000
0000
0000
1001
0000
0000
0000
0000
0000
0000
0000
0010
0000
0000
0000
1000
0001
1000
0001
,
1000
0001
1001
0000
0011
0000
1100
0000
,
0101
0000
0100
0000
0001
0010
1000
0000
0010
0000
0001
0000
0011
0000
0000
0000
,
0010
0001
0100
0000
0010
1000
0100
0000
0010
0001
0100
0000
0010
1000
0100
0000
,
0001
0100
1000
0000
0001
0010
1000
0000
0001
0100
1000
0000
0001
0010
1000
0000
,
0101
0100
1100
0000
1010
0000
0101
0000
,
1100
0000
0100
0000
1000
0010
0001
0000
0010
0000
1000
0000
1010
0000
0000
0000
,
1001
0001
0100
0010
1000
0100
0101
0000
,
1100
1000
0010
0001
0022
0000
0000
0033
,
1000
0001
0100
0001
0010
0000
0001
1000
,
0100
1000
0010
0000
1000
0001
0010
0001
,
0100
0000
0001
1000
0010
1000
0100
0000
,
1001
0011
1100
0110
,
0010
0001
0100
0010
0100
0000
0001
1000
,
0100
0010
0100
0000
0011
0000
1001
0000
,
0010
1000
0100
0010
0100
0000
1000
0001
,
0100
0010
0100
0000
0001
0100
1000
0100
,
0001
0100
0010
0100
0001
0000
1000
0100
,
0010
0100
1000
0000
0001
0100
0010
0100
,
0001
0000
1000
0100
0010
0100
1000
0000
,
1010
0011
0101
1010
,
0001
0010
1000
0010
0001
0000
1000
0010
,
0001
0010
1000
0000
0001
0010
1000
0010
,
0001
0100
0010
0100
0001
1000
0100
0010
,
1000
0010
0001
0100
0001
0010
0100
1000
,
1100
0000
0000
0000
,
0000
0000
0000
0000
;
#NOTES:
     dance-double:
     :
     Easy:
     10:
     :
00000000
00000000
00000000
00000000
,
00000000
00000000
00000000
00000000
,
00000000
00000000
00000000
00000000
,
00010000
00001000
00010000
00000000
00100000
01000000
00100000
00000000
,
10000000
00010000
10000000
00000000
00010000
00000000
10000000
00000000
,
00000000
00000000
00000000
10000000
,
00000000
00010000
00000000
10000000
,
00000000
01000000
00000000
00100000
,
00000000
00010000
00000000
00100000
,
00000000
00001000
00000000
00010000
,
00000000
00001000
00000000
00010000
,
00000000
00000100
00000000
00000010
,
00000000
00000001
00000000
00000010
,
00000000
00001001
00000000
00001000
,
00000001
00001000
00000000
00000010
,
00001000
00000010
00000000
00010000
,
00001000
00010000
00000000
00001000
,
00010000
00001000
00000000
00100000
,
00010000
00100000
00010000
10000000
,
01000000
10000000
00000000
00100000
,
00000000
00000000
00000000
00000000
,
00000000
00000000
00000000
10010000
,
00010000
00000000
00100000
00100000
00010000
00000000
00100000
01000000
,
10000000
00000000
00100000
00010000
00001000
00000000
00011000
00000000
,
00010000
00000000
00000100
00000100
00010000
00000000
00000010
00000100
,
00000001
00000000
00000010
00000100
00001000
00000000
00002001
00000000
,
00000000
00003000
00000000
00000010
,
00001000
00000010
00000000
00000100
,
00000000
00000001
00000000
00000100
,
00001000
00010000
00000000
00022000
,
00000000
00033000
00000000
00010000
,
00001000
00010000
00000000
00100000
,
00000000
10000000
00000000
01000000
,
00010000
01000000
00000000
20000000
,
00000000
30000000
00000000
00010000
,
00100000
00010000
00000000
00100000
,
00000000
00001000
00000000
00000010
,
00000001
00001000
00000000
00000010
,
00000100
00000010
00000100
00000001
,
00001000
00000001
00000000
00001001
,
00000000
00000000
00000000
00000000
,
00000000
00000000
00000000
00001002
,
00000000
00000000
00000000
00000000
,
00000000
00000000
00000003
00002000
,
00000000
00000000
00003000
00000200
,
00000000
00000000
00000300
00020000
,
00000000
00000000
00000000
00000000
,
00000000
00000000
00030000
00200000
,
00000000
00000000
00300000
02000000
,
00000000
00000000
03000000
00010000
,
10000000
01000000
00100000
01000000
,
00100000
00010000
00100000
00001000
,
00010000
00000100
00000010
00000001
,
00000010
00000100
00001000
00000001
,
00001000
00000001
00000100
00001000
,
00000100
00001000
00010000
00001000
,
00010000
00000010
00010000
00001000
,
01000000
00010000
00100000
00001000
,
00000000
00100000
00000000
00001000
,
00000000
00010000
00000000
00100000
,
00000000
10000000
00000000
00010000
,
00010000
10000000
00000000
01000000
,
00000000
00010000
00000000
00001000
,
00000000
00000010
00000000
00000001
,
00000000
00000100
00000000
00001000
,
00000000
00010000
00010000
00100000
,
00000000
10000000
00000000
01000000
,
00000000
00010000
00000000
01000000
,
00000000
00100000
00000000
00001000
,
00001000
00010000
00000000
00000010
,
00000000
00001000
00000000
00000010
,
00000000
00000001
00000000
00000010
,
00000000
00001000
00000000
00000001
,
00000000
00001000
00001000
00000100
,
00001000
00000100
00000000
00010000
,
00010000
00001000
00000000
00100000
,
00010000
00100000
00000000
00001000
,
00001000
00010000
00000000
00000010
,
00000000
00000100
00000000
00001000
,
00000000
00010000
00000000
01000000
,
00000000
00100000
00000000
00010000
,
00010000
10000000
00000000
01000000
,
10000000
01000000
00000000
00010000
,
00010000
00001000
00000000
00010000
,
00001000
00010000
00000000
00001000
,
00001000
00000100
00000000
00000001
,
00000000
00000100
00000000
00000010
,
00000000
00001000
00000000
00010000
,
00000000
01000000
00000000
00100000
,
10000000
10000000
10000000
10000000
,
01000000
00010000
00011000
00011000
,
00000100
00000100
00000100
00000100
,
00000001
00001000
00001001
00001001
,
00000001
00000100
00001000
00011000
,
00010000
00100000
10000000
10010000
,
00010000
00100000
00001000
01000000
,
00010000
00100000
00001000
00000000
,
00010000
00000000
00010000
00001000
,
00000010
00000000
00000001
00001000
,
00000001
00000000
00000010
00000001
,
00001000
00000100
00010000
00000000
,
00010000
00000000
00001000
00010000
,
00100000
00000000
10000000
00010000
,
10000000
00000000
00100000
10000000
,
00010000
01000000
00001000
00000000
,
00001000
00000000
00000010
00001000
,
00010000
00000000
00000010
00001000
,
00010000
00000000
00100000
00010000
,
01000000
00001000
00010000
00000000
,
00010000
00000000
00100000
00010000
,
00001000
00000000
00100000
00010000
,
00001000
00000000
00000010
00000000
,
00001000
00000010
00010000
00001000
,
00010000
00000000
00000000
00000000
,
00000000
00000000
00000000
00000000
;
#NOTES:
     dance-double:
     :
     Medium:
     13:
     :
00000000
00000000
00000000
00000000
,
00000000
00000000
00000000
00000000
,
00000000
00000000
00000000
00000000
,
01000000
00000000
00000000
00000000
00100000
00000000
10000000
00000000
01000000
00100000
00010000
00000000
00110000
00000000
00000000
00000000
,
00000100
00000000
00000000
00000000
00010000
00000000
00001000
00000000
00000010
00000001
00000100
00000000
00000101
00000000
00000000
00000000
,
00000000
00000000
00000000
00001000
,
00000000
00000100
00000000
00000000
00000010
00000000
00000000
00000100
,
00000000
00001000
00000000
00000001
,
00000000
00000100
00000000
00000000
00000010
00000000
00000000
00000100
,
00000000
00000001
00000000
00000010
,
00000000
00001000
00000000
00000000
00010000
00000000
00000000
00001000
,
00000000
00000010
00000000
00001000
,
00000000
00010000
00000000
00000000
01000000
00000000
00000000
00010000
,
00000000
00001000
00000000
01000000
,
00010000
01000000
00010000
10000000
,
01000000
00010000
00000000
00000010
,
00001000
00000010
00001000
00000001
,
00000100
00001000
00000000
00010000
,
00001000
00100000
00010000
10000000
,
00100000
10000000
00010000
02010000
,
00000000
00000000
00000000
00000000
,
00000000
03100000
00000000
10010000
,
00100000
00000000
00001000
00000000
00010000
00001000
00010000
00001000
00010000
00000000
00001000
00000000
00000010
00000000
00002000
00000000
,
00010000
00000000
00003100
00000010
00000100
00000000
00011000
00000000
,
00010000
00000000
00100000
00000000
10000000
00010000
10000000
00010000
10000000
00000000
00100000
00000000
10000000
00000000
10000000
00000000
,
00010000
00000000
01000000
00000000
00100000
00000000
00010000
00000000
00001000
00010000
00001000
00000010
00000001
00000000
00000000
00000000
,
00000000
00001100
00000000
00000010
,
00000100
00000010
00000000
00000001
,
00000010
00000100
00001000
00000010
,
00000100
00001000
00000000
00010000
,
00001000
00010000
00100000
00010000
,
00001000
00000100
00001000
00010000
,
00100000
10000000
00100000
10000000
,
00010000
10010000
00000000
00010000
,
10000000
00100000
00010000
00001000
,
00000010
00000110
00000000
00001000
,
00000001
00000010
00001000
00010000
,
00100000
01100000
00000000
00010000
,
01000000
10000000
01000000
00010000
,
00100000
10000000
00100000
00002000
,
00000000
00010000
00000000
00010000
,
00000000
00003100
00000000
00000200
,
00000000
00000000
00000000
00000000
,
00000000
00000000
00000000
00000020
,
00000000
00000030
00000000
00002000
,
00000000
00003000
00000000
00020300
,
00000000
00000000
00000000
00000000
,
00000000
00000000
00000000
02000000
,
00000000
03000000
00000000
00200000
,
00000000
00000000
00300000
00000000
00000000
00000000
10030000
01000000
,
10000000
01000000
00000000
01000000
10000000
00100000
10000000
00100000
,
00000000
00100000
01000000
00010000
00100000
00000000
00100000
00001000
,
00100000
00001000
00000000
00001000
00010000
00000000
00000010
00001000
,
00000010
00001000
00000000
00001000
00000100
00000000
00000010
00000001
,
00000010
00000001
00000000
00000001
00000100
00000001
00000100
00001000
,
00000000
00001000
00010000
00001000
00100000
00000000
01000000
00100000
,
01000000
00100000
00000000
00100000
00001000
00010000
00100000
00010000
,
00001000
00010000
00000000
00010000
00001000
00000000
00000100
00000000
,
00000001
00000100
00000001
00000000
,
00000001
00000100
00001000
00010000
,
00001000
00000000
00010000
00011000
,
00000000
01010000
00000000
10000000
,
01000000
10000000
01000000
00000000
,
01000000
00010000
00000000
00001000
,
00000100
00001000
00000100
00000000
,
00000100
00000001
00000000
00001000
,
00000100
00001000
00000100
00000000
,
00000010
00000001
00000010
00001000
,
00010000
00000000
00100000
00110000
,
00000000
10100000
00000000
10000000
,
01000000
00010000
00001000
00000000
,
00001000
00000010
00000000
00000001
,
00001000
00000001
00000100
00000000
,
00000100
00001000
00000000
00001000
,
00100000
00010000
01000000
10000000
,
01000000
00020000
00000000
10030000
,
01000000
00010000
00000000
00001000
,
00000100
00000001
00000000
00001000
,
00000010
00000100
00000001
00000010
,
00000100
00010000
00001000
00010000
,
00100000
01000000
00100000
10000000
,
01000000
00010000
00000000
00011000
,
00000000
01000000
10000000
01000000
,
00010000
02000000
00000000
03100000
,
00010000
01000000
00001000
00010000
,
00001000
00000100
00000000
00000001
,
00001000
00000001
00000010
00000100
,
00000010
00000001
00000100
00001000
,
00000100
00000010
00001000
00000100
,
00010000
01000000
10000000
01000000
,
01010000
11000000
01010000
00011000
,
00001000
00000100
00000001
00000100
,
00001100
00000101
00001100
00011000
,
00010000
01000000
01100000
00101000
,
00011000
01001000
01100000
01001000
,
00001000
00010000
00001000
00000100
00000010
00000100
00001000
00010000
,
00000100
00000010
00000100
00001000
00000200
00000000
00000000
00000000
,
00001300
00000100
00000010
00000001
,
00000100
00000010
00001000
00000100
,
00000010
00000001
00000100
00000010
,
00001000
00000100
00000001
00000100
,
00001000
00000100
00010000
00001000
,
00000010
00000100
00010000
00001000
,
00010000
00100000
01000000
00001000
,
00010000
00100000
10000000
01000000
,
00010000
00001000
00000010
00010000
,
00001000
00000010
00000100
00000001
,
00000010
00000100
00001000
00000010
,
00000100
00001000
00010000
00100000
,
10000000
01000000
00100000
00010000
,
00001000
00000100
00000010
00000001
,
00001000
00000001
00000100
00010000
,
00000100
00000001
00000010
00001000
,
00010000
00000000
00000000
00000000
,
00000000
00000000
00000000
00000000
;
#NOTES:
     dance-double:
     :
     Hard:
     16:
     :
00000000
00000000
00000000
00000000
,
00000000
00000000
00000000
00000000
,
00000000
00000000
00000000
00000000
,
00001010
00000000
00000000
00001000
00000010
00000000
00010000
00000100
00001000
00000100
00000010
00000000
00000011
00000000
00000000
00000001
,
00000100
00000000
00000000
00001000
00010000
00001000
00010000
01000000
00100000
00010000
10000000
00000000
10010000
00000000
00000000
00000000
,
00000000
00000000
00010000
10000000
01000000
00100000
00010000
00000000
,
00000000
01000000
00000000
00000000
00001000
00000000
00000000
00100000
,
00000000
00101000
00000000
00000010
,
00000000
00000001
00000000
00000000
00000100
00000000
00000000
00001000
,
00000000
00001100
00000000
00000010
,
00000000
00010000
00000000
00000000
00000100
00000000
00000000
00010000
,
00000000
00110000
00000000
10000000
,
00000000
01000000
00000000
00000000
00001000
00000000
00000000
01000000
,
00000000
11000000
00000000
00100000
,
10000000
00100000
10000000
01000000
,
00100000
01000000
00100000
00010000
,
00100000
00010000
00100000
00001000
,
00010000
00000000
00000100
00000000
00001000
00000000
00000010
00000100
,
00000010
00000000
00000100
00000001
00000100
00000000
00000010
00001000
,
00000010
00001000
00000100
00010000
00001000
00010000
00002000
00000000
,
00000000
00000000
00000000
00003000
,
00000000
00000000
00000000
00000000
01100000
00000000
00000000
00000000
00000000
00000000
00000000
00000000
11000000
00000000
00000000
10000000
,
01000000
00000000
00000000
00000000
00100000
00000000
00000000
00000000
00010000
00100000
00010000
00100000
00010000
00000000
10000000
00000000
00010000
00000000
10000000
00000000
00000000
00000000
10000000
00000000
01000000
00000000
00000000
00000000
00010000
00000000
00001000
00000000
,
00010000
00000000
00000000
00010000
00000000
00000000
00010000
00000000
00000010
00000000
00000001
00000000
00000000
00000000
00000010
00000000
00001000
00000000
00000000
00000000
00000000
00000000
00000000
00000000
00000001
00000000
00000000
00000000
00000010
00000000
00001000
00000000
,
00010000
00000000
00001000
00000000
00000010
00000000
00000000
00000000
00001000
00010000
00001000
00010000
00001000
00000000
00010000
00000000
01000000
00000000
10000000
00000000
11000000
00000000
00000000
00000000
00010000
00000000
00000000
00010000
00000000
00000000
00100000
00000000
,
00000000
00100000
00000000
00000000
00010000
00000000
00000000
00000000
00001000
00000000
00000000
00001000
00000000
00000000
00000010
00000000
00000000
00000010
00000000
00000000
00001000
00000000
00000000
00000000
00001001
00000000
00000000
00000000
00000000
00000000
00000000
00000000
,
00000000
00000000
00000010
00000000
00000001
00000000
00000100
00001000
,
00000100
00000010
00000000
00010000
,
00001000
00000000
00000010
00001000
00000010
00000000
00001000
00000000
,
00010000
00100000
00000000
10000000
,
01000000
00000000
00010000
01000000
10000000
00000000
00100000
00000000
,
00010000
00000000
00001000
00010000
00100000
00000000
10000000
00000000
,
01000000
00010000
00000100
00000010
,
00000001
00000000
00001000
00000001
00001000
00000000
00001001
00000000
,
00000001
00001000
00000100
00000000
00000010
00000000
00000100
00001000
,
00000100
00010100
00000000
00011000
,
00001000
00010000
00001000
00000000
00010000
00000000
00001000
00010000
,
01000000
00000000
01100000
00000000
00000000
00000000
10000000
00100000
,
10000000
00000000
00010000
00100000
00010000
00000000
00001000
00000100
,
00001000
00000100
00000010
00000100
00001000
00000200
00002000
00000000
,
00000000
00000000
00000000
00003300
,
00000000
00000000
00001000
00000100
00000010
00000001
00000200
00000000
,
00000000
00000000
00000000
00000000
,
00000000
00000000
00000000
00000002
,
00000000
00000003
00000000
00000020
,
00000000
00000030
00000000
00020300
,
00000000
01000000
00000000
00000000
01000000
00000000
00000000
00100000
,
00000000
01000000
01000000
00032000
,
00000000
00000100
00000000
00000000
00000010
00000000
00000000
00010000
,
00000000
00000000
00003010
00000000
00011000
00000000
10000000
01000000
,
10000000
00010000
00100000
00010000
01000000
00100000
01000000
00001000
,
00010000
00001000
00011000
00000000
00000110
00000010
00000100
00001000
,
00000100
00000001
00000010
00000001
00001000
00000100
00000010
00000001
,
00001000
00000100
00001100
00000000
00011000
00001000
00010000
00100000
,
00010000
00001000
00010000
00001000
00100000
01000000
00100000
00010000
,
10000000
00010000
01000000
00100000
00010000
00001000
00000100
00000001
,
00000100
00001000
00010000
00100000
10000000
00100000
00010000
00000010
,
00010000
00001000
00000010
00000001
00000100
00001000
00010000
00000000
,
01000000
10000000
00010000
00100000
,
10000000
00000000
00100000
00010000
00001000
00000000
00000100
00000000
,
00000001
00000100
00001000
00000010
,
00000001
00000000
00000010
00000100
00000001
00000000
00001100
00000000
,
00000100
00000010
00000100
00010000
,
01000000
00000000
00100000
00010000
10000000
00000000
01010000
00000000
,
01000000
00100000
00010000
00001000
,
00000100
00000000
00000010
00000100
00000001
00000000
00000100
00000000
,
00001000
00010000
00001000
00100000
,
01000000
00000000
00100000
00010000
10000000
00000000
00100000
00000000
,
01000000
10000000
01000000
00100000
,
00010000
00000000
00001000
00000100
00000010
00000000
00001000
00000000
,
00000100
00000001
00000100
00001000
,
00000010
00000000
00001000
00010000
00001000
00000000
00010000
00000000
,
01000000
10000000
01000000
00010000
,
00100000
00000000
00010000
00001000
00010000
00000000
00001000
00000000
,
00000100
00000000
00000010
00000000
00000001
00000100
00000001
00000100
,
00000001
00001000
00000100
00010000
,
00001000
00000000
00000010
00000000
00000100
00000010
00000100
00000000
,
00010000
00000000
00011000
00000000
00000000
00000000
00001000
00010000
,
00001000
00000000
00010000
00000000
00100000
10000000
00100000
00000000
,
10000000
00000000
01000000
00010000
01000000
00000000
00010000
00000000
,
01000000
10000000
01000000
00000000
10000000
00000000
01000000
00000000
,
00010000
00000000
00001000
00010000
00001000
00010000
00001000
00000000
,
00000100
00000000
00000001
00000000
00001000
00000100
00001000
00000100
,
00001000
00000010
00001000
00010000
,
01000000
00000000
10000000
00000000
01000000
00010000
01000000
00000000
,
00010000
10000000
01000000
01100000
,
00100000
00010000
01000000
00100000
,
00010000
00001000
00010000
00011000
,
00001000
00000000
00000010
00000000
00000001
00000000
00000100
00000100
,
00000110
00000000
00001010
00000000
00000011
00000001
00000010
00001000
,
00001100
00000000
00000110
00000000
00011000
00001000
00001000
00000000
,
01100000
00000000
11000000
00000000
01010000
00010000
01000000
10000000
,
10100000
00000000
00110000
00000000
00011000
00010000
00010000
00000000
,
00000110
00000000
00000101
00000000
00001100
00001000
00010000
01000000
,
01010000
00000000
11000000
00000000
01100000
00100000
00110000
00000000
,
00011000
00000000
00000010
00000110
00000000
00001000
00001001
00000000
,
00010100
00000000
00100000
00202000
00000000
00000000
00303000
00000000
,
00010000
01000000
00100000
00010000
,
00001000
00000010
00001000
00010000
,
00100000
00010000
00001000
00000010
,
00001000
00000000
00100000
00010000
00100000
00000000
00001000
00000000
,
00000010
00000001
00000010
00001000
,
00010000
00000000
00100000
00000000
00010000
00001000
00010000
00000000
,
00001000
00000010
00000100
00010000
,
00001000
00000100
00001000
00000000
00010000
00000000
01000000
10000000
,
01000000
00000000
00100000
00010000
00100000
00000000
00001000
00000000
,
00000100
00001000
00000100
00000000
00001000
00000000
00010000
01000000
,
00010000
00000000
00001000
00000000
00000100
00001000
00000100
00000000
,
00000001
00000000
00000010
00000100
00000010
00000000
00001000
00000000
,
00010000
00000000
00001000
00010000
00000010
00000000
00000100
00000000
,
00000001
00000100
00000010
00000000
00010000
00000000
00001000
00010000
,
00001000
00000000
00100000
01000000
00100000
00000000
00001000
00000000
,
00010000
00100000
00010000
00000000
00001000
00000000
00000100
00000000
,
00000101
00000000
00000000
00000000
,
00000000
00000000
00000000
00000000
;
#NOTES:
     dance-double:
     :
     Challenge:
     18:
     :
00000000
00000000
00000000
00000000
,
00000000
00000000
00000000
00000000
,
00000000
00000000
00000000
00000000
,
00010000
00000000
00000000
00000000
00000000
00000000
00100000
00000000
01000000
00000000
00000000
00000000
00010000
00000000
10000000
00000000
00000000
00000000
01000000
00000000
00000000
00000000
00010000
00001000
00010000
00000000
00000000
00000000
00000000
00000000
00000100
00000000
,
00000010
00000000
00000000
00000000
00000000
00000000
00000001
00000000
00001000
00000000
00000010
00000000
00000010
00000000
00000000
00000000
00000100
00000000
00001000
00000000
00010000
00000000
00100000
10000000
02000000
00000000
00000000
00000000
00000000
00000000
00000000
00000000
,
00000000
00000000
03100000
00001000
00010000
00001000
00000100
00000000
,
00000000
00001001
00000000
00000000
00010100
00000000
00000000
00000110
,
00000000
00011000
00000000
01001000
,
00000000
00110000
00000000
00000000
01100000
00000000
00000000
11000000
,
00000000
00000000
10000000
01000000
00100000
00010000
00100000
00000000
,
00000000
00011000
00000000
00000000
00001010
00000000
00000000
00011000
,
00000000
01010000
00000000
10010000
,
00000000
00101000
00000000
00000000
01100000
00000000
00000000
00011000
,
00000000
00000000
00001000
00010000
00001000
00000010
00000001
00000000
,
00001000
00000001
00001000
00000010
,
00010000
00000010
00010000
00001000
,
00100000
00001000
00100000
01000000
,
10000000
00000000
01000000
00000000
10000000
00000000
00010000
10000000
,
00010000
10000000
00010000
00100000
00010000
00100000
00001000
00010000
,
00000010
00000100
00000010
00000100
00000001
00000010
00000200
00000000
,
00000000
00000000
00000000
00000300
,
00000000
00000000
00000000
00000000
00000000
00000000
00000000
00000000
00010000
00000000
00000000
00000000
00000100
00000000
00000000
00000000
00001000
00000000
00000000
00000000
00000010
00000000
00000000
00000000
00000100
00000000
00000000
00000000
00000001
00000000
00000010
00000001
,
00000010
00000000
00000000
00000000
00001100
00000000
00000000
00000000
00010000
00001000
00010000
00001000
00010000
00001000
00010000
00001000
00010000
00000000
00100000
00000000
01100000
00000000
00000000
00000000
10000000
00000000
01000000
00000000
00020000
00000000
00000000
00000000
,
00001000
00000000
00000000
00100000
00000000
00000000
00001000
00000000
00031000
00000000
01000000
00000000
10000000
00000000
01000000
00000000
00002000
00000000
00000000
00000000
00003010
00000000
00000000
00000000
00000101
00000000
00000000
00000000
00000010
00001000
00000010
00001000
,
00000100
00001000
00000100
00001000
00000100
00001000
00000100
00000000
00010000
00001000
00010000
00001000
00010000
00001000
00100000
00001000
00010000
00000000
00001000
00000000
00100000
00000000
01000000
00000000
10000000
00000000
01000000
00010000
00000000
01000000
10000000
00000000
,
01000000
00100000
00000000
00010000
00100000
00000000
00001000
00000000
00000100
00000000
00000001
00000100
00000000
00001000
00000100
00000000
00000001
00000100
00000000
00000010
00001000
00000100
00010000
00001000
00010000
00000000
00000000
00000000
00000000
00000000
00000000
00000000
,
00001000
00000000
00100000
00000000
10000000
00000000
00100000
00010000
,
00100000
00010000
00100000
00000000
00001000
00000000
00000100
00000000
,
00000010
00000100
00000010
00000100
00000010
00000100
00000001
00000000
,
00001000
00000000
00000001
00001000
00000001
00000000
00000100
00000000
,
00010000
00000000
00000100
00000000
00010000
00000100
00000001
00000000
,
00000100
00000000
00000001
00000000
00000010
00001000
00010000
00000000
,
00001000
00000010
00000000
00001000
00010000
00000000
01000000
00100000
,
00000000
00010000
10000000
00000000
00100000
01000000
00100000
00000000
,
10000000
00010000
00000000
01000000
00010000
00000000
00100000
00010000
,
00000000
00001000
00000100
00000000
00000010
00000100
00000010
00000000
,
00000001
00001000
00000000
00000100
00001000
00000000
00000010
00001000
,
00000000
00010000
01000000
00010000
01000000
00100000
01000000
00000000
,
00010000
01000000
00000000
10000000
01000000
00000000
00010000
00100000
,
00001000
00010000
00000010
00001000
00000001
00000100
00000002
00000000
,
00000000
00000000
00000000
00000000
,
00000003
00000000
00001000
00000001
00000100
00001000
00020000
00000000
,
00000000
00000000
00000000
00000000
,
00000000
00000000
00000000
00002000
,
00000000
00003000
00000000
02000000
,
00000000
03000000
00000000
02030000
,
00000000
10000000
00000000
00000000
00100000
00000000
00000000
00010000
,
00000000
00100000
00100000
00000000
13000000
00100000
00020000
00000000
,
00000000
00001000
00000000
00000000
00100000
00000000
00000000
00001000
,
00000000
00000000
00000100
00000100
00000100
00000000
00031000
00010000
,
00001000
00000010
00000001
00000010
00001000
00010000
00001000
01000000
,
10000000
00000000
01000000
00001000
00010000
00000000
00001000
00000000
00001100
00000000
00000000
00000000
00000001
00000000
00000100
00000000
,
00001000
00000000
00010000
00100000
00010000
00000000
00001000
00000000
00000010
00001000
00000010
00000000
00001000
00000000
00010000
00000000
,
00100000
00000000
01000000
00001000
00010000
00000000
00100000
00000000
01000000
10000000
01000000
00000000
10000000
00000000
01000000
00000000
,
00010000
00100000
00010000
00001000
00100000
00010000
00001000
00000100
,
00010000
00001000
00001100
00000000
00000011
00000010
00001000
00010000
,
00000010
00000000
00001000
00000000
00010000
00000000
01000000
00000000
00001000
00010000
01000000
00000000
00010000
00000000
01000000
00000000
,
10000000
00000000
00100000
00010000
00001000
00000000
00100000
00000000
00010000
00000000
00001000
00000000
00000100
00000000
00000000
00000000
,
00000100
00000000
00000010
00000000
00001000
00010000
00001000
00000000
,
00010000
00000000
00001000
00000000
00000010
00000000
00000001
00000010
,
00001000
00000000
00000001
00000000
00001000
00000010
00000001
00000000
,
00000100
00001000
00010000
00001000
,
01000000
00000000
00100000
00000000
00010000
00100000
00010000
00000000
,
00100000
00000000
10000000
00000000
01000000
00000000
00010000
00001000
,
01000000
00000000
00010000
00000000
01000000
00001000
00010000
00000000
,
01000000
10000000
00010000
01000000
,
00100000
00000000
00010000
00000000
00100000
10000000
01000000
00000000
,
10000000
00000000
01000000
00000000
00010000
00000000
01000000
10000000
,
00100000
00000000
01000000
00000000
00100000
10000000
01000000
00000000
,
00010000
00001000
00000010
00000001
,
00000010
00000000
00001000
00000000
00000001
00000100
00001000
00000000
,
00000100
00000000
00010000
00000000
00001000
00000000
01000000
00100000
,
01000000
00000000
00001000
00000000
00000100
00000010
00000100
00000000
,
00010000
01010000
00000000
10000000
,
00010000
00000000
00100000
00000000
01000000
10000000
01000000
10000000
,
01000000
00000000
10000000
00000000
00010000
01000000
00010000
01000000
,
00010000
00000000
00100000
00000000
00001000
00010000
00001000
00000000
,
00000100
00000000
00000001
00000100
00000001
00000000
00000100
00000010
,
00000100
00000000
00000001
00000000
00001000
00000100
00001000
00000000
,
00010000
00000000
00100000
00010000
00100000
00000000
01000000
00000000
,
10000000
01000000
10000000
00000000
00010000
00000000
01000000
00100000
,
01000000
00100000
01000000
00100000
10000000
00000000
00010000
00000000
,
00100000
00000000
00001000
00000000
00010000
00001000
00010000
00001000
,
00010000
00000000
00100000
00000000
00010000
00001000
00010000
00001000
,
00010000
00000000
00001000
00000000
00000010
00000100
00000010
00000000
,
00000100
00000000
00010000
00001000
00010000
00000000
00011000
00000000
,
00100000
10000000
10010000
01000000
,
00010000
00001000
00000010
00001001
,
00000100
00000000
00000000
00000000
00000000
00000000
00000000
00000000
00001000
00000000
00000000
00000000
00000000
00000000
00000000
00000000
00011000
00000000
00000000
00000000
00000000
00000000
00000000
00000000
00100000
00000000
00000000
00000000
10000000
00010000
10000000
00010000
,
10000000
00010000
00011000
00000000
00110000
00000000
00001010
00000000
,
00010100
00000000
00000100
00000000
00001000
00000010
00000001
00000000
00000010
00000000
00001000
00000000
00001010
00000000
00000000
00000000
,
00010100
01001000
00010100
00001010
,
00000101
00001010
00110000
01001000
,
00011000
00010000
00000110
00000000
00000011
00000000
00011000
00000000
,
00000110
00000000
00000100
00000000
00000001
00000010
00001000
00000000
00000010
00000000
00000001
00000000
00000011
00000000
00000000
00000000
,
00000110
00000100
00001000
00000001
00000100
00001000
00011000
00000000
,
10100000
10000000
01000000
00010000
00022000
00000000
00000000
00033000
,
00010000
00000000
00000010
00001000
00000010
00000000
00000001
00000000
,
00000010
00001000
00000100
00000000
00010000
00000000
00000100
00000010
,
00001000
00000000
00010000
00000000
01000000
00100000
00010000
00000000
,
10000000
00010000
00001000
00000001
,
00000010
00000000
00000001
00000100
00001000
00000000
00000001
00000000
,
00001000
00000100
00000001
00000000
00000010
00000000
00000001
00000000
,
00001000
00000000
00000010
00010000
00001000
00000000
00000010
00000000
,
00001000
00010000
01000000
00000000
10000000
01000000
10000000
00000000
,
01000000
10000000
01000000
00100000
00010000
00000000
00100000
00001000
,
00010000
00001000
00000010
00000000
00000001
00000100
00000001
00000100
,
00000010
00000000
00010000
00001000
00010000
00100000
01000000
00000000
,
00010000
10000000
00010000
10000000
01000000
00100000
01000000
00000000
,
10000000
00100000
00010000
00100000
10000000
00000000
01000000
00010000
,
00001000
00010000
01000000
00000000
00010000
00000100
00001000
00000100
,
00000010
00000001
00000100
00001000
00000100
00000010
00010000
00001000
,
00010000
00100000
00010000
00001000
00100000
01000000
10000000
01000000
,
00100000
00000000
00000000
00000000
,
00000000
00000000
00000000
00000000
;
