
//----- song ID: coli -----//
#TITLE:Come to Life;
#ARTIST:ARM (IOSYS) feat. Nicole Curry;
#BANNER:Come to Life.png;
#BACKGROUND:Come to Life-bg.png;
#CDTITLE:./CDTitles/DDR A.png;
#MUSIC:Come to Life.ogg;
#SAMPLESTART:99.382;
#SAMPLELENGTH:15;
#BPMS:0=180,68=90,85=180,278=90,286=180;
#STOPS:68=0.667,117=1;
#NOTES:
     dance-single:
     :
     Beginner:
     4:
     :
0000
0000
0000
0000
,
0000
0000
0000
0000
,
0000
0000
0000
0000
,
0000
0000
0000
0000
,
0000
0000
0000
0000
,
0000
0000
0000
0000
,
1000
1000
1000
0000
,
0001
0001
0001
0000
,
0020
0000
0000
0030
,
0100
0000
0000
0000
,
0001
0001
0001
0000
,
1000
1000
1000
0000
,
0010
0000
0010
0000
,
0020
0000
0030
0000
,
0100
0000
0100
0100
,
0000
0001
0000
0001
,
0001
0000
1000
0000
,
1001
0000
0010
0010
,
0000
0000
1000
1000
,
0000
0000
0001
0001
,
0000
0000
0010
0010
,
0000
0010
0000
0010
,
0020
0000
0000
0000
,
0030
1000
0000
1000
,
2000
0000
0000
0000
,
3000
0001
0000
0001
,
0000
0010
0000
0010
,
0000
1000
0000
1000
,
0000
0001
0000
0001
,
0000
1001
0000
0010
,
0000
0010
0000
0100
,
0000
0100
0000
0010
,
0000
0010
0000
0100
,
0000
0100
0000
0001
,
0000
0001
0000
1000
,
0000
1000
2000
0000
,
0000
0000
0000
0000
,
0000
0000
0000
3000
0000
0000
0001
0000
,
0000
0001
0000
1000
,
0000
1000
0000
0001
,
0000
0001
0000
1000
,
0000
1000
0000
0010
,
0000
0010
0000
0100
,
0100
0100
0000
0001
,
0000
0001
0000
1000
,
0000
1000
1000
0000
,
0000
0002
0000
0000
,
0000
0003
0000
1000
,
0000
1000
0000
0010
,
0000
0010
0000
0001
,
0000
0001
0000
0010
,
0000
0010
0000
1000
,
0000
1000
0000
0001
,
0000
0001
0000
0100
,
0100
0100
0000
0001
,
0000
1000
0000
0010
,
0010
0010
0000
1000
,
1000
0000
0001
0001
,
0001
0000
1000
1000
,
1000
0000
0010
0010
,
0010
0000
1000
0000
,
1000
0000
0001
0000
,
0000
0000
0100
0000
,
0000
0000
1000
0000
,
0000
0000
0010
0000
,
0000
0000
0001
0000
,
0000
0000
0100
0000
,
0000
0000
1000
0000
,
0000
0000
0001
0000
,
0000
0000
0100
0000
,
0100
0000
0001
0001
,
0001
0000
0000
1000
,
0000
1000
0000
0010
,
0000
0010
0000
1000
,
0000
1000
0000
0001
,
0000
0001
0000
1000
,
0000
0100
0000
1000
,
0000
0100
0000
0001
,
0000
0010
0000
0001
,
0000
0010
0020
0000
,
0000
0000
0000
0000
,
0030
0000
0002
0000
,
0000
0000
0000
0000
,
0000
0000
0003
0000
,
0000
0000
0000
0000
;
#NOTES:
     dance-single:
     :
     Easy:
     8:
     :
0000
0000
0000
0000
,
0000
0000
0000
0000
,
0000
0000
0000
0000
,
0000
0000
0000
0000
,
0000
0000
0000
0000
,
0000
0000
0000
0000
,
1000
0000
0001
0000
0010
0001
0010
0000
,
0001
0000
1000
0000
0010
1000
0010
0000
,
0020
0000
0000
0030
,
0100
0000
0000
0000
,
1000
0000
0010
0000
1000
0001
1000
0000
,
0001
0000
0010
0000
0001
1000
0001
0000
,
0100
0010
0100
0010
,
0200
0000
0000
0300
,
0001
1000
0100
0100
,
1000
0001
0100
0100
,
0010
1000
0100
0001
,
0010
1000
0100
0001
,
0000
0001
0100
1000
,
0000
1000
0010
0010
,
0000
0100
0001
0100
,
0100
0001
0000
0010
,
0010
0000
0100
0000
1000
0000
0100
1000
,
0100
1000
0000
0010
,
0010
0000
0100
0000
0001
0000
0100
0001
,
0100
0010
0100
0001
,
0000
1000
0100
0010
,
0001
0001
0100
1000
,
0100
0001
0100
0010
,
0000
1001
0001
0001
,
1000
1000
0010
0100
,
0010
1000
0010
0000
0100
0000
0100
0000
,
0010
0010
1000
0001
,
1000
0100
1000
0000
0000
0000
0110
0000
,
0100
1000
0001
0100
,
0001
0010
0001
0000
2000
0000
0010
0000
,
0001
0001
3002
0010
,
1000
1003
0000
0110
,
0110
1000
0001
0010
,
0001
1000
0010
0000
1001
0000
1001
0000
,
1000
0010
0100
0010
,
1000
0001
0100
0000
0001
0000
0000
0000
,
0100
0010
1000
0100
,
0010
0000
0001
1000
0000
0000
0000
0001
,
0000
0000
0000
0010
0000
0000
0000
0000
,
0001
0000
1000
0000
1001
0000
0000
0100
,
0000
0200
0000
0000
,
0300
0000
1000
0010
,
0010
1000
0001
0010
,
0010
0001
0010
0000
0100
0000
0010
0000
,
0010
1000
0010
0010
,
0100
1000
0100
0000
1000
0000
0010
0000
,
0010
0100
0010
0010
,
1000
0000
0001
0001
1000
0000
0000
0010
,
0000
0020
0000
0000
,
0000
0000
0000
0000
0031
0000
0000
0010
,
0000
0020
0000
0000
,
0000
0000
0130
0100
,
0001
0001
0010
0010
,
0100
0000
0100
1000
0001
0000
0100
0000
,
1000
0000
0100
0001
1000
0000
0010
0000
,
0100
0010
1000
0000
,
0100
0000
0001
0000
,
0100
0000
1000
0000
,
0010
0000
0001
0000
,
0010
0000
1000
1000
,
0100
0000
0001
0001
,
0100
0000
1000
0000
,
0010
0000
0001
0000
,
0100
0000
0000
0000
1000
0000
0000
0010
,
0010
0000
0000
0000
0001
0000
0000
0100
,
0100
0000
1000
0001
,
0100
0100
0010
0100
,
0001
0010
0001
0000
1000
0000
0001
0000
,
1000
0000
0010
0100
,
0010
1000
0010
0000
0100
0000
0001
0000
,
0010
0001
0100
1000
,
0100
0001
0100
0000
0010
0000
1000
0000
,
0100
0001
0100
1000
,
0010
0100
0010
0000
1000
0000
0000
0000
,
0000
0000
0000
0001
0000
0000
0000
0000
,
0000
0000
2002
0000
,
0000
0000
0000
0000
,
0000
0000
3003
0000
,
0000
0000
0000
0000
;
#NOTES:
     dance-single:
     :
     Medium:
     12:
     :
0000
0000
0000
0000
,
0000
0000
0000
0000
,
0000
0000
0000
0000
,
0000
0000
0000
0000
,
0000
0000
0000
0000
,
0000
0000
0000
0000
,
0001
1000
0001
0010
0100
1000
0100
0000
,
1000
0001
1000
0010
0100
0001
0100
0000
,
2000
0000
3200
0300
,
1001
0000
0000
0000
0000
0000
1000
0100
,
0010
0001
1000
0001
0010
0100
1000
0000
,
0001
0100
0010
1000
0001
1000
0010
0100
,
0001
0010
1000
0010
0100
0001
0100
1000
,
0002
0000
0000
0003
,
1000
0001
0010
0001
1000
0100
1000
0001
,
0010
0001
0100
0010
0100
0001
0010
0100
,
0010
0001
0100
1000
0100
0001
1000
0100
,
0001
0000
0100
0000
1000
0000
0000
0001
0000
0000
1001
0000
0000
0000
0000
0000
,
1000
0000
0010
0000
0100
0000
0000
0100
0000
0000
0001
0000
0000
0000
0010
0000
,
0011
0000
0000
0000
0001
0000
0000
0001
0000
0000
1000
0000
0000
0000
0010
0000
,
0100
0000
0000
0000
0010
0000
0000
1000
0000
0000
1000
0000
0000
0000
0001
0000
,
0001
0000
0010
0000
0001
1000
0000
1000
,
0010
0000
1000
0100
1000
0001
0010
0100
,
1000
0000
0010
0000
1000
0001
0000
0001
,
0010
0000
0001
0100
0001
1000
0010
0100
,
0001
0000
1000
0100
0001
0000
0001
0100
,
1000
0000
0001
0100
1000
0000
1000
0100
,
0001
0000
0010
0001
1000
0100
0010
0001
,
1000
0001
0100
1000
0100
1000
0100
0001
,
0010
0100
1000
0000
1001
0000
0110
0000
,
0011
0000
1000
0001
1000
0010
0100
0010
,
1000
0100
0010
0001
1001
0000
0110
0000
,
1010
0000
0001
1000
0001
0010
0100
0010
,
0001
0100
0010
1000
0001
0000
0110
0000
,
1000
0000
0001
0010
0001
1000
0100
0010
,
0001
0100
0020
0000
1030
0000
0100
1000
,
0100
0000
0010
0001
1000
0000
0100
0001
,
1000
0000
0010
0001
0000
0000
1001
0000
,
1100
0000
0001
1000
0010
0100
0010
0100
,
0001
1000
0001
1000
0100
0000
0110
0000
,
1001
0000
0010
0100
0001
0010
0100
1000
,
0001
0010
0100
1000
1100
0000
0101
0000
,
1000
0010
1000
0100
1000
1000
0001
0001
,
0010
0010
0100
0010
0000
0001
1000
0010
,
0000
1000
0001
0010
0000
0100
1000
0100
,
0010
0000
0001
0000
0110
0000
0000
1100
,
0000
2002
0000
0000
,
0000
0000
3003
0000
1000
0001
0020
0000
,
0130
1000
0020
0000
0130
0001
0020
0000
,
0130
0000
0000
0000
0000
0000
0000
0000
0000
0000
0000
0000
0000
0000
0000
0000
0000
0000
0000
0000
0000
0000
0000
0000
1000
0000
0000
0000
0000
0000
0000
0000
0000
0000
0000
0000
0000
0000
0000
0000
0000
0000
0000
0000
0000
0000
0000
0000
0020
0000
0000
0000
0000
0000
0000
0000
0000
0000
0000
0000
0000
0000
0000
0000
0000
0000
0000
0000
0000
0000
0000
0000
0000
0000
0000
0000
0000
0000
0000
0000
0000
0000
0000
0000
0000
0000
0000
0000
0000
0000
0000
0000
0000
0000
0000
0030
1000
0000
0000
0000
0000
0000
0000
0000
0000
0000
0000
0000
0000
0000
0000
0000
0000
0000
0000
0000
0000
0000
0000
0000
0001
0000
0000
0000
0000
0000
0000
0000
0000
0000
0000
0000
0000
0000
0000
0000
0000
0000
0000
0000
0000
0000
0000
0000
0200
0000
0000
0000
0000
0000
0000
0000
0000
0000
0000
0000
0000
0000
0000
0000
0000
0000
0000
0000
0000
0000
0000
0000
0000
0000
0000
0000
0000
0000
0000
0000
0000
0000
0000
0000
0000
0000
0000
0000
0000
0000
0000
0000
0000
0000
0000
0000
,
0310
1000
0200
0000
0310
0001
0200
0000
,
0310
0000
0000
0000
0000
0000
0000
0000
0000
0000
0000
0000
0000
0000
0000
0000
0000
0000
0000
0000
0000
0000
0000
0000
1000
0000
0000
0000
0000
0000
0000
0000
0000
0000
0000
0000
0000
0000
0000
0000
0000
0000
0000
0000
0000
0000
0000
0000
0200
0000
0000
0000
0000
0000
0000
0000
0000
0000
0000
0000
0000
0000
0000
0000
0000
0000
0000
0000
0000
0000
0000
0000
0000
0000
0000
0000
0000
0000
0000
0000
0000
0000
0000
0000
0000
0000
0000
0000
0000
0000
0000
0000
0000
0000
0000
0300
0001
0000
0000
0000
0000
0000
0000
0000
0000
0000
0000
0000
0000
0000
0000
0000
0000
0000
0000
0000
0000
0000
0000
0000
0100
0000
0000
0000
0000
0000
0000
0000
0000
0000
0000
0000
0000
0000
0000
0000
0000
0000
0000
0000
0000
0000
0000
0000
2000
0000
0000
0000
0000
0000
0000
0000
0000
0000
0000
0000
0000
0000
0000
0000
0000
0000
0000
0000
0000
0000
0000
0000
0000
0000
0000
0000
0000
0000
0000
0000
0000
0000
0000
0000
0000
0000
0000
0000
0000
0000
0000
0000
0000
0000
0000
0000
,
3001
0010
2000
0000
3001
0100
2000
0000
,
3001
0010
1000
0000
1001
0000
0100
0010
,
0000
0010
0002
0000
1000
0000
1000
0000
,
0100
0000
0103
0000
1001
0000
0100
0010
,
0000
0010
2000
0000
0001
0000
0001
0000
,
0100
0000
3100
0000
0110
0000
0001
0010
,
1000
0000
0010
0000
0010
0001
0100
0000
,
1000
0000
1000
0100
0001
1000
0001
0000
,
1000
0010
1000
0000
0001
0010
0001
0100
,
0010
1000
0100
1000
0002
0000
0000
0000
,
0203
0000
2300
0000
,
3020
0000
0032
0000
,
0203
0000
2300
0000
,
3020
0000
0031
0100
,
0010
1000
0100
0010
,
0001
0100
0010
0001
,
0100
1000
0020
0000
,
0000
0000
0030
0000
1000
0000
0001
0010
,
0001
0000
0101
0000
0010
0000
1000
0100
,
1000
0001
0010
0100
1000
0001
1000
0000
,
0010
0100
0010
0000
1000
0100
0010
0001
,
0100
0001
0010
0100
1000
0000
0001
0010
,
0001
0000
1000
0010
1000
0000
0001
0100
,
0001
0000
1100
0000
0010
1000
0100
1000
,
0001
0010
0100
1000
0001
1000
0010
0100
,
0010
0100
0001
0000
0010
0001
0100
0001
,
1000
0010
0100
0001
1000
0001
0010
0100
,
0010
0100
1000
0000
2002
0000
0000
0000
,
0000
3003
0000
0202
0000
0000
0000
0000
,
0000
0303
2002
0000
,
0000
0000
0000
0000
,
0000
0000
3003
0000
,
0000
0000
0000
0000
;
#NOTES:
     dance-single:
     :
     Hard:
     16:
     :
0000
0000
0000
0000
,
0000
0000
0000
0000
,
0000
0000
0000
0000
,
0000
0000
0000
0000
,
0000
0000
0000
0000
,
0000
0000
0000
0000
,
1000
0000
0010
1000
0100
0000
0001
0000
0100
0000
1000
0000
1000
0000
0000
0000
,
0001
0000
0010
0001
0100
0000
1000
0000
0100
0000
0001
0000
0001
0000
0000
0000
,
0100
1000
0000
1000
0000
1000
0000
1000
0100
0001
0000
0001
0000
0001
0000
0001
,
0010
0000
0000
0000
0000
0000
0010
0100
,
0010
0000
0001
0010
0001
0000
1000
0000
0100
1000
0100
0000
1000
0000
0000
0000
,
0010
0000
1000
0010
1000
0000
0001
0000
0100
0001
0100
0000
0001
0000
0010
0000
,
0001
1000
0001
1000
0001
0000
1000
0001
1000
0001
1000
0000
0100
0000
0001
0000
,
0020
0000
0000
1030
,
0001
0000
0010
0100
0010
0000
0100
0000
1000
0001
1000
0000
0010
0000
0100
0010
,
0100
0000
1000
0000
0001
1000
0001
0000
1000
0000
0100
0000
0001
0000
0010
0000
,
0100
1000
0100
1000
0001
0010
0001
0010
0100
1000
0100
1000
0001
0010
0100
1000
,
0100
0000
1000
0001
1000
0000
0001
0100
0000
0001
0010
0000
0100
0000
0100
0000
,
1000
0000
0100
0010
0100
0000
1000
0010
0000
1000
0100
0000
0010
0000
0010
0000
,
0001
0000
0010
0100
0010
0000
0001
1000
0000
0100
1000
0000
0010
0000
0001
0000
,
0010
0000
0100
0001
0010
0000
0100
1000
0010
0001
0010
0000
1000
0000
0100
0000
,
0100
1000
0001
0001
1000
0000
0010
0000
0001
0000
0010
0000
0100
0000
0001
0000
,
1000
0000
1000
0100
0010
0100
1000
0001
,
1001
0000
0001
0100
1000
0100
0010
1000
,
0001
0000
0001
0010
0100
0010
0001
1000
,
1001
0000
1000
0010
0001
0010
1000
0100
,
1000
0000
0010
0100
0001
0000
1000
0000
0100
0000
0001
0000
0100
0000
1000
0000
,
0010
0000
0100
0010
1000
0000
0010
0100
0010
0000
0100
0001
0100
0000
0010
1000
,
0010
0000
0100
0010
0100
0001
0100
0001
0010
0100
0010
0100
1000
0010
1000
0010
,
0100
0001
0100
0001
0010
0000
0000
0000
1001
0000
0000
0000
0110
0000
0000
0000
,
0001
0000
0000
0001
0010
0000
0100
0000
1000
0000
0010
0000
0010
0000
0001
0000
,
1000
1000
0100
0001
1001
0000
0110
0000
,
1000
0000
0000
1000
0010
0000
0100
0000
0001
0000
0010
0000
0010
0000
1000
0000
,
0001
0001
0100
1000
0001
0010
0110
0000
,
0001
0000
0000
0001
0010
0000
0100
0000
1000
0000
0010
0000
0010
0000
0100
0000
,
0100
0002
0100
0000
2003
0010
3001
0002
,
0010
1003
2000
0100
3001
0002
0100
1003
,
2000
0010
3001
0011
0000
0000
0110
0000
,
1000
0000
0000
1000
0010
0000
0100
0000
0001
0000
0010
0000
0010
0000
1000
0000
,
0001
0010
0010
0100
0101
0000
1100
0000
,
0010
0000
0000
0100
0001
0000
0010
0000
0100
0010
0100
0010
0100
0010
0100
1000
,
0100
0001
1000
0010
0001
0100
0110
0000
,
0001
0000
0000
0000
0000
0000
0000
0000
0000
1000
0000
0000
0100
0000
0000
0000
0000
0000
1000
0000
0000
0000
0000
0000
0001
0000
0000
0000
1000
0000
0000
0000
0010
0000
0000
0000
0100
0000
0000
0000
0001
0000
0000
0000
0010
0000
0000
0000
,
0001
0000
1000
0000
0100
0000
0001
0000
0000
0100
0000
0000
0000
0000
0000
1000
0000
0000
0001
0000
0000
0011
0000
0000
,
0000
0100
1000
1010
0000
0100
0100
0001
,
0100
1000
0100
0010
0011
0000
0000
1100
,
0000
2002
0000
0000
,
0000
0000
0000
0000
3003
0000
0000
0000
1000
0000
0100
0000
0010
0000
0100
1000
,
0001
0000
0100
0000
0010
0000
1000
0001
0100
0000
0010
0000
1000
0000
0100
0010
,
0001
0000
0010
0000
0100
0000
1000
0001
0100
0000
0010
0000
0001
0000
0010
0100
,
0001
0000
0010
0000
0100
0000
0010
0001
0100
0000
0010
0000
1000
0000
0100
0010
,
0001
0000
1000
0000
0010
0000
0100
0001
0010
0000
0100
0000
0001
0000
0100
1000
,
0010
0000
1000
0000
0100
0000
0010
0001
0100
0000
0010
0000
1000
0000
0001
1000
,
0001
0010
0001
1000
1001
0000
0110
0010
,
1000
0000
0100
0000
0011
0000
0000
0000
1000
0000
0010
1000
0010
0000
0100
0000
,
0001
0010
1000
0000
1001
0000
0110
0010
,
0001
0000
0100
0000
1010
0000
0000
0000
0001
0000
0010
0001
0010
0000
0100
0000
,
1000
0010
0001
0000
1001
0000
0110
0010
,
1010
0000
1000
0100
0110
0010
0011
0000
,
1001
0000
0000
0000
1010
0000
1000
0000
0100
0000
0010
0001
0010
0000
0001
0000
,
1000
0000
0010
0001
0010
0000
1000
0000
0100
0000
0010
0100
0010
0000
0001
0010
,
0001
0000
1000
0001
1000
0000
0100
0010
0200
0000
0000
0000
2300
0000
0000
0000
,
3020
0032
0203
2300
,
3020
0032
0203
2300
,
3002
0023
2030
3200
,
0302
0000
0000
0000
2003
0000
0000
0000
3010
0001
0010
0000
1000
0010
1000
0000
,
0100
1000
0100
0000
0001
0100
0001
0000
0010
0001
0010
0001
0100
0010
0100
0010
,
1000
0100
1000
0100
0010
0001
0010
0001
0100
0000
0000
1000
0000
0000
1000
0000
,
1000
0000
0000
0001
0000
0000
0001
0000
0002
0000
0000
0000
0000
0000
0000
0000
,
0000
0000
0000
0000
0003
0000
0000
0000
0021
0000
0000
1000
0000
0000
0100
0000
,
0200
0000
0030
0000
1000
0000
1000
0000
0001
0000
0000
1000
0000
0000
2000
0000
,
0300
0000
0000
0000
3010
1000
0001
0001
1000
0000
0001
0000
0010
0000
0001
1000
,
0100
0000
1000
0000
0010
0000
1000
0001
0100
0000
0001
0100
0010
0000
1000
0100
,
0010
0000
0001
0000
1000
0000
0100
1000
0010
0000
0100
0000
0001
0000
0010
0000
,
1000
0000
0010
0000
0001
0100
1000
0000
0100
0000
0001
0000
0010
0000
0001
0000
,
1000
0001
1000
0000
1001
0000
0000
0000
0010
0000
1000
0000
0100
0000
0010
0001
,
0100
0000
0001
0000
1000
0000
0010
1000
0100
0000
0001
0100
1000
0000
0001
0100
,
0010
0000
1000
0000
1001
0000
0000
0000
0100
0000
1000
0001
0010
0000
0010
0001
,
0100
0000
0001
1000
0100
0000
0100
1000
0010
0000
0100
0000
0001
0000
0010
0001
,
0100
0010
1000
0001
1000
0010
1000
0010
0200
0000
0000
0000
0000
0000
0000
0000
,
0000
0300
0000
2002
0000
0000
0000
0000
,
0000
3003
0220
0000
,
0000
0000
0000
0000
,
0000
0000
0330
0000
,
0000
0000
0000
0000
;
#NOTES:
     dance-single:
     :
     Challenge:
     18:
     :
0000
0000
0000
0000
,
0000
0000
0000
0000
,
0000
0000
0000
0000
,
0000
0000
0000
0000
,
0000
0000
0000
0000
,
0000
0000
0000
0000
,
0001
0000
0100
0001
0010
0000
0001
0000
0100
0010
1000
0000
0001
0000
0000
0000
,
1000
0000
0100
1000
0010
0000
1000
0000
0100
0010
0001
0000
1000
0000
0000
0000
,
0100
0001
0000
0001
0000
0001
0000
0001
0100
1000
0000
1000
0000
1000
0000
1000
,
0200
0000
0310
0001
0100
0010
1000
0001
,
0100
0000
0010
1000
0100
0000
0010
0000
0100
1000
0010
0100
0010
0000
1000
0000
,
0100
0000
0010
0001
0100
0000
0010
0000
0100
0001
0010
0100
0010
0000
0001
0000
,
1000
0001
0100
0001
1000
0000
0001
1000
0010
1000
0001
0000
0020
0000
0000
0000
,
0130
1000
0000
1000
0000
1000
0000
1000
0001
0000
0100
0010
0100
0000
0000
0000
,
0001
0100
0001
0100
0010
1000
0010
1000
0001
0010
0001
0010
0100
1000
0100
1000
,
0001
1000
0010
0100
0001
0010
0100
1000
0010
1000
0001
1000
0100
0010
0100
1000
,
0001
0010
0001
0100
0001
0010
0001
0100
0001
0010
0001
0100
0001
0010
0001
0100
,
0020
0030
0000
0000
0000
0000
0000
0000
1000
0000
0000
0000
0001
0000
0000
0000
1001
0000
0000
0000
0000
0000
0000
0000
0000
0000
0000
0000
0101
0000
0000
0000
0000
0000
0000
0000
0000
0000
0000
0000
2010
0000
0000
0000
0000
0000
0000
0000
0000
0000
0000
0000
0000
0000
0000
0000
3100
0000
0000
0000
0001
0000
0000
0000
,
0100
1000
0010
0001
0010
0000
0000
1010
0000
0000
0102
0000
0000
0000
0013
0000
,
0100
1000
0010
0001
0010
0000
0000
0101
0000
0000
1020
0000
0000
0000
0130
0000
,
1000
0001
0010
1000
0010
0000
0001
0011
0000
1000
1002
0000
0000
0000
0103
0000
,
0001
0000
1000
0100
0010
0000
0100
0000
1000
0000
0000
0000
0001
0000
0000
0000
1000
0000
0000
0000
0010
0000
0000
0000
0010
0000
0000
0000
0001
0000
0000
0000
,
1000
0000
0010
0000
0010
0000
0001
0010
0001
0000
0001
0100
0001
0000
1000
0000
,
0100
0010
0001
1000
0001
0010
0010
1000
,
0001
0000
0010
0000
0010
0000
1000
0010
1000
0000
1000
0100
1000
0000
0001
0000
,
0100
0000
0010
0000
1000
0010
1000
0100
1000
0010
1000
0100
1000
0010
1000
0100
,
1000
0010
1000
0100
0010
0001
0100
0001
0010
0100
1000
0010
1000
0100
1000
0010
,
0100
0001
0010
0001
0100
1000
0100
0010
0100
1000
0100
0010
1000
0010
1000
0001
,
0010
0100
1000
0010
0100
0001
0100
0010
0100
1000
0100
0001
1000
0100
0010
0001
,
1000
0000
0000
0000
0010
0000
0000
0000
0100
0000
0000
0000
0001
0000
0000
0000
0020
0030
0000
0000
0000
0000
0000
0000
0000
0000
0000
0000
0000
0000
0000
0000
1001
0000
0000
0000
0000
0000
0000
0000
0000
0000
0000
0000
0000
0000
0000
0000
1001
0000
0000
0000
0000
0000
0000
0000
0000
0000
0000
0000
0000
0000
0000
0000
,
1001
0000
0000
0001
0010
0000
0100
0000
1001
0000
0100
0000
0100
0000
0010
0000
,
1000
0100
0100
0010
1001
0000
1001
0000
,
1001
0000
0000
1000
0010
0000
0100
0000
1001
0000
0010
0000
0010
0000
0100
0000
,
0001
0010
0010
2002
0003
3010
0110
0000
,
0110
0000
0000
0001
0010
0000
1000
0000
1010
0000
0100
0000
0100
0000
1000
0000
,
0001
0000
0010
0000
0020
0000
0000
0000
0130
0000
0100
0000
1001
0000
0010
0001
,
0010
0001
1000
0000
0010
0001
1000
0000
0001
0100
0001
0000
1000
0000
0100
0001
,
0100
1000
0010
2200
0000
3300
0110
0000
,
0011
0000
0000
0100
1000
0000
0010
0000
0110
0000
1000
0000
1000
0000
0100
0000
,
0001
0010
0010
0100
1100
0000
0101
0000
,
1100
0000
0000
0001
0100
0000
0010
0000
1000
0010
1000
0100
1000
0010
1000
0100
,
0010
0001
1001
2002
0003
3100
0110
0000
,
0110
0000
0000
0000
0000
0000
0000
0000
0000
0010
0000
0000
0001
0000
0000
0000
0000
0000
1000
0000
0000
0000
0000
0000
0001
0000
0000
0000
0100
0000
0000
0000
1000
0000
0000
0000
0001
0000
0000
0000
0010
0000
0000
0000
0001
0000
0000
0000
,
1000
0000
0100
0000
0001
0000
0010
0000
0000
0200
0000
0000
0000
0000
0000
1300
0000
0000
1000
0000
0000
0020
0000
0000
,
0000
0000
0031
0000
0001
0000
0200
0000
0000
0000
0310
1000
0010
1000
0001
0010
,
0001
0010
0100
0000
0010
0000
0100
0000
1100
0000
0000
0000
0000
0000
0011
0000
,
0000
2002
0000
0000
,
0000
0000
0000
0000
3003
0000
0000
0000
1000
0000
0100
0010
0100
0000
1000
0001
,
0100
0000
0010
0100
0001
0000
0010
0000
1000
0000
0001
0100
0001
0000
0100
1000
,
0001
0000
0100
0010
1000
0010
0100
0001
1000
0000
0001
0010
0001
0000
0010
0100
,
1000
0000
0001
1000
0010
0000
0001
0000
1000
0000
0100
0010
0100
0000
0001
0100
,
0010
0000
1000
0001
0010
0001
0100
0010
1000
0000
0001
0010
0001
0000
0010
0100
,
1000
0000
0010
0100
0001
0000
0010
0000
1000
0000
0010
0100
0010
0000
0001
1000
,
0001
1000
0100
0000
0010
0000
0010
0000
0110
0000
0000
0000
0110
0000
0001
0000
,
1000
0000
0100
0000
0011
0000
0000
0000
1000
0000
0020
1000
0031
0000
0200
0001
,
1300
0000
0002
0010
1003
0000
0010
0000
0110
0000
0000
0000
0110
0000
1000
0000
,
0001
0000
0100
0000
1010
0000
0000
0000
0001
0000
2000
0001
3100
0000
0002
1000
,
0013
0000
2000
0010
3002
0000
1003
0000
0100
0000
0000
0000
1001
0000
0010
0000
,
0110
0000
0010
0100
0001
0000
0010
0000
0110
0000
0100
0000
0110
0000
0010
0000
,
1001
0000
0010
0100
1000
0000
0010
0000
0100
0001
0010
0001
0100
0010
1000
0010
,
0100
0010
1000
0100
1000
0010
0100
0001
0010
0001
0100
0001
0010
1000
0010
0001
,
1000
0100
0001
0100
1000
0010
0100
0001
0020
0000
0030
0000
0020
0000
0030
0000
,
0120
0000
0030
0001
0020
0000
0130
0000
2000
0000
3001
0000
2001
0000
3000
0000
,
2100
3000
2000
3100
0200
0300
0200
0300
,
0210
0000
0300
1000
0200
0000
0310
0000
0002
0000
0103
0000
0102
0000
0003
0000
,
1002
0000
0003
0000
0102
0000
0103
0000
0001
0010
0001
0100
0001
0010
0001
0100
,
0010
1000
0100
1000
0010
1000
0100
1000
0001
0010
0100
1000
0010
0100
0001
1000
,
0100
0001
0100
1000
0001
0100
0001
1000
0020
0000
0000
0130
0000
0100
0001
0000
,
0020
0000
0000
0130
0000
0100
1000
0000
0020
0000
0000
0000
0000
0000
0000
0000
,
0130
0000
0000
0000
0001
0000
1000
0000
0200
0000
1000
2300
0000
0000
0010
0020
,
3000
0000
0000
0000
0031
0000
0100
0000
0020
0000
0000
2030
0000
0000
3200
0000
,
0000
0000
0000
0000
0300
0000
0010
0000
1000
0000
0001
0010
0001
0000
0010
0100
,
1000
0000
0010
1000
0001
0000
0100
0000
0010
0000
1000
0010
1000
0000
0001
0010
,
0100
0000
1000
0010
0100
0010
1000
0001
0010
0000
0100
0010
0100
0000
1000
0000
,
0000
0101
0000
0000
1100
0000
0001
0000
1000
0000
0010
0100
0010
0000
1000
0000
,
0001
0010
0100
1000
0010
0000
0000
0000
0100
0000
0002
1000
0103
0000
0020
0001
,
1030
0000
0200
0010
2300
0000
3010
0000
0100
0000
0020
1000
0031
0000
2000
0001
,
3010
0000
0002
0010
0203
0000
1300
0000
0001
0000
1000
0010
0100
0001
0200
0000
,
0302
0000
0013
0100
1000
0001
0200
0000
0301
0010
0001
0100
0010
1000
0100
1000
,
0010
0100
0001
0010
1000
0001
0100
1000
0020
0000
2030
0000
0000
0000
3200
0000
,
0000
0302
0000
0023
0000
0230
0000
2300
,
0000
3020
0030
0000
0202
0000
0303
2002
,
0000
3003
2020
0000
0000
0000
0000
0000
,
0000
0000
3030
0000
,
0000
0000
0000
0000
;
#NOTES:
     dance-double:
     :
     Easy:
     8:
     :
00000000
00000000
00000000
00000000
,
00000000
00000000
00000000
00000000
,
00000000
00000000
00000000
00000000
,
00000000
00000000
00000000
00000000
,
00000000
00000000
00000000
00000000
,
00000000
00000000
00000000
00000000
,
00001000
00000000
00010000
00000000
00000010
00001000
00000010
00000000
,
00010000
00000000
00001000
00000000
00100000
00010000
00100000
00000000
,
00002000
00000000
00000000
00003000
,
00010000
00000000
00000000
00000000
,
00000010
00000000
00001000
00000000
00000010
00001000
00000010
00000000
,
00000100
00000000
00000001
00000000
00000100
00000001
00000100
00000000
,
00000010
00010000
00000010
00010000
,
00000020
00000000
00000000
00000030
,
00001000
00000100
00001000
00000010
,
00010000
00001000
00100000
00010000
,
01000000
10000000
01000000
00010000
,
00100000
10000000
00100000
00010000
,
00000000
00001000
00000100
00000001
,
00000000
00000100
00001000
00001000
,
00000000
00000010
00001000
00010000
,
01000000
00010000
00000000
10000000
,
10000000
00000000
00010000
00000000
00100000
00000000
00001000
00010000
,
00001000
00010000
00000000
00000010
,
00000010
00000000
00001000
00000000
00000100
00000000
00010000
00001000
,
00010000
00001000
00100000
00010000
,
00000000
10000000
00010000
00100000
,
00000000
00001000
00000100
00000001
,
00000100
00001000
00010000
00001000
,
00000000
01010000
00001000
00001000
,
00010000
00010000
00000100
00001000
,
00000100
00000010
00000100
00000000
00001000
00000000
00001000
00000000
,
00000001
00000001
00000100
00000010
,
00010000
00001000
00010000
00000000
00000000
00000000
00011000
00000000
,
00010000
00100000
01000000
00010000
,
10000000
00010000
10000000
00000000
00020000
00000000
00100000
00000000
,
10000000
10000000
20030000
00100000
,
00010000
30010000
00000000
01100000
,
01100000
00010000
00001000
00010000
,
00000100
00001000
00000100
00000000
00001001
00000000
00001001
00000000
,
00000001
00000100
00000010
00010000
,
00001000
00010000
00001000
00000000
00100000
00000000
00000000
00000000
,
00010000
10000000
01000000
00100000
,
00010000
00000000
00100000
00001000
00000000
00000000
00000000
00010000
,
00000000
00000000
00000000
00000100
00000000
00000000
00000000
00000000
,
00001000
00000000
00001000
00000000
00001001
00000000
00000000
00000010
,
00000000
00022000
00000000
00000000
,
00033000
00000000
00010000
00001000
,
00000010
00000001
00001000
00000001
,
00000010
00000100
00000010
00000000
00001000
00000000
00010000
00000000
,
01000000
10000000
00010000
10000000
,
00100000
01000000
00100000
00000000
00010000
00000000
00001000
00000000
,
00000100
00000001
00001000
00000001
,
00000010
00000000
00000100
00000100
00010000
00000000
00000000
00001000
,
00000000
02000000
00000000
00000000
,
00000000
00000000
00000000
00000000
03010000
00000000
00000000
00010000
,
00000000
00002000
00000000
00000000
,
00000000
00000000
00003010
00000010
,
00000100
00000100
00001000
00001000
,
00000001
00000001
00001000
00000100
,
00000001
00000100
00001000
00010000
,
00001000
00000000
00011000
00000000
,
00100000
00000000
01000000
00000000
,
00010000
00000000
00011000
00000000
,
00000010
00000000
00000100
00000000
,
00001000
00000000
00010000
00010000
,
01000000
00000000
00001000
00001000
,
00000100
00000000
00010000
00010000
,
00100000
00000000
00001000
00000000
,
00010000
00000000
00000000
00000000
00000100
00000000
00000000
00000010
,
00000010
00000000
00000000
00000000
00000001
00000000
00000000
00000100
,
00000100
00000000
00001000
00010000
,
00001000
00001000
00100000
00010000
,
10000000
00010000
10000000
00000000
01000000
00000000
00010000
00000000
,
00001000
00000000
00010000
00001000
,
00000010
00000001
00000010
00000000
00000100
00000000
00010000
00000000
,
00001000
00010000
01000000
10000000
,
00100000
10000000
00100000
00000000
00010000
00000000
00001000
00000000
,
00000100
00000001
00000100
00001000
,
00010000
00001000
00010000
00000000
00000010
00000000
00000000
00000000
,
00000000
00000000
00000000
00001000
00000000
00000000
00000000
00000000
,
00000000
00000000
00002002
00000000
,
00000000
00000000
00000000
00000000
,
00000000
00000000
00003003
00000000
,
00000000
00000000
00000000
00000000
;
#NOTES:
     dance-double:
     :
     Medium:
     13:
     :
00000000
00000000
00000000
00000000
,
00000000
00000000
00000000
00000000
,
00000000
00000000
00000000
00000000
,
00000000
00000000
00000000
00000000
,
00000000
00000000
00000000
00000000
,
00000000
00000000
00000000
00000000
,
00010000
00001000
00010000
00001000
00000100
00000010
00000100
00000000
,
00001000
00010000
00001000
00010000
01000000
00100000
01000000
00000000
,
00020000
00000000
00032000
00000000
,
00003100
00000000
00000000
00000000
,
00000001
00000100
00001000
00010000
00001000
00010000
01000000
00000000
,
10000000
01000000
00010000
00001000
00010000
00001000
00000100
00000000
,
00000001
00000100
00001000
00010000
00001000
00100000
00001000
00010000
,
00200000
00000000
00000000
00300000
,
10000000
00010000
00100000
00001000
01000000
00010000
00100000
00001000
,
00010000
00000100
00010000
00000010
00001000
00000100
00000010
00000001
,
00000100
00001000
00010000
00100000
10000000
00100000
00010000
00001000
,
00000100
00000000
00000001
00000000
00000100
00000000
00000000
00000001
00000000
00000000
00000010
00000000
00000000
00000000
00000000
00000000
,
00001000
00000000
00010000
00000000
01000000
00000000
00000000
10000000
00000000
00000000
01000000
00000000
00000000
00000000
00010000
00000000
,
00001000
00000000
00000000
00000000
00010000
00000000
00000000
00100000
00000000
00000000
00010000
00000000
00000000
00000000
00010000
00000000
,
00001000
00000000
00000000
00000000
00001000
00000000
00000000
00000010
00000000
00000000
00000001
00000000
00000000
00000000
00000100
00000000
,
00001000
00000000
00000100
00000000
00000001
00000010
00000000
00001000
,
00100000
00000000
00001000
00010000
00000100
00000010
00000100
00010000
,
00001000
00000000
00010000
00000000
00100000
10000000
00000000
00001000
,
00010000
00000000
00001000
00010000
00100000
10000000
00100000
00010000
,
00001000
00000000
00010000
00001000
00000010
00000000
00000001
00000100
,
00001000
00000000
00010000
00100000
10000000
00000000
00010000
00100000
,
00001000
00000000
00000010
00000001
00001000
00000010
00010000
00001000
,
00100000
00010000
10000000
01000000
00010000
00001000
00000010
00000001
,
00001000
00010000
00011000
00001010
,
00011000
00000000
00110000
00000000
00010000
10000000
01000000
00010000
,
00001000
00100000
00010000
01000000
00010000
00000000
00011000
00000000
,
00110000
00000000
00011000
00000000
00000100
00001000
00000010
00000001
,
00000010
00001000
00000100
00010000
00001000
00000000
00010010
00000000
,
00000100
00000000
00010000
00001000
00000010
00001000
00010000
01000000
,
00010000
01000000
20000000
00000000
30010000
00000000
01000000
00001000
,
00010000
00000000
01000000
10000000
00010000
00000000
01000000
00001000
,
00010000
00000000
00000100
00001000
00000000
00000000
00001001
00000000
,
00000011
00000000
00000101
00000000
00000010
00001000
00000001
00000010
,
00000100
00010000
00001000
00100000
00010000
00000000
10010000
00000000
,
10100000
00000000
11000000
00000000
00100000
10000000
01000000
00100000
,
00010000
00001000
00000100
00001000
00000001
00000000
00000011
00000000
,
00001001
00000000
00000001
00000100
00001000
00010000
00100000
00010000
,
00001000
00100000
01000000
10000000
00000000
00100000
01000000
00001000
,
00000000
00010000
00000010
00001000
00000000
00000100
00010000
00001000
,
00000010
00000000
00000010
00000000
00001001
00000000
00000000
00001100
,
00000000
00022000
00000000
00000000
,
00000000
00000000
00033000
00000000
00001000
00100000
00010000
00000000
,
01000000
00100000
10000000
00000000
01000000
00010000
00001000
00000010
,
00000001
00001000
00000100
00000000
00010000
00000100
00001000
00000000
,
00000100
00000010
00000001
00000000
00000100
00000001
00000100
00001000
,
00010000
00100000
00010000
00000000
00000100
00010000
00001000
00000000
,
00100000
00001000
00010000
00000000
00100000
10000000
01000000
00010000
,
00001000
00000010
00001000
00000000
00011000
00000000
00000010
00000100
,
00000000
00010000
00002000
00000000
00010000
00000000
00010000
00000000
,
00000010
00000000
00003010
00000000
00011000
00000000
00100000
01000000
,
00000000
00001000
00020000
00000000
00001000
00000000
00001000
00000000
,
00100000
00000000
00130000
00000000
00011000
00000000
00001000
00000010
,
00000001
00000000
00000100
00000000
00000001
00000100
00001000
00000000
,
00010000
00000000
00100000
10000000
00010000
10000000
01000000
00000000
,
00010000
00001000
00000010
00000000
00000001
00000010
00001000
00010000
,
00001000
00100000
00001000
00000000
00020000
00000000
00000000
00000000
,
00032000
00000000
00003020
00000000
,
00000032
00000000
00000203
00000000
,
00002300
00000000
00003020
00000000
,
00000032
00000000
00000103
00001000
,
00010000
00100000
10000000
01000000
,
00010000
00100000
10000000
01000000
,
00010000
00001000
00000002
00000000
,
00000000
00000000
00000003
00000000
00000100
00000000
00001000
00000001
,
00001000
00000000
00000010
00010000
00001000
00000000
00100000
01000000
,
10000000
01000000
00010000
00001000
00000100
00000001
00000100
00000000
,
00000010
00001000
00000010
00000000
00010000
00001000
00010000
01000000
,
10000000
01000000
00010000
00001000
00010000
00000000
00000010
00001000
,
00000010
00000000
00000100
00000001
00000100
00000000
00000010
00010000
,
00001000
00000000
01001000
00000000
00100000
10000000
01000000
10000000
,
00010000
00100000
01000000
00010000
00001000
00000010
00000001
00000010
,
00001000
00010000
01000000
00000000
00010000
00001000
00010000
00000100
,
00000010
00001000
00010000
01000000
10000000
00100000
10000000
01000000
,
00010000
00001000
00000001
00000000
00002000
00000000
00000000
00000000
,
00000000
00003000
00000000
00020000
00000000
00000000
00000000
00000000
,
00000000
00030000
20000000
00000000
,
00000000
00000000
00000000
00000000
,
00000000
00000000
30000000
00000000
,
00000000
00000000
00000000
00000000
;
#NOTES:
     dance-double:
     :
     Hard:
     16:
     :
00000000
00000000
00000000
00000000
,
00000000
00000000
00000000
00000000
,
00000000
00000000
00000000
00000000
,
00000000
00000000
00000000
00000000
,
00000000
00000000
00000000
00000000
,
00000000
00000000
00000000
00000000
,
00010000
00000010
00001000
00001000
00010000
00000010
00001000
00000000
,
00001000
00100000
00010000
00010000
00001000
00100000
00010000
00000000
,
00100000
01000000
00000000
01000000
00000000
01000000
00000000
01000000
10000000
00010000
00000000
00010000
00000000
00010000
00000000
00010000
,
01000000
00000000
00000000
00000000
00000000
00000000
00100000
01000000
,
00010000
00000000
10000000
01000000
10000000
00000000
01000000
00000000
00010000
00001000
00010000
00000000
00000100
00000000
00000000
00000000
,
00001000
00000000
00000001
00000100
00000001
00000000
00000100
00000000
00001000
00010000
00001000
00000000
01000000
00000000
00000000
00000000
,
00010000
10000000
00010000
10000000
00010000
00000000
10000000
00010000
10000000
00010000
10000000
00000000
00100000
00000000
00010000
00000000
,
00002000
00000000
00000000
00003100
,
00000001
00000000
00000100
00000001
00000100
00000000
00000010
00000000
00001000
00000000
00010000
00000000
10000000
00000000
00010000
01000000
,
00010000
10000000
00010000
00001000
01000000
00010000
00001000
00100000
,
00010000
00100000
00010000
00100000
00001000
00010000
00001000
00010000
00000100
00001000
00000100
00001000
00000001
00001000
00000100
00000010
,
00000001
00000000
00000100
00010000
00000100
00000000
00000001
00000010
00000000
00001000
00010000
00000000
00001000
00000000
01000000
00000000
,
10000000
00000000
01000000
00010000
01000000
00000000
00100000
10000000
00000000
00001000
00010000
00000000
00000100
00000000
00000001
00000000
,
00000100
00000000
00010000
00001000
00010000
00000000
00000010
00000100
00000000
00010000
01000000
00000000
00100000
00000000
10000000
00000000
,
00010000
00000000
00100000
01000000
00010000
00000000
00001000
00000010
00000000
00000001
00001000
00000000
00000010
00000000
00001000
00000000
,
00000100
00010000
00001000
00001000
00000010
00000000
00000100
00000000
00001000
00000000
00000100
00000000
00000001
00000000
00000100
00000000
,
00000010
00000000
00010000
00001000
00010000
00100000
10000000
00100000
,
01000000
00000000
00001000
00000100
00000001
00000100
00000010
00001000
,
00000010
00000000
00010000
00001000
00010000
00100000
10000000
00100000
,
01000000
00000000
00001000
00010000
00001000
00000100
00000001
00000100
,
00001000
00000000
00010000
00001000
00010000
00000000
00100000
00000000
10000000
00000000
00100000
00000000
00010000
00000000
00001000
00000000
,
00010000
00000000
00000010
00000100
00000001
00000000
00001000
00000100
00001000
00000000
00000100
00010000
00001000
00000000
00100000
00010000
,
00100000
00000000
00010000
01000000
00100000
10000000
00100000
10000000
00010000
01000000
00010000
01000000
00001000
00010000
00001000
00010000
,
00000010
00001000
00000010
00001000
00000100
00000000
00000000
00000000
00011000
00000000
00000000
00000000
00001100
00000000
00000000
00000000
,
00000010
00000000
00000000
00000001
00000100
00000000
00001000
00000000
00010000
00000000
00100000
00000000
00100000
00000000
00010000
00000000
,
01000000
01000000
10000000
00100000
10100000
00000000
00110000
00000000
,
00001000
00000000
00000000
00100000
00010000
00000000
01000000
00000000
00010000
00000000
00100000
00000000
00100000
00000000
10000000
00000000
,
01000000
01000000
00010000
00100000
00001000
00010000
00011000
00000000
,
00000010
00000000
00000000
00001000
00000100
00000000
00000001
00000000
00000001
00000000
00000010
00000000
00000010
00000000
00000100
00000000
,
00000100
00010000
00002000
00000000
00013000
10000000
01000000
00010000
,
10000000
00100000
00010000
00001000
00100000
00001000
00000010
00001000
,
00010000
00001000
00000010
00000011
00000000
00000000
00001100
00000000
,
00000001
00000000
00000000
00000001
00000010
00000000
00001000
00000000
00010000
00000000
00100000
00000000
00010000
00000000
00010000
00000000
,
01000000
00001000
00010000
01000000
11000000
00000000
01010000
00000000
,
00001000
00000000
00000000
00010000
00001000
00000000
00000010
00000000
00000001
00001000
00000001
00001000
00000001
00001000
00000001
00001000
,
00000001
00000100
00001000
00010000
00000000
00100000
01100000
00000000
,
10000000
00000000
00000000
00000000
00000000
00000000
00000000
00000000
00000000
00100000
00000000
00000000
01000000
00000000
00000000
00000000
00000000
00000000
00010000
00000000
00000000
00000000
00000000
00000000
10000000
00000000
00000000
00000000
01000000
00000000
00000000
00000000
00010000
00000000
00000000
00000000
00001000
00000000
00000000
00000000
00000010
00000000
00000000
00000000
00001000
00000000
00000000
00000000
,
00010000
00000000
00001000
00000000
00100000
00000000
00010000
00000000
00000000
10000000
00000000
00000000
00000000
00000000
00000000
01000000
00000000
00000000
00100000
00000000
00000000
00010000
00000000
00000000
,
00000000
10000000
00100000
00010000
00000000
00001000
00000100
00000001
,
00000010
00000001
00001000
00000001
00000101
00000000
00000000
00001010
,
00000000
00202000
00000000
00000000
,
00000000
00000000
00000000
00000000
00303000
00000000
00000000
00000000
00001000
00000000
00100000
00000000
00010000
00000000
01000000
00100000
,
10000000
00000000
00100000
00000000
01000000
00000000
00010000
00100000
01000000
00000000
00100000
00000000
00010000
00000000
10000000
00000000
,
00010000
00000000
00001000
00000000
00000010
00000000
00001000
00000000
00000001
00000000
00000100
00000000
00000010
00000000
00000100
00000010
,
00001000
00000000
00000100
00000000
00000010
00000000
00000001
00000010
00000100
00000000
00010000
00000000
00001000
00000000
00000010
00000000
,
00000001
00000000
00001000
00000000
00000010
00000000
00010000
00000000
00001000
00000000
00010000
00000000
00100000
00000000
10000000
00100000
,
01000000
00000000
00100000
00000000
10000000
00000000
01000000
00100000
00010000
00000000
00100000
00000000
00010000
00000000
00001000
00000000
,
00000100
00000001
00000100
00000100
00001001
00000000
00000110
00000100
,
00001000
00000000
00010000
00000000
00011000
00000000
00000000
00000000
01000000
00000000
00010000
00100000
00010000
00000000
10000000
00000000
,
01000000
00010000
00001000
00000000
00011000
00000000
00110000
00100000
,
01000000
00000000
00010000
00000000
00011000
00000000
00000000
00000000
00000010
00000000
00001000
00000100
00001000
00000000
00000001
00000000
,
00000100
00001000
00010000
00000000
00011000
00000000
10000000
01000000
,
00010000
00000000
00000100
00001000
00000001
00000100
00001000
00000000
,
00100000
00000000
01000000
00000000
10000000
00000000
01000000
00000000
00010000
00000000
00001000
00010000
00001000
00000000
00010000
00000000
,
00000100
00000000
00000010
00000100
00000010
00000000
00000001
00000000
00000100
00000000
00000010
00001000
00000010
00000000
00010000
00001000
,
00010000
00000000
00000100
00001000
00000100
00000000
00001000
00000010
00001000
00000000
00000100
00000000
00000001
00000000
00000100
00000000
,
00001000
00010000
00100000
10000000
00100000
00010000
00001000
00000100
,
00000001
00000100
00001000
00010000
00100000
01000000
10000000
00100000
,
00010000
00001000
00000100
00000001
00000100
00001000
00010000
01000000
,
10000000
00000000
01000000
00000000
00010000
00000000
00001000
00000000
00000100
00000010
00000100
00000000
00000001
00000100
00000001
00000000
,
00001000
00000100
00001000
00000000
00000010
00000100
00000010
00000000
00001000
00000000
00010000
00000000
01000000
00000000
10000000
00000000
,
01000000
00100000
01000000
00100000
10000000
00010000
10000000
00010000
00100000
00000000
00000000
01000000
00000000
00000000
00010000
00000000
,
00000010
00000000
00000000
00001000
00000000
00000000
00000001
00000000
00002000
00000000
00000000
00000000
00000000
00000000
00000000
00000000
,
00000000
00000000
00000000
00000000
00003000
00000000
00000000
00000000
00001020
00000000
00000000
00000100
00000000
00000000
00010000
00000000
,
00020000
00000000
00000030
00000000
00000100
00000000
00000100
00000000
02030000
00000000
00000000
10000000
00000000
00000000
00010000
00000000
,
23000000
00000000
00000000
00000000
30100000
00010000
00001000
00000100
00000001
00000000
00000100
00000000
00000010
00000000
00001000
00000100
,
00000010
00000000
00000100
00000000
00001000
00000000
00000100
00000010
00000001
00000000
00000100
00000010
00001000
00000000
00000100
00010000
,
00001000
00000000
00010000
00000010
00001000
00000000
00000100
00000000
00010000
00000000
01000000
00000000
00010000
00000000
00001000
00000000
,
00100000
00001000
00000100
00001000
00010000
00000010
00010000
01000000
,
10000000
00010000
10000000
00000000
10010000
00000000
00000000
00000000
00100000
00000000
10000000
00000000
01000000
00000000
00100000
00001000
,
00010000
00000000
00100000
00000000
00010000
00000000
00001000
00000000
00100000
00000000
01000000
10000000
01000000
00000000
00100000
00001000
,
00010000
00000000
00100000
00000000
00010000
00000000
00000000
00000000
00000010
00000000
00000100
00000001
00000100
00000000
00000010
00001000
,
00000010
00000000
00010000
00001000
00010000
00000000
00100000
01000000
00100000
00000000
00010000
00000000
00001000
00000000
00010000
00001000
,
00010000
00000100
00001000
00000010
00000100
00000001
00001000
00000100
00000020
00000000
00000000
00000000
00000000
00000000
00000000
00000000
,
00000000
00000000
00000000
00002000
00000000
00000000
00000000
00000000
,
00000030
00003000
20020000
00000000
,
00000000
00000000
00000000
00000000
,
00000000
00000000
30030000
00000000
,
00000000
00000000
00000000
00000000
;
#NOTES:
     dance-double:
     :
     Challenge:
     18:
     :
00000000
00000000
00000000
00000000
,
00000000
00000000
00000000
00000000
,
00000000
00000000
00000000
00000000
,
00000000
00000000
00000000
00000000
,
00000000
00000000
00000000
00000000
,
00000000
00000000
00000000
00000000
,
00100000
00000000
10000000
01000000
10000000
00000000
00010000
00000000
00100000
00010000
00001000
00000000
00000100
00000000
00000000
00000000
,
00000010
00000000
00000001
00000100
00000001
00000000
00001000
00000000
00000010
00001000
00010000
00000000
00100000
00000000
00000000
00000000
,
00010000
00002000
00000000
00003100
00000000
00000001
00000000
00000010
00001000
00020000
00000000
01030000
00000000
10000000
00000000
00100000
,
00010000
00000000
00001000
00000100
00000010
00000001
00000100
00001000
,
00010000
00000000
01000000
10000000
01000000
00000000
00100000
00000000
00001000
00010000
00001000
00000000
00000100
00000000
00000000
00000000
,
00001000
00000000
00000100
00000001
00000100
00000000
00000010
00000000
00010000
00001000
00010000
00000000
01000000
00000000
00000000
00000000
,
10000000
01000000
10000000
01000000
00100000
00000000
00010000
01000000
00010000
01000000
00100000
00000000
00020000
00000000
00000000
00000000
,
00031000
00000100
00000000
00000001
00000000
00000010
00000000
00000100
00001000
00000000
00000001
00001000
00000001
00000000
00000000
00000000
,
00000010
00000000
00000001
00000100
00000001
00000000
00000010
00000000
00001000
00010000
00000100
00000000
00010000
00001000
01000000
00000000
,
00100000
00000000
10000000
01000000
10000000
00000000
00100000
00000000
00010000
00001000
01000000
00000000
00001000
00010000
00000100
00000000
,
00000010
00000001
00001000
00000100
00000010
00000001
00001000
00000010
00010000
00001000
01000000
00100000
10000000
01000000
00100000
00010000
,
20000000
30000000
00000000
00000000
00000000
00000000
00000000
00000000
01000000
00000000
00000000
00000000
10000000
00000000
00000000
00000000
11000000
00000000
00000000
00000000
00000000
00000000
00000000
00000000
00000000
00000000
00000000
00000000
01010000
00000000
00000000
00000000
00000000
00000000
00000000
00000000
00000000
00000000
00000000
00000000
00012000
00000000
00000000
00000000
00000000
00000000
00000000
00000000
00000000
00000000
00000000
00000000
00000000
00000000
00000000
00000000
00003100
00000000
00000000
00000000
00000000
00000000
00000000
00000000
,
00000010
00001000
00010000
10000000
10100000
00000000
00000000
00101000
00000000
00000000
00020010
00000000
00000000
00000000
00031000
00000000
,
00100000
00001000
00000100
00000001
00000101
00000000
00000000
00001010
00000000
00000000
00020100
00000000
00000000
00000000
01030000
00000000
,
00100000
00010000
00001000
00000001
00000011
00000000
00000100
00001100
00000000
00010000
00021000
00000000
00000000
00000000
01030000
00000000
,
10000000
00000000
00010000
01000000
00100000
00000000
00100000
00000000
10000000
00000000
00000000
00000000
01000000
00000000
00000000
00000000
01000000
00000000
00000000
00000000
00001000
00000000
00000000
00000000
00100000
00000000
00000000
00000000
00100000
00000000
00000000
00000000
,
00002000
00000000
00000000
00000000
00003100
00000000
00000100
00001000
00000001
00000000
00000001
00001000
00000010
00000000
00000010
00000000
,
00001000
00000000
00000001
00000100
00000100
00010000
00000010
00000010
,
00020000
00000000
00000000
00000000
01030000
00000000
01000000
00010000
10000000
00000000
10000000
00010000
00100000
00000000
00100000
00000000
,
10010000
00000000
01000000
00000000
10000000
00000000
10000000
00100000
01000000
00000000
01000000
00010000
00100000
00000000
00100000
00001000
,
00010000
00000000
00010000
00000100
00001000
00000000
00001000
00000010
00000100
00000000
00000100
00000001
00000010
00000000
00000010
00000100
,
00000001
00000000
00000001
00000000
00000100
00001000
00000100
00001000
00000100
00010000
00000100
00010000
00001000
00010000
00001000
00010000
,
00001000
01000000
00001000
01000000
00010000
00100000
01000000
10000000
00100000
01000000
00010000
00100000
00001000
00010000
00000100
00001000
,
00000010
00000000
00000000
00000000
00000100
00000000
00000000
00000000
00000001
00000000
00000000
00000000
00000010
00000000
00000000
00000000
00000200
00000300
00000000
00000000
00000000
00000000
00000000
00000000
00000000
00000000
00000000
00000000
00000000
00000000
00000000
00000000
00001001
00000000
00000000
00000000
00000000
00000000
00000000
00000000
00000000
00000000
00000000
00000000
00000000
00000000
00000000
00000000
00011000
00000000
00000000
00000000
00000000
00000000
00000000
00000000
00000000
00000000
00000000
00000000
00000000
00000000
00000000
00000000
,
00001001
00000000
00000000
00001000
00010000
00000000
01000000
00000000
10000000
00000000
00100000
00000000
00100000
00000000
00010000
00000000
,
01000000
01000000
10000000
00010000
10010000
00000000
00011000
00000000
,
10010000
00000000
00000000
00010000
00001000
00000000
00000100
00000000
00000001
00000000
00000010
00000000
00000010
00000000
00001000
00000000
,
00000100
00000100
00000001
00002001
00000000
00013000
00011000
00000000
,
00001001
00000000
00000000
00001000
00010000
00000000
00100000
00000000
10000000
00000000
01000000
00000000
01000000
00000000
00010000
00000000
,
00010000
00000000
00001000
00000000
00002000
00000000
00000000
00000000
00003100
00000000
00000001
00000010
00000100
00000000
00010000
00001000
,
00010000
00001000
00100000
00000000
01000000
10000000
01000000
00000000
10000000
00100000
00010000
00000000
00001000
00000000
00010000
00001000
,
00000100
00000001
00001000
00000220
00000000
00000330
00011000
00000000
,
00001001
00000000
00000000
00001000
00010000
00000000
01000000
00000000
10000000
00000000
00100000
00000000
00100000
00000000
00010000
00000000
,
01000000
01000000
10000000
00010000
10010000
00000000
00011000
00000000
,
00001001
00000000
00000000
00001000
00010000
00000000
01000000
00000000
10000000
01000000
00100000
00010000
00001000
00000100
00000010
00000001
,
00001000
00000100
00000100
00000001
00000000
00001000
00001001
00000000
,
00011000
00000000
00000000
00000000
00000000
00000000
00000000
00000000
00000000
10000000
00000000
00000000
00010000
00000000
00000000
00000000
00000000
00000000
01000000
00000000
00000000
00000000
00000000
00000000
00010000
00000000
00000000
00000000
00001000
00000000
00000000
00000000
00010000
00000000
00000000
00000000
10000000
00000000
00000000
00000000
00010000
00000000
00000000
00000000
00001000
00000000
00000000
00000000
,
00000001
00000000
00001000
00000000
00010000
00000000
00001000
00000000
00000000
00020000
00000000
00000000
00000000
00000000
00000000
00100000
00000000
00000000
00130000
00000000
00000000
00002000
00000000
00000000
,
00000000
00000000
00000010
00000000
00003010
00000000
00020000
00000000
00000000
00000000
00031000
00100000
00010000
10000000
01000000
00100000
,
00010000
01000000
10000000
01000000
01100000
00000000
00000000
00011000
,
00000000
00000220
00000000
00000000
,
00000000
00000000
00000000
00000000
00000330
00000000
00000000
00000000
00000001
00000000
00000100
00000010
00001000
00000000
00000100
00010000
,
00001000
00000000
00010000
00000010
00000100
00000000
00001000
00000000
00010000
00000000
00001000
00100000
00010000
00000000
10000000
00100000
,
01000000
00000000
00001000
00010000
00100000
00000000
10000000
00000000
00010000
00000000
00100000
01000000
10000000
00000000
00010000
01000000
,
00001000
00000000
00010000
00001000
00000100
00000000
00000001
00000000
00001000
00000000
00000100
00000010
00000001
00000000
00001000
00000010
,
00010000
00000000
00000010
00000100
00001000
00000000
00010000
00000000
00100000
00000000
01000000
00001000
00010000
00000000
01000000
10000000
,
00010000
00000000
01000000
00100000
00010000
00000000
00001000
00000000
00100000
00000000
00001000
00010000
01000000
00000000
00100000
00000000
,
00001000
00000000
00010000
00000010
00000100
00000000
00000100
00000000
00000101
00000000
00000000
00000000
00001010
00000000
00010000
00000000
,
00010100
00000000
00001000
00000000
00101000
00000000
00000000
00000000
01010000
00000000
00010000
01000000
00010000
00000000
00010000
10000000
,
00010000
00000000
00010000
00100000
00010000
00000000
00000000
00000000
10100000
00000000
00000000
00000000
01010000
00000000
00001000
00000000
,
00101000
00000000
00010000
00000000
00010100
00000000
00000000
00000000
00001010
00000000
00001000
00000100
00001000
00000000
00001000
00000001
,
00001000
00000000
00001000
00000010
00001000
00000000
00000010
00000000
00000110
00000000
00000000
00000000
00001000
00000000
00100000
00000000
,
00010000
00000000
10000000
01000000
00010000
00000000
00001000
00000000
00010000
00000000
00001000
00000100
00000001
00000000
00001000
00000000
,
00000010
00000000
00000100
00001000
00010000
00000000
00100000
00000000
10000000
00000000
00010000
01000000
00010000
00000000
10000000
00000000
,
00100000
00000000
00010000
00001000
00010000
00000000
00000010
00000000
00001000
00000000
00000001
00000010
00000001
00000000
00001000
00000010
,
00001000
00000100
00010000
00001000
00010000
00000000
00100000
00000000
20100000
00000000
30000000
00000000
20100000
00000000
30000000
00000000
,
02010000
00000000
03000000
00100000
02000000
00000000
03010000
00000000
00200000
00000000
01300000
00000000
01200000
00000000
00300000
00000000
,
00120000
00030000
00021000
00031000
00002100
00003000
00002001
00003000
,
00000201
00000000
00000300
00000010
00000200
00000000
00000301
00000000
00000020
00000000
00000130
00000000
00000120
00000000
00000030
00000000
,
00001002
00000000
00000003
00000000
00000102
00000000
00000103
00000000
00000001
00001000
00000010
00000100
00000010
00001000
00000100
00010000
,
00001000
00100000
00001000
00010000
01000000
00100000
00010000
10000000
00100000
01000000
00010000
00100000
01000000
00100000
00001000
00010000
,
00001000
00000010
00000100
00001000
00000001
00000100
00001000
00010000
00200000
00000000
00000000
10300000
00000000
01000000
00010000
00000000
,
00002000
00000000
00000000
00003100
00000000
00000001
00001000
00000000
00000020
00000000
00000000
00000000
00000000
00000000
00000000
00000000
,
00000130
00000000
00000000
00000000
00000001
00000000
00001000
00000000
00000020
00000000
00000100
00000230
00000000
00000000
00001000
00002000
,
00000300
00000000
00000000
00000000
00013000
00000000
01000000
00000000
20000000
00000000
00000000
30020000
00000000
00000000
00230000
00000000
,
00000000
00000000
00000000
00000000
00300000
00000000
00010000
01000000
10000000
00000000
01000000
00010000
10000000
00000000
00010000
00100000
,
00001000
00000000
00010000
00000010
00000100
00000000
00001000
00000000
00010000
00000000
00000100
00000010
00001000
00000000
00000010
00000001
,
00001000
00000000
00000010
00000100
00000001
00000000
00000100
00000000
00001000
00000000
00010000
00001000
00010000
00000000
01000000
00000000
,
00000000
11000000
00000000
00000000
00110000
00000000
00001000
00000000
00010000
00000000
00000010
00000100
00000010
00000000
00001000
00000000
,
00000001
00000010
00000100
00001000
00010000
00000000
00000000
00000000
00100000
00000000
00010000
10000000
00100000
00000000
01000000
00001000
,
00010000
00000000
00100000
01000000
00001000
00000000
00010000
00000000
00000100
00000000
00001000
00000010
00010000
00000000
00000010
00000100
,
00000001
00000000
00000010
00000001
00001000
00000000
00000001
00000000
00000100
00000000
00000010
00010000
00000100
00000000
00000010
00001000
,
00010000
00000000
01000000
00100000
00010000
00000000
01000000
00001000
00010000
00000000
00100000
01000000
00010000
10000000
01000000
00100000
,
00001000
00010000
00000100
00000010
00000001
00000100
00001000
00010000
00200000
00000000
20300000
00000000
00000000
00000000
32000000
00000000
,
00000000
03020000
00000000
00032000
00000000
00003020
00000000
00000032
,
00000000
00000203
00000300
00000000
00202000
00000000
00303000
02020000
,
00000000
03030000
20200000
00000000
00000000
00000000
00000000
00000000
,
00000000
00000000
30300000
00000000
,
00000000
00000000
00000000
00000000
;
