
//----- song ID: sans0 -----//
#TITLE:チルノのパーフェクトさんすう教室;
#ARTIST:ARM+夕野ヨシミ feat. miko;
#TITLETRANSLIT:Cirno's Perfect Math Class;
#ARTISTTRANSLIT:ARM+Youno feat. miko;
#BANNER:Cirno's Perfect Math Class.png;
#BACKGROUND:Cirno's Perfect Math Class-bg.png;
#CDTITLE:./CDTitles/SOUND VOLTEX BOOTH.png;
#MUSIC:Cirno's Perfect Math Class.ogg;
#SAMPLESTART:77.637;
#SAMPLELENGTH:15;
#DISPLAYBPM:175;
#BPMS:0=175.5,4=175;
#NOTES:
     dance-single:
     :
     Beginner:
     3:
     :
0000
0000
0000
0000
,
0000
0000
0000
0000
,
0000
0000
0000
0000
,
0000
0000
0000
0000
,
0000
0000
0000
0000
,
0000
0000
0000
0000
,
0000
0000
0000
0000
,
0000
0000
0000
0000
,
0000
0000
0000
0000
,
2000
0000
3000
0000
,
1000
0000
0000
0000
,
0002
0000
0003
0000
,
0001
0000
0000
0000
,
0010
0000
0010
0000
,
0100
0000
0100
0000
,
0001
0000
1000
0000
,
1001
0000
0000
0000
,
2000
0000
3000
0000
,
2000
0000
3000
0000
,
2000
0000
3000
0000
,
0000
0000
0000
0000
,
0002
0000
0003
0000
,
0002
0000
0003
0000
,
0002
0000
0003
0000
,
0000
0000
0000
0000
,
0020
0000
0030
0000
,
0020
0000
0030
0000
,
0020
0000
0030
0000
,
0000
0000
0000
0000
,
0200
0000
0300
0000
,
0200
0000
0300
0000
,
1000
0000
1000
0000
,
0010
0000
1001
0000
,
1000
1000
1000
0000
,
0010
0000
0010
0000
,
0001
0001
0001
0000
,
0010
0000
0010
0000
,
1000
1000
1000
0000
,
0010
0000
0010
0000
,
0001
0001
0001
0000
,
0010
0000
0010
0000
,
1000
1000
1000
0000
,
0100
0000
0100
0000
,
0001
0001
0001
0000
,
0100
0000
0100
0000
,
2000
0000
3000
0000
,
0002
0000
0003
0000
,
1001
0000
1001
0000
,
1001
0000
0000
0000
,
0002
0000
0000
0000
,
0003
0000
0000
0000
,
2000
0000
0000
0000
,
3000
0000
0000
0000
,
0001
0000
0001
0000
,
0010
0000
0010
0000
,
0100
0000
0100
0000
,
1001
0000
0000
0000
,
2000
0000
3000
0000
,
1000
0000
0000
0000
,
0002
0000
0003
0000
,
0001
0000
0000
0000
,
0010
0000
0010
0000
,
0100
0000
0100
0000
,
0001
0000
1000
0000
,
1001
0000
0000
0000
,
2000
0000
3000
0000
,
1000
0000
0000
0000
,
0002
0000
0003
0000
,
0001
0000
0000
0000
,
0010
0000
0010
0000
,
0100
0000
0100
0000
,
0001
0000
1000
0000
,
1001
0000
0000
0000
,
2000
0000
3000
0000
,
2000
0000
3000
0000
,
2000
0000
3000
0000
,
2002
0000
3003
0000
,
0002
0000
0003
0000
,
0002
0000
0003
0000
,
0002
0000
0003
0000
,
2002
0000
3003
0000
,
0020
0000
0030
0000
,
0020
0000
0030
0000
,
0020
0000
0030
0000
,
0000
0000
0000
0000
,
0200
0000
0300
0000
,
0200
0000
0300
0000
,
1000
0000
1000
0000
,
0010
0000
0000
2002
,
0000
0000
0000
0000
,
3003
0000
0000
0000
,
0000
0000
0000
0000
;
#NOTES:
     dance-single:
     :
     Easy:
     6:
     :
0000
0000
0000
0000
,
0000
0000
0000
0000
,
0000
0000
0000
0000
,
0000
0000
0000
0000
,
0000
0000
0000
0000
,
0000
0000
0000
0000
,
0000
0000
0000
0000
,
0000
0000
0000
0000
,
0000
0000
0000
0000
,
2000
0000
3100
0010
,
0001
0000
0000
0000
,
0002
0000
0103
0010
,
1000
0000
0000
0000
,
0002
0000
2003
0000
,
3020
0000
0130
0000
,
1001
0000
0110
0000
,
2002
0000
3003
0000
,
0001
0001
0001
0000
,
0100
0100
0100
0000
,
0010
0010
0010
0000
,
1000
0001
1000
0001
,
1000
1000
1000
0000
,
0100
0100
0100
0000
,
0010
0010
0010
0000
,
0001
1000
0001
0001
,
1000
1000
1000
0000
,
0010
0010
0010
0000
,
0100
0100
0100
0000
,
0001
1000
0001
1000
,
0001
0001
0001
0000
,
0010
0010
0010
0000
,
0001
0001
1000
1000
,
0001
1000
1001
0000
,
0001
0100
0010
0000
,
1000
0001
0010
0000
,
0001
1000
0001
1000
,
0020
0000
0130
0000
,
1000
0001
0100
0000
,
0001
1000
0100
0000
,
1000
0001
1000
0001
,
0020
0000
0130
0000
,
1000
0100
0010
0000
,
0001
0100
0010
0000
,
1000
0001
0010
0100
,
2000
0000
3001
0000
,
2000
0000
3200
0000
,
0310
0010
0001
0000
,
0200
0000
0320
0000
,
2030
0000
3001
0000
,
0002
0000
0000
0000
,
1003
0000
0000
0000
,
2000
0000
0000
0000
,
3001
0000
0000
0000
,
1000
0001
1000
0001
,
0010
0100
0010
0000
,
1001
0000
0110
0000
,
2002
0000
3003
0000
,
2000
0000
3100
0010
,
0001
0000
0000
0000
,
0002
0000
0103
0010
,
1000
0000
0000
0000
,
0002
0000
2003
0000
,
3020
0000
0130
0000
,
1001
0000
0110
0000
,
0001
1000
0001
0000
,
2000
0000
3100
0010
,
0001
0000
0000
0000
,
0002
0000
0103
0010
,
1000
0000
0000
0000
,
2000
0000
3002
0000
,
0023
0000
0130
0000
,
1001
0000
0110
0000
,
2002
0000
3003
0000
,
0001
0001
0001
0000
,
0100
0100
0100
0000
,
0010
0010
0010
0000
,
1000
0001
1000
0000
,
1000
1000
1000
0000
,
0100
0100
0100
0000
,
0010
0010
0010
0000
,
0001
1000
0001
0000
,
1000
1000
1000
0000
,
0010
0010
0010
0000
,
0100
0100
0100
0000
,
0001
1000
0001
1000
,
0001
0001
0001
0000
,
0010
0010
0010
0000
,
0001
0001
1000
1000
,
0001
1000
0001
2002
,
0000
0000
0000
0000
,
0000
0000
0000
0000
,
3003
0000
0000
0000
,
0000
0000
0000
0000
;
#NOTES:
     dance-single:
     :
     Medium:
     10:
     :
0000
0000
0000
0000
,
0000
0000
0000
0000
,
0000
0000
0000
0000
,
0000
0000
0000
0000
,
0000
0000
0000
0000
,
0000
0000
0000
0000
,
0000
0000
0000
0000
,
0000
0000
0000
0000
,
0000
0000
0000
0000
0000
1000
0100
0000
,
0010
0000
0000
0001
0010
0000
0100
0000
,
1000
0000
0000
0000
0000
0001
0100
0000
,
0010
0000
0000
1000
0010
0000
0100
0000
,
0001
0000
0000
1000
,
1100
0000
0101
0000
,
0011
0000
1010
0000
,
0001
0101
1000
1010
,
0100
0010
0110
1001
,
0002
0000
0103
0002
0000
0103
0000
0000
,
2000
0000
3010
2000
0000
3010
0000
0000
,
0002
0000
1003
0002
0000
1003
0000
0000
,
0001
0000
0100
0000
0010
1000
0010
0000
,
2000
0000
3100
2000
0000
3100
0000
0000
,
0002
0000
0013
0002
0000
0013
0000
0000
,
2000
0000
3001
2000
0000
3001
0000
0000
,
0100
0001
0100
0000
0020
0000
1030
0000
,
0002
0000
0013
0200
0000
1300
0000
0000
,
2000
0000
3010
0200
0000
0301
0000
0000
,
0002
0000
1003
0020
0000
0130
0000
0000
,
0010
1000
0001
0000
0010
0001
1000
0000
,
2000
0000
3100
0020
0000
0031
0000
0000
,
0002
0000
0103
0020
0000
1030
0000
0000
,
1000
1001
0001
1001
,
0010
0100
0010
0100
0010
0000
1001
0000
,
0001
0100
0010
0000
0110
0000
0000
0000
,
1000
0100
0010
0000
0110
0000
0000
0000
,
1000
0001
0010
0000
0001
0000
1000
0000
,
0010
0100
0001
0000
1001
0000
0000
0000
,
1000
0100
0001
0000
0101
0000
0000
0000
,
0001
0100
1000
0000
1100
0000
0000
0000
,
0001
1000
0010
0000
1000
0000
0001
0000
,
0010
0100
1000
0000
1001
0000
0000
0000
,
0001
0010
1000
0000
1010
0000
0000
0000
,
1000
0010
0001
0000
0011
0000
0000
0000
,
1000
0001
0100
0000
0001
0000
1000
0000
,
0010
0100
0001
0000
1001
0000
0000
0000
,
1000
1000
0100
0100
,
0010
0001
1000
0001
,
2000
3010
0002
0013
,
2000
3100
1001
0000
,
0002
0000
0000
0000
,
2003
0000
0000
0000
,
3020
0000
0000
0000
,
0230
0000
0000
0000
,
0310
1000
0000
0001
0000
0100
0000
0010
,
1000
0100
0000
0010
0000
0001
0000
1000
,
0001
0101
1000
1010
,
2002
0000
0000
0000
3003
1000
0100
0000
,
0010
0000
0000
0001
0010
0000
0100
0000
,
1000
0000
0000
0000
0000
0001
0100
0000
,
0010
0000
0000
1000
0010
0000
0100
0000
,
0001
0000
0000
1000
,
1100
0000
0000
0100
1000
0000
0001
0000
,
0000
1000
0001
0000
0100
0000
0110
0000
,
1000
1100
0001
0011
,
0010
0000
0100
0000
0110
0001
0010
0000
,
0100
0000
0000
1000
0100
0000
0010
0000
,
0001
0000
0000
0000
0000
1000
0010
0000
,
0100
0000
0000
0001
0100
0000
0010
0000
,
1000
0000
0000
0001
,
0011
0000
0000
0100
1000
0000
0001
0000
,
2000
3100
0002
0103
,
1000
1010
0001
0101
,
0110
1001
0110
1001
,
0002
0000
0103
0002
0000
0103
0000
0000
,
2000
0000
3010
2000
0000
3010
0000
0000
,
0002
0000
1003
0002
0000
1003
0000
0000
,
2000
0000
3100
0002
0000
0103
0000
0000
,
2000
0000
3100
2000
0000
3100
0000
0000
,
0002
0000
0013
0002
0000
0013
0000
0000
,
2000
0000
3001
2000
0000
3001
0000
0000
,
0002
0000
0103
2000
0000
3100
0000
0000
,
0002
0000
0013
0200
0000
1300
0000
0000
,
2000
0000
3010
0200
0000
0301
0000
0000
,
0002
0000
1003
0020
0000
0130
0000
0000
,
0110
1001
0110
1001
,
2000
0000
3100
0020
0000
0031
0000
0000
,
0002
0000
0103
0020
0000
1030
0000
0000
,
1000
1001
0001
1001
,
0010
0100
0010
0100
0010
0000
2002
0000
,
0000
0000
0000
0000
,
0000
0000
0000
0000
,
3003
0000
0000
0000
,
0000
0000
0000
0000
;
#NOTES:
     dance-single:
     :
     Hard:
     13:
     :
0000
0000
0000
0000
,
0000
0000
0000
0000
,
0000
0000
0000
0000
,
0000
0000
0000
0000
,
0000
0000
0000
0000
,
0000
0000
0000
0000
,
0000
0000
0000
0000
,
0000
0000
0000
0000
,
0000
0000
0000
0000
0000
1000
0100
0010
,
0001
0000
0000
0001
0010
0100
1000
0001
,
1000
0000
0000
0000
0000
0001
0100
0010
,
1000
0000
0000
1000
0010
0100
0001
1000
,
0001
0000
0000
1100
,
0220
0330
0022
0033
,
0001
1000
0001
0100
0010
1000
0001
0000
,
0021
0130
1200
0310
,
0001
1000
0010
0100
0001
0110
1001
0000
,
1000
0100
0001
1000
0010
0001
0000
0000
,
1000
0100
0001
1000
0010
0001
0000
0000
,
1000
0100
0001
1000
0010
0001
0000
0000
,
0020
0230
2300
3001
,
0001
0100
1000
0001
0010
1000
0000
0000
,
0001
0100
1000
0001
0010
1000
0000
0000
,
0001
0100
1000
0001
0010
1000
0000
0000
,
1000
0001
2000
0000
3010
0000
0110
0000
,
1000
0010
0001
1000
0100
0001
0000
0000
,
1000
0010
0001
1000
0100
0001
0000
0000
,
1000
0010
0001
1000
0100
0001
0000
0000
,
2000
0000
3002
0000
0103
0010
1000
0000
,
0001
0010
1000
0001
0100
1000
0000
0000
,
0001
0010
1000
0001
0100
1000
0000
0000
,
0001
0000
0000
1000
0000
0000
0010
0000
0000
0100
0000
0000
0001
0000
1000
0000
,
0100
0000
0010
0000
0001
0000
1000
0001
0000
0000
0000
0000
0000
0000
0000
0000
,
1000
0100
0010
0000
1001
0000
0000
0000
,
0001
1000
0010
0000
1001
0000
0000
0000
,
1000
0100
0010
0000
0001
0100
0010
0000
,
1000
0100
0001
0100
1000
0000
0000
0000
,
0001
0010
0100
1000
0001
0000
0000
0000
,
1000
0100
0010
0001
1000
0000
0000
0000
,
0001
0100
1000
0000
1000
0100
0001
0000
,
1000
0010
0001
0010
1000
0000
0000
0000
,
0100
0100
0001
1000
0010
0000
0000
0000
,
0100
0100
1000
0001
0100
0000
0000
0000
,
0010
1000
0010
0000
0100
0001
0100
0000
,
0001
0010
1000
0010
0001
0000
0000
0000
,
1100
0101
0011
1010
,
1001
0110
1001
0110
,
0001
1000
0010
0000
1000
0001
0010
0000
,
0100
0010
0100
1000
0001
0000
1000
0000
,
0002
0000
0000
0000
,
0203
0000
0000
0000
,
0320
0000
0000
0000
,
2030
0000
0000
0000
,
3001
0011
0000
1100
0000
0110
0000
1001
,
0100
0110
0000
1010
0000
0101
0000
1001
,
0010
0110
1000
1001
,
0220
0000
0000
0000
0330
1000
0100
0010
,
0001
0000
0000
0001
0010
0100
1000
0001
,
1000
0000
0000
0000
0000
0001
0100
0010
,
1000
0000
0000
1000
0010
0100
0001
1000
,
0001
0000
0000
0110
,
1001
0000
0000
0001
0010
0000
0100
0000
,
0000
1000
0100
0010
0001
0100
0010
0000
,
1000
1000
1010
0000
0001
0001
0101
0000
,
0110
0000
1001
0000
0110
0001
0010
0100
,
1000
0000
0000
1000
0100
0010
0001
1000
,
0001
0000
0000
0000
0000
1000
0010
0100
,
0001
0000
0000
0001
0100
0010
1000
0001
,
1000
0000
0000
0110
,
1001
0000
0000
1000
0100
0000
0010
0000
,
0001
0010
0100
1000
0001
0100
0010
0000
,
0100
0100
1100
0000
0001
0001
0011
0000
,
0110
1001
0110
1001
,
0001
0100
1000
0001
0010
1000
0000
0000
,
0001
0100
1000
0001
0010
1000
0000
0000
,
0001
0100
1000
0001
0010
1000
0000
0000
,
2000
3020
0032
2003
3200
0302
0003
0000
,
1000
0100
0001
1000
0010
0001
0000
0000
,
1000
0100
0001
1000
0010
0001
0000
0000
,
1000
0100
0001
1000
0010
0001
0000
0000
,
0002
0203
2300
3002
0023
2030
3000
0000
,
0001
0010
1000
0001
0100
1000
0000
0000
,
0001
0010
1000
0001
0100
1000
0000
0000
,
0001
0010
1000
0001
0100
1000
0000
0000
,
0002
0000
2003
0000
3100
0010
0001
0000
,
1000
0010
0001
1000
0100
0001
0000
0000
,
1000
0010
0001
1000
0100
0001
0000
0000
,
1000
0000
0000
0001
0000
0000
0010
0000
0000
0100
0000
0000
1000
0000
0001
0000
,
0100
0000
0010
0000
1000
0000
0001
1000
0000
0000
0000
0000
2002
0000
0000
0000
,
0000
0000
0000
0000
,
0000
0000
0000
0000
,
3003
0000
0000
0000
,
0000
0000
0000
0000
;
#NOTES:
     dance-single:
     :
     Challenge:
     15:
     :
0000
0000
0000
0000
,
0000
0000
0000
0000
,
0000
0000
0000
0000
,
0000
0000
0000
0000
,
0000
0000
0000
0000
,
0000
0000
0000
0000
,
0000
0000
0000
0000
,
0000
0000
0000
0000
,
0000
0000
0000
0000
0000
1000
0010
0001
,
0010
0000
0000
1000
0001
0010
1000
0010
,
0001
0100
0010
1000
0010
0001
0010
1000
,
0010
0000
0000
1000
0001
0010
1000
0010
,
0001
0000
0010
0001
0010
0000
0100
0000
1000
0000
0000
0000
0101
0000
0000
0000
,
1001
0000
0000
0010
1100
0000
1001
0000
,
0001
0000
1000
0100
1000
0000
0001
0000
0100
0000
0010
1000
0010
0000
0100
0000
,
0012
0003
0110
0000
2010
3000
0110
0000
,
0001
0000
1000
0100
1000
0000
0001
0000
0100
0000
0110
0000
1001
0000
0000
0000
,
1000
0000
0100
0000
0010
0000
0002
0000
0000
0000
1003
0000
0001
0100
0001
0100
,
0001
0000
0100
0000
0010
0000
1000
0001
0000
0100
0010
0000
1000
0100
1000
0100
,
1000
0000
0001
0000
0100
0000
0020
0000
0000
0000
1030
0000
0001
0010
0001
0010
,
0001
0000
1000
0000
0100
0000
0020
0000
0030
0001
0100
0000
0010
1000
0010
1000
,
0001
0000
1000
0000
0100
0000
0020
0000
0000
0000
0031
0000
1000
0001
1000
0001
,
1000
0000
0100
0000
0010
0000
0001
0100
0000
0010
1000
0000
0001
0100
0001
0100
,
0001
0000
0100
0000
0010
0000
1000
0000
0000
1000
0001
0000
0100
0000
0010
0000
,
1000
0001
1000
0001
1000
0100
1000
0100
1000
0000
0001
0000
1000
0000
0001
0000
,
1000
0000
0100
0000
0001
0000
0100
0000
0000
0100
1000
0000
0001
0000
0010
0000
,
0001
0000
0100
0000
1000
0000
0100
0000
0000
0100
0001
0000
1000
0000
0100
0000
,
1000
0000
0010
0000
0001
0000
0010
0000
0000
0010
1000
0000
0100
0000
1000
0000
,
0001
0010
0001
0010
0001
0000
1000
0001
0000
1000
0100
0000
0010
0000
0100
0000
,
0001
0100
1000
0100
0000
0010
0001
0100
,
0010
1000
0010
0001
0000
1000
0100
0001
,
1000
0100
0000
0100
0010
0000
0010
0001
0000
0001
1000
0000
0010
0000
0100
0000
,
0001
0000
0010
0000
0001
0000
1000
0100
0000
0000
0000
0000
1001
0000
0000
0000
,
1000
0001
0100
0001
0010
0000
1001
0000
,
0001
1000
0010
1000
0100
0000
1001
0000
,
0100
0010
1000
0001
0100
0010
0100
0001
,
1000
0100
0010
0001
0100
0000
1001
0000
,
0010
1000
0001
0100
0010
0000
0110
0000
,
0001
1000
0100
0010
0001
0000
0110
0000
,
0001
0010
1000
0000
0001
0100
1000
0000
,
0002
0000
0000
1003
0020
0000
0130
0000
,
0001
0010
0100
1000
0001
0000
1100
0000
,
1000
0010
0100
0001
0010
0100
0110
0000
,
1000
0000
0001
0100
0001
0000
1000
0100
2000
0000
0000
0000
3010
0000
0100
0000
,
0001
0000
0010
0001
1000
0100
0110
0000
,
0001
0100
0001
0100
0001
1000
0001
1000
0010
1000
0010
1000
0010
0100
0010
0100
,
0001
0100
0001
0100
0001
0010
0001
0010
0100
0000
1000
0000
0001
0000
0000
0000
,
1010
0000
0100
0000
0011
0000
0100
0010
,
2000
0000
0000
3001
0020
0000
0000
0030
,
0100
1000
0100
0020
0000
0000
0000
0030
,
0001
0010
0001
0100
0000
0010
1000
0010
,
0100
0001
0100
0020
0000
0000
0000
0030
,
1000
0100
0010
0100
0000
0100
0010
0000
,
1001
0010
0110
0100
,
1001
0110
0101
1100
,
0200
0300
0011
0000
0200
0300
1010
0000
,
0220
0000
0000
0330
1001
0100
0010
0001
,
1000
0100
0001
0100
1000
0001
0010
0100
,
0010
0001
1000
0100
0010
0010
0001
1000
,
0001
0010
1000
0010
0100
0001
0100
1000
,
0010
0000
0100
0001
0100
0000
0010
0000
1000
0000
0000
0000
0101
0000
0000
0000
,
1001
0000
0100
0001
1000
0000
0100
0010
,
0000
0000
0001
0010
0001
0000
1000
0000
0010
0000
0100
0000
0001
0000
0010
0000
,
0100
0000
1000
0001
0010
0000
0100
0000
1000
0000
0001
0100
0010
0000
1000
0000
,
1001
0000
1100
0000
0101
1000
0100
0010
,
0001
0100
1000
0100
0001
1000
0100
0010
,
0100
1000
0001
0010
0010
0001
1000
0010
,
0100
0001
0100
1000
0100
0010
0001
0010
,
1000
0000
0001
0100
0001
0000
1000
0000
0010
0000
0000
0000
0110
0000
0000
0000
,
1001
0000
1000
0001
0100
0000
0110
0000
,
1001
0000
0010
1000
0100
0000
0110
0000
,
1000
0001
0101
0000
0010
1000
1100
0000
,
0001
0000
0010
0100
0010
0000
0001
0000
1000
0000
0100
0000
0110
0000
0000
0000
,
0001
0000
0100
0000
0010
0000
2000
0000
0000
0000
3010
0000
1000
0100
1000
0100
,
0010
0000
0001
0000
0010
0000
0100
1000
0000
0001
0100
0000
0001
0010
0001
0010
,
0100
0000
1000
0000
0100
0000
0020
0000
0000
0000
0031
0000
1000
0010
1000
0010
,
0100
0000
0001
0000
0100
0000
0020
0000
0030
1000
0100
0000
1000
0001
1000
0001
,
0010
0000
0001
0000
0100
0000
0020
0000
0000
0000
1030
0000
0001
1000
0001
1000
,
0100
0000
1000
0000
0001
0000
0010
0100
0000
0010
0001
0000
1000
0100
1000
0001
,
1000
0000
0001
0000
0010
0000
0100
0000
0000
0100
1000
0000
0100
0000
0010
0000
,
0100
1000
0100
1000
0001
0010
0001
0010
0100
0000
1000
0000
0001
0000
1000
0000
,
0001
0000
0100
0000
1000
0000
0100
0000
0000
0100
0001
0000
1000
0000
0010
0000
,
1000
0000
0100
0000
0001
0000
0100
0000
0000
0100
1000
0000
0001
0000
0100
0000
,
0001
0000
0010
0000
1000
0000
0010
0000
0000
0010
0001
0000
0100
0000
0001
0000
,
1000
0010
1000
0010
0100
0000
0001
1000
0000
0001
0100
0000
0010
0000
0100
0000
,
1000
0100
0001
0100
0000
0010
1000
0100
,
0010
0001
0010
1000
0000
0001
0100
1000
,
0001
1000
0000
0100
0001
0000
0100
1000
0000
0010
0100
0000
0001
0000
0100
0000
,
0010
0000
1000
0000
0001
0000
0100
0010
0000
0000
0000
0000
1001
0000
0000
0000
,
0000
0000
0000
0000
;
#NOTES:
     dance-double:
     :
     Easy:
     6:
     :
00000000
00000000
00000000
00000000
,
00000000
00000000
00000000
00000000
,
00000000
00000000
00000000
00000000
,
00000000
00000000
00000000
00000000
,
00000000
00000000
00000000
00000000
,
00000000
00000000
00000000
00000000
,
00000000
00000000
00000000
00000000
,
00000000
00000000
00000000
00000000
,
00000000
00000000
00000000
00000000
,
20000000
00000000
31000000
00010000
,
00001000
00000000
00000000
00000000
,
00002000
00000000
00013000
00001000
,
00000010
00000000
00000000
00000000
,
00000002
00000000
00002003
00000000
,
00003020
00000000
00000130
00000000
,
00001001
00000000
00000110
00000000
,
00002002
00000000
00003003
00000000
,
00000001
00000001
00000001
00000000
,
00000100
00000100
00000100
00000000
,
00001000
00001000
00001000
00000000
,
00010000
00001000
00010000
00001000
,
00010000
00010000
00010000
00000000
,
00100000
00100000
00100000
00000000
,
10000000
10000000
10000000
00000000
,
00010000
10000000
00010000
00010000
,
10000000
10000000
10000000
00000000
,
00100000
00100000
00100000
00000000
,
00010000
00010000
00010000
00000000
,
00001000
00010000
00001000
00010000
,
00001000
00001000
00001000
00000000
,
00000100
00000100
00000100
00000000
,
00000001
00001000
00000010
00000100
,
00000001
00001000
00001001
00000000
,
00000001
00000100
00001000
00000000
,
00000100
00001000
00010000
00000000
,
00001000
00010000
00001000
00010000
,
00200000
00000000
10300000
00000000
,
10000000
01000000
00010000
00000000
,
01000000
00010000
00001000
00000000
,
00010000
00001000
00010000
00001000
,
00000020
00000000
00000031
00000000
,
00000001
00000100
00001000
00000000
,
00010000
00001000
00010000
00000000
,
00001000
00010000
00100000
01000000
,
00020000
00000000
10030000
00000000
,
20000000
00000000
32000000
00000000
,
03010000
00001000
00010000
00000000
,
00002000
00000000
00003020
00000000
,
00000032
00000000
00001003
00000000
,
00000002
00000000
00000000
00000000
,
00000103
00000000
00000000
00000000
,
00000200
00000000
00000000
00000000
,
00001300
00000000
00000000
00000000
,
00001000
00010000
00001000
00010000
,
00100000
01000000
00100000
00000000
,
10010000
00000000
01100000
00000000
,
20020000
00000000
30030000
00000000
,
20000000
00000000
31000000
00010000
,
00001000
00000000
00000000
00000000
,
00002000
00000000
00013000
00001000
,
00000010
00000000
00000000
00000000
,
00000002
00000000
00002003
00000000
,
00003020
00000000
00000130
00000000
,
00001001
00000000
00000110
00000000
,
00000001
00001000
00000001
00000000
,
00000002
00000000
00000103
00001000
,
00010000
00000000
00000000
00000000
,
00020000
00000000
00031000
00010000
,
00100000
00000000
00000000
00000000
,
20000000
00000000
30020000
00000000
,
00230000
00000000
01300000
00000000
,
10010000
00000000
01100000
00000000
,
20020000
00000000
30030000
00000000
,
10000000
10000000
10000000
00000000
,
01000000
01000000
01000000
00000000
,
00010000
00010000
00010000
00000000
,
00001000
00010000
00001000
00000000
,
00001000
00001000
00001000
00000000
,
00000010
00000010
00000010
00000000
,
00000001
00000001
00000001
00000000
,
00001000
00000001
00001000
00000000
,
00000001
00000001
00000001
00000000
,
00000010
00000010
00000010
00000000
,
00001000
00001000
00001000
00000000
,
00010000
00001000
00010000
00001000
,
00010000
00010000
00010000
00000000
,
01000000
01000000
01000000
00000000
,
10000000
00010000
00100000
01000000
,
10000000
00010000
10000000
20020000
,
00000000
00000000
00000000
00000000
,
00000000
00000000
00000000
00000000
,
30030000
00000000
00000000
00000000
,
00000000
00000000
00000000
00000000
;
#NOTES:
     dance-double:
     :
     Medium:
     10:
     :
00000000
00000000
00000000
00000000
,
00000000
00000000
00000000
00000000
,
00000000
00000000
00000000
00000000
,
00000000
00000000
00000000
00000000
,
00000000
00000000
00000000
00000000
,
00000000
00000000
00000000
00000000
,
00000000
00000000
00000000
00000000
,
00000000
00000000
00000000
00000000
,
00000000
00000000
00000000
00000000
00000000
10000000
01000000
00000000
,
00010000
00000000
00000000
00001000
00010000
00000000
00001000
00000000
,
00000100
00000000
00000000
00000000
00000000
00000001
00000100
00000000
,
00001000
00000000
00000000
00010000
00001000
00000000
00010000
00000000
,
01000000
00000000
00000000
10000000
,
11000000
00000000
01010000
00000000
,
00011000
00000000
00001010
00000000
,
00000001
00000101
00001000
00001010
,
00000100
00000010
00000110
00001001
,
00000002
00000000
00000103
00000002
00000000
00000103
00000000
00000000
,
00002000
00000000
00013000
00002000
00000000
00013000
00000000
00000000
,
00200000
00000000
10300000
00200000
00000000
10300000
00000000
00000000
,
00010000
00000000
01000000
00000000
00100000
10000000
00100000
00000000
,
20000000
00000000
31000000
20000000
00000000
31000000
00000000
00000000
,
00020000
00000000
00031000
00020000
00000000
00031000
00000000
00000000
,
00000020
00000000
00000031
00000020
00000000
00000031
00000000
00000000
,
00000100
00000001
00000100
00000000
00000020
00000000
00001030
00000000
,
00000002
00000000
00000013
00000002
00000000
00000013
00000000
00000000
,
00002000
00000000
00013000
00002000
00000000
00013000
00000000
00000000
,
02000000
00000000
13000000
02000000
00000000
13000000
00000000
00000000
,
10000000
01000000
00100000
00000000
00010000
00100000
01000000
00000000
,
20000000
00000000
30100000
20000000
00000000
30100000
00000000
00000000
,
00020000
00000000
00031000
00020000
00000000
00031000
00000000
00000000
,
00000100
00000110
00000001
00001001
,
00000010
00000100
00000010
00000100
00000010
00000000
00001001
00000000
,
00000001
00000100
00001000
00000000
00001100
00000000
00000000
00000000
,
00000100
00001000
00010000
00000000
00011000
00000000
00000000
00000000
,
00001000
00010000
00100000
00000000
10000000
00000000
00010000
00000000
,
01000000
00100000
10000000
00000000
10010000
00000000
00000000
00000000
,
10000000
01000000
00010000
00000000
01010000
00000000
00000000
00000000
,
01000000
00010000
00001000
00000000
00011000
00000000
00000000
00000000
,
00010000
00001000
00000010
00000000
00000001
00000000
00001000
00000000
,
00000010
00000100
00000001
00000000
00001001
00000000
00000000
00000000
,
00000001
00000010
00001000
00000000
00001010
00000000
00000000
00000000
,
00000010
00001000
00010000
00000000
00011000
00000000
00000000
00000000
,
00001000
00010000
01000000
00000000
10000000
00000000
00010000
00000000
,
00100000
01000000
10000000
00000000
10010000
00000000
00000000
00000000
,
10000000
10000000
00100000
00100000
,
00010000
00001000
00000100
00000001
,
00002000
00003010
00000002
00000013
,
00002000
00003100
00001001
00000000
,
00000002
00000000
00000000
00000000
,
00000203
00000000
00000000
00000000
,
00002300
00000000
00000000
00000000
,
00023000
00000000
00000000
00000000
,
00130000
10000000
00000000
00010000
00000000
01000000
00000000
00100000
,
10000000
01000000
00000000
00010000
00000000
00001000
00000000
00000100
,
00000001
00000101
00001000
00001010
,
00002002
00000000
00000000
00000000
00003003
00000001
00000100
00000000
,
00001000
00000000
00000000
00010000
00001000
00000000
00010000
00000000
,
01000000
00000000
00000000
00000000
00000000
10000000
01000000
00000000
,
00010000
00000000
00000000
00001000
00010000
00000000
00001000
00000000
,
00000100
00000000
00000000
00000001
,
00000101
00000000
00000000
00000100
00001000
00000000
00010000
00000000
,
00000000
00001000
00010000
00000000
01000000
00000000
01100000
00000000
,
10000000
11000000
00010000
00110000
,
00100000
00000000
01000000
00000000
01100000
10000000
01000000
00000000
,
00010000
00000000
00000000
00001000
00010000
00000000
00001000
00000000
,
00000100
00000000
00000000
00000000
00000000
00000001
00000100
00000000
,
00001000
00000000
00000000
00010000
00001000
00000000
00010000
00000000
,
01000000
00000000
00000000
10000000
,
11000000
00000000
00000000
01000000
00010000
00000000
00001000
00000000
,
00020000
00031000
00000020
00000130
,
00000001
00000101
00001000
00001010
,
00000110
00001001
00000110
00001001
,
00000002
00000000
00000103
00000002
00000000
00000103
00000000
00000000
,
00002000
00000000
00013000
00002000
00000000
00013000
00000000
00000000
,
00200000
00000000
10300000
00200000
00000000
10300000
00000000
00000000
,
20000000
00000000
31000000
00020000
00000000
01030000
00000000
00000000
,
20000000
00000000
31000000
20000000
00000000
31000000
00000000
00000000
,
00020000
00000000
00031000
00020000
00000000
00031000
00000000
00000000
,
00000020
00000000
00000031
00000020
00000000
00000031
00000000
00000000
,
00000002
00000000
00000103
00002000
00000000
00003100
00000000
00000000
,
00000002
00000000
00000013
00000002
00000000
00000013
00000000
00000000
,
00002000
00000000
00013000
00002000
00000000
00013000
00000000
00000000
,
02000000
00000000
13000000
02000000
00000000
13000000
00000000
00000000
,
01100000
10010000
01100000
10010000
,
20000000
00000000
30100000
20000000
00000000
30100000
00000000
00000000
,
00020000
00000000
00031000
00020000
00000000
00031000
00000000
00000000
,
00000100
00000110
00000001
00001001
,
00000010
00000100
00000010
00000100
00000010
00000000
00002002
00000000
,
00000000
00000000
00000000
00000000
,
00000000
00000000
00000000
00000000
,
00003003
00000000
00000000
00000000
,
00000000
00000000
00000000
00000000
;
#NOTES:
     dance-double:
     :
     Hard:
     13:
     :
00000000
00000000
00000000
00000000
,
00000000
00000000
00000000
00000000
,
00000000
00000000
00000000
00000000
,
00000000
00000000
00000000
00000000
,
00000000
00000000
00000000
00000000
,
00000000
00000000
00000000
00000000
,
00000000
00000000
00000000
00000000
,
00000000
00000000
00000000
00000000
,
00000000
00000000
00000000
00000000
00000000
10000000
01000000
00010000
,
00001000
00000000
00000000
00000001
00000010
00001000
00010000
01000000
,
10000000
00000000
00000000
00000000
00000000
10000000
00100000
00010000
,
00001000
00000000
00000000
00000001
00000100
00001000
00010000
00100000
,
10000000
00000000
00000000
10000000
,
22000000
33000000
02020000
03030000
,
00001000
00010000
00001000
00000100
00000001
00000010
00001000
00000000
,
00000011
00000101
00001100
00011000
,
00100000
10000000
00010000
01000000
00100000
10000000
10010000
00000000
,
10000000
01000000
00010000
10000000
00100000
00010000
00000000
00000000
,
00001000
00010000
00100000
00001000
00010000
01000000
00000000
00000000
,
00010000
00001000
00000010
00010000
00001000
00000100
00000000
00000000
,
00000020
00000230
00002300
00003010
,
00000001
00000010
00001000
00000001
00000100
00001000
00000000
00000000
,
00010000
00001000
00000010
00010000
00001000
00000100
00000000
00000000
,
00001000
00010000
01000000
00001000
00010000
00100000
00000000
00000000
,
10000000
00010000
20000000
00000000
30100000
00000000
01100000
00000000
,
10000000
00100000
00010000
10000000
01000000
00010000
00000000
00000000
,
00100000
00010000
00001000
01000000
00010000
00001000
00000000
00000000
,
00010000
00001000
00000100
00010000
00001000
00000010
00000000
00000000
,
00002000
00000000
00003002
00000000
00000103
00000010
00001000
00000000
,
00000001
00000100
00001000
00000001
00000010
00001000
00000000
00000000
,
00100000
00010000
00001000
00100000
00010000
00001000
00000000
00000000
,
00010000
00000000
00000000
10000000
00000000
00000000
00100000
00000000
00000000
01000000
00000000
00000000
00010000
00000000
10000000
00000000
,
01000000
00000000
00100000
00000000
00010000
00000000
10000000
00010000
00000000
00000000
00000000
00000000
00000000
00000000
00000000
00000000
,
10000000
01000000
00010000
00000000
00011000
00000000
00000000
00000000
,
00000010
00001000
00010000
00000000
01010000
00000000
00000000
00000000
,
00010000
00001000
00010000
00000000
00001000
00010000
00001000
00000000
,
00000100
00000001
00000100
00001000
00010000
00000000
00000000
00000000
,
00100000
10000000
00100000
00010000
00001000
00000000
00000000
00000000
,
00000010
00000001
00000010
00001000
00010000
00000000
00000000
00000000
,
01000000
10000000
01000000
00000000
00010000
00001000
00010000
00000000
,
00001000
00000010
00000001
00000010
00001000
00000000
00000000
00000000
,
00000010
00001000
00010000
00010000
01000000
00000000
00000000
00000000
,
00100000
00010000
00001000
00001000
00000100
00000000
00000000
00000000
,
00000010
00000001
00000010
00000000
00001000
00010000
00001000
00000000
,
00010000
01000000
10000000
01000000
00010000
00000000
00000000
00000000
,
00011000
00011000
00001010
00001010
,
00000011
00000011
00000101
00000101
,
00000100
00001000
00010000
00000000
00001000
00010000
00100000
00000000
,
10000000
01000000
00100000
00010000
00001000
00000000
00010000
00000000
,
00002000
00000000
00000000
00000000
,
00000200
00000000
00000000
00000300
,
00000002
00000000
00000000
00000003
,
00000020
00000000
00000000
00000030
,
00023000
01000000
00000000
10000000
00000000
00100000
00030000
00001000
,
00010000
00002000
00000000
00000100
00000000
00000001
00000000
00003010
,
00000100
00001100
00010000
00011000
,
02200000
00000000
00000000
00000000
03300000
10000000
01000000
00010000
,
00001000
00000000
00000000
00000001
00000010
00001000
00010000
01000000
,
10000000
00000000
00000000
00000000
00000000
10000000
00100000
00010000
,
00001000
00000000
00000000
00000001
00000100
00001000
00010000
00100000
,
10000000
00000000
00000000
01100000
,
10010000
00000000
00000000
00010000
00100000
00000000
01000000
00000000
,
00000000
10000000
01000000
00010000
01000000
00010000
00001000
00000000
,
00000010
00000001
00000011
00000000
00001000
00000100
00001100
00000000
,
00000110
00000000
00001001
00000000
00000110
00000001
00000010
00001000
,
00010000
00000000
00000000
10000000
01000000
00010000
00001000
00000010
,
00000001
00000000
00000000
00000000
00000000
00000001
00000100
00001000
,
00010000
00000000
00000000
10000000
00100000
00010000
00001000
00000100
,
00000001
00000000
00000000
00000110
,
00001001
00000000
00000000
00001000
00000100
00000000
00000010
00000000
,
00000001
00000010
00001000
00010000
00000010
00001000
00010000
00000000
,
01000000
10000000
11000000
00000000
00010000
00100000
00110000
00000000
,
00011000
00000110
00001001
00000110
,
00000001
00000100
00001000
00000001
00000010
00001000
00000000
00000000
,
00010000
00001000
00000010
00010000
00001000
00000100
00000000
00000000
,
00001000
00010000
00100000
00001000
00010000
01000000
00000000
00000000
,
00020000
00230000
20300000
30020000
02030000
23000000
30000000
00000000
,
10000000
00100000
00010000
10000000
01000000
00010000
00000000
00000000
,
00001000
00010000
00100000
00001000
00010000
01000000
00000000
00000000
,
00010000
00001000
00000100
00010000
00001000
00000010
00000000
00000000
,
00002000
00003200
00000302
00002003
00003020
00000032
00000003
00000000
,
00000001
00000010
00001000
00000001
00000100
00001000
00000000
00000000
,
00000010
00001000
00010000
00000100
00001000
00010000
00000000
00000000
,
00001000
00010000
01000000
00001000
00010000
00100000
00000000
00000000
,
00020000
00000000
20030000
00000000
31000000
00100000
00010000
00000000
,
10000000
01000000
00010000
10000000
00100000
00010000
00000000
00000000
,
00000010
00001000
00010000
00000010
00001000
00010000
00000000
00000000
,
00001000
00000000
00000000
00000001
00000000
00000000
00000010
00000000
00000000
00000100
00000000
00000000
00001000
00000000
00000001
00000000
,
00000100
00000000
00000010
00000000
00001000
00000000
00000001
00001000
00000000
00000000
00000000
00000000
00002002
00000000
00000000
00000000
,
00000000
00000000
00000000
00000000
,
00000000
00000000
00000000
00000000
,
00003003
00000000
00000000
00000000
,
00000000
00000000
00000000
00000000
;
#NOTES:
     dance-double:
     :
     Challenge:
     15:
     :
00000000
00000000
00000000
00000000
,
00000000
00000000
00000000
00000000
,
00000000
00000000
00000000
00000000
,
00000000
00000000
00000000
00000000
,
00000000
00000000
00000000
00000000
,
00000000
00000000
00000000
00000000
,
00000000
00000000
00000000
00000000
,
00000000
00000000
00000000
00000000
,
00000000
00000000
00000000
00000000
00000000
00000001
00000100
00001000
,
00010000
00000000
00000000
01000000
10000000
01000000
00010000
01000000
,
10000000
01000000
00100000
00001000
00010000
00001000
00000100
00000001
,
00000010
00000000
00000000
00001000
00010000
00100000
10000000
00010000
,
01000000
00000000
00010000
10000000
00010000
00000000
01000000
00000000
00100000
00000000
00000000
00000000
00110000
00000000
00000000
00000000
,
00011000
00000000
00000000
00001000
00001100
00000000
00001001
00000000
,
00000010
00000000
00010000
00001000
00010000
00000000
00000100
00000000
00010000
00000000
00001000
00010000
00001000
00000000
01000000
00000000
,
00120000
00030000
01100000
00000000
20100000
30000000
01100000
00000000
,
00100000
00000000
00001000
00010000
00001000
00000000
00010000
00000000
00000100
00000000
00010000
00000000
00011000
00000000
00000000
00000000
,
00000010
00000000
00001000
00000000
00000100
00000000
00020000
00000000
00000000
00000000
00030100
00000000
00010000
00001000
00010000
00001000
,
00010000
00000000
00001000
00000000
00100000
00000000
00010000
01000000
00000000
00100000
10000000
00000000
00010000
10000000
00010000
10000000
,
00010000
00000000
01000000
00000000
00100000
00000000
20000000
00000000
00000000
00000000
30100000
00000000
01000000
00010000
01000000
00010000
,
01000000
00000000
00001000
00000000
00010000
00000000
00002000
00000000
00003000
00010000
00000100
00000000
00001000
00000100
00001000
00000100
,
00001000
00000000
00000001
00000000
00000100
00000000
00000020
00000000
00000000
00000000
00001030
00000000
00000100
00010000
00000100
00010000
,
00000100
00000000
00010000
00000000
00001000
00000000
00010000
00000100
00000000
00001000
00000001
00000000
00000100
00000001
00000100
00000001
,
00000100
00000000
00000001
00000000
00001000
00000000
00000100
00000000
00000000
00000100
00000010
00000000
00000001
00000000
00001000
00000000
,
00000100
00010000
00000100
00010000
00001000
00010000
00001000
00010000
00001000
00000000
00100000
00000000
00010000
00000000
10000000
00000000
,
01000000
00000000
00010000
00000000
00001000
00000000
00000100
00000000
00000000
00000100
00000010
00000000
00001000
00000000
00000001
00000000
,
00000100
00000000
00001000
00000000
00010000
00000000
01000000
00000000
00000000
01000000
00100000
00000000
00010000
00000000
10000000
00000000
,
01000000
00000000
10000000
00000000
00010000
00000000
00100000
00000000
00000000
00100000
00001000
00000000
00010000
00000000
00000100
00000000
,
00010000
00001000
00010000
00001000
00010000
00000000
00000100
00001000
00000000
00000001
00000100
00000000
00000010
00000000
00000100
00000000
,
00000001
00000100
00000010
00001000
00000000
00000100
00010000
00001000
,
00100000
01000000
00100000
00010000
00000000
10000000
00100000
01000000
,
00001000
00010000
00000000
00010000
00000100
00000000
00000100
00001000
00000000
00001000
00000010
00000000
00000100
00000000
00000001
00000000
,
00001000
00000000
00000010
00000000
00001000
00000000
00000001
00000100
00000000
00000000
00000000
00000000
00001001
00000000
00000000
00000000
,
00000001
00001000
00000010
00000100
00000010
00000000
00001100
00000000
,
00001000
01000000
00010000
01000000
00100000
00000000
01010000
00000000
,
01000000
00001000
00100000
00010000
01000000
00001000
00010000
00100000
,
10000000
00100000
01000000
00001000
00010000
00000000
00011000
00000000
,
00000010
00001000
00000001
00000100
00000010
00000000
00000110
00000000
,
00010000
00001000
01000000
00100000
01000000
00000000
01010000
00000000
,
10000000
01000000
00010000
00000000
00001000
00000100
00000001
00000000
,
00002000
00000000
00000000
00003001
00000020
00000000
00000130
00000000
,
00001000
00000010
00010000
00001000
00100000
00000000
01010000
00000000
,
10000000
00100000
01000000
00001000
00010000
00001000
00011000
00000000
,
00010000
00000000
00000100
00001000
00000100
00000000
00000010
00000001
00000020
00000000
00000000
00000000
00000031
00000000
00001000
00000000
,
00000100
00000000
00010000
00001000
00100000
00010000
00110000
00000000
,
00100000
00010000
00100000
00010000
00100000
00001000
00100000
00001000
00010000
00001000
00010000
00001000
00010000
00000100
00010000
00000100
,
00001000
00000100
00001000
00000100
00001000
00000001
00001000
00000001
00001000
00000000
00000100
00000000
00000010
00000000
00000000
00000000
,
00000011
00000000
00001000
00000000
00011000
00000000
01000000
00010000
,
02000000
00000000
00000000
03010000
00200000
00000000
00000000
00300000
,
01000000
00010000
00001000
00000200
00000000
00000000
00000000
00000300
,
00000001
00000010
00000001
00000100
00000000
00000010
00000100
00000001
,
00001000
00000010
00010000
00000200
00000000
00000000
00000000
00000300
,
00001000
00000100
00000010
00000001
00000000
00000001
00000100
00000000
,
00001001
00001000
00101000
00100000
,
10010000
01100000
01010000
00011000
,
02000000
03000000
00011000
00000000
00000200
00000300
00011000
00000000
,
00200000
00000000
00000000
00300000
10010000
01000000
00100000
00010000
,
10000000
01000000
00010000
00001000
00000100
00000010
00000100
00001000
,
00000100
00000001
00001000
00000010
00010000
00001000
00010000
00100000
,
10000000
00100000
00010000
10000000
01000000
00100000
01000000
00010000
,
00100000
00000000
01000000
10000000
01000000
00000000
00100000
00000000
00001000
00000000
00000000
00000000
00101000
00000000
00000000
00000000
,
00011000
00000000
00001000
00000100
00000010
00000000
00010000
00001000
,
00000000
00000000
00010000
00001000
00010000
00000000
00000100
00000000
00001000
00000000
00000001
00000000
00000100
00000000
00000010
00000000
,
00001000
00000000
00000001
00000100
00000001
00000000
00000010
00000000
00000100
00000000
00010000
00001000
00010000
00000000
00001000
00000000
,
00101000
00000000
01010000
00000000
01100000
10000000
01000000
00010000
,
00001000
00000100
00000010
00000100
00001000
00010000
01000000
10000000
,
01000000
00010000
00001000
00000010
00000100
00000010
00000001
00000010
,
00000100
00001000
00000010
00000100
00001000
00010000
00100000
01000000
,
00010000
00000000
10000000
01000000
10000000
00000000
00100000
00000000
01000000
00000000
00000000
00000000
01100000
00000000
00000000
00000000
,
10010000
00000000
10000000
00010000
00100000
00000000
00110000
00000000
,
00101000
00000000
00010000
00001000
00100000
00000000
00011000
00000000
,
00010000
00000100
00001100
00000000
00001000
00000001
00000011
00000000
,
00001000
00000000
00000010
00000100
00000010
00000000
00010000
00000000
00001000
00000000
00100000
00000000
01010000
00000000
00000000
00000000
,
10000000
00000000
00010000
00000000
00100000
00000000
00002000
00000000
00000000
00000000
00103000
00000000
00001000
00010000
00001000
00010000
,
00001000
00000000
00010000
00000000
00000100
00000000
00001000
00000001
00000000
00000100
00000010
00000000
00000100
00000001
00000100
00000001
,
00000100
00000000
00000010
00000000
00001000
00000000
00000002
00000000
00000000
00000000
00000013
00000000
00000100
00001000
00000100
00001000
,
00000100
00000000
00010000
00000000
00000010
00000000
00020000
00000000
00030000
00001000
00100000
00000000
01000000
00100000
01000000
00100000
,
01000000
00000000
10000000
00000000
00010000
00000000
00200000
00000000
00000000
00000000
00301000
00000000
00010000
00001000
00010000
00001000
,
00010000
00000000
00000100
00000000
00010000
00000000
00001000
00100000
00000000
01000000
10000000
00000000
00100000
10000000
00100000
10000000
,
00100000
00000000
10000000
00000000
00010000
00000000
00100000
00000000
00000000
00100000
01000000
00000000
10000000
00000000
00010000
00000000
,
00100000
00001000
00100000
00001000
00010000
00000100
00001000
00000100
00001000
00000000
00000100
00000000
00001000
00000000
00000001
00000000
,
00000010
00000000
00001000
00000000
00010000
00000000
00100000
00000000
00000000
00100000
01000000
00000000
00010000
00000000
10000000
00000000
,
01000000
00000000
00010000
00000000
00001000
00000000
00000010
00000000
00000000
00000010
00000100
00000000
00010000
00000000
00000010
00000000
,
00001000
00000000
00000001
00000000
00000100
00000000
00000010
00000000
00000000
00000010
00010000
00000000
00001000
00000000
00100000
00000000
,
00001000
00010000
00001000
00010000
00001000
00000000
00100000
00010000
00000000
10000000
00100000
00000000
01000000
00000000
00100000
00000000
,
10000000
01000000
00010000
00001000
00000000
00000100
00000001
00000010
,
00000001
00000100
00001000
00000100
00000000
00000001
00001000
00000100
,
00010000
00000100
00000000
00010000
00001000
00000000
00100000
00010000
00000000
01000000
00100000
00000000
10000000
00000000
00010000
00000000
,
10000000
00000000
01000000
00000000
10000000
00000000
00010000
01000000
00000000
00000000
00000000
00000000
10010000
00000000
00000000
00000000
,
00000000
00000000
00000000
00000000
;
