
//----- song ID: sans -----//
#TITLE:チルノのパーフェクトさんすう教室(EDM REMIX);
#ARTIST:uno(IOSYS);
#TITLETRANSLIT:Cirno's Perfect Math Class (EDM REMIX);
#BANNER:Cirno's Perfect Math Class (EDM REMIX).png;
#BACKGROUND:Cirno's Perfect Math Class (EDM REMIX)-bg.png;
#CDTITLE:./CDTitles/DDR A.png;
#MUSIC:Cirno's Perfect Math Class (EDM REMIX).ogg;
#SAMPLESTART:73.653;
#SAMPLELENGTH:15;
#DISPLAYBPM:130;
#BPMS:0=175,34=130;
#NOTES:
     dance-single:
     :
     Beginner:
     2:
     :
0000
0000
0000
0000
,
0000
0000
0000
0000
,
0000
0000
0000
0000
,
0000
0000
0000
0000
,
0000
0000
0000
0000
,
0000
0000
0000
0000
,
0000
0000
0000
0000
,
0000
0000
0000
0000
,
0000
0000
0000
0000
,
0000
0000
0000
0000
,
0000
0000
0000
0000
,
0000
0000
0000
0000
,
0000
0000
0001
0000
,
0000
0000
1000
0000
,
0000
0000
1000
0000
,
0000
0000
0001
0000
,
0000
0000
0010
0000
,
0000
0000
0010
0000
,
0000
0000
0001
0000
,
0000
0000
1000
0000
,
0000
0000
0001
0000
,
0001
0000
1000
0000
,
1000
0000
0010
0000
,
0000
0000
1001
0000
,
0000
0000
0010
0000
,
0000
0000
0100
0000
,
0000
0000
0010
0000
,
0000
0000
0100
0000
,
0000
0000
0001
0000
,
0000
0000
1000
0000
,
0000
0000
0001
0000
,
0000
0000
1000
0000
,
0000
0000
0010
0000
,
0000
0000
1000
0000
,
0000
0000
0001
0000
,
0000
0000
0100
0000
,
0000
0000
0001
0000
,
0000
0000
1000
0000
,
0000
0000
0010
0000
,
0000
0000
0001
0000
,
0000
0000
1001
0000
,
0000
0000
0000
0000
,
0000
0000
0010
0000
,
0000
0000
0001
0000
,
0000
0000
0100
0000
,
0000
0000
1000
0000
,
0000
0000
0010
0000
,
0000
0000
0001
0000
,
0000
0000
0100
0000
,
0000
0000
1000
0000
,
0000
0000
0010
0000
,
0000
0000
0100
0000
,
0000
0000
0001
0000
,
0000
0000
1000
0000
,
0000
0000
0001
0000
,
0000
0000
0100
0000
,
0000
0000
0010
0000
,
0000
0000
0001
0000
,
0000
0000
1000
0000
,
1000
0000
0001
0000
,
0001
0000
0010
0000
,
0000
0000
1001
0000
,
0000
0000
0010
0000
,
0000
0000
0100
0000
,
0000
0000
0010
0000
,
0000
0000
0100
0000
,
0000
0000
0001
0000
,
0000
0000
1000
0000
,
0000
0000
0001
0000
,
1000
0000
1001
0000
,
0000
0000
0000
0000
;
#NOTES:
     dance-single:
     :
     Easy:
     4:
     :
0000
0000
0000
0000
,
0000
0000
0000
0000
,
0000
0000
0000
0000
,
0000
0000
0000
0000
,
0000
0000
0000
0000
,
0000
0000
0000
0000
,
0000
0000
0000
0000
,
0000
0000
0000
0000
,
0000
0000
0000
0000
,
0000
0000
0000
0000
,
0000
0000
0000
0000
,
0000
0000
0000
0000
,
0000
0000
0001
0000
,
1000
0000
0001
0000
,
1000
0000
0010
0000
,
0010
0000
0100
0000
,
0100
0000
0001
0000
,
0001
0000
1000
0000
,
0001
0000
0010
0000
,
0100
0000
1001
0000
,
0000
0000
0000
0000
0001
0000
0000
0001
,
0000
0000
0000
0000
1000
0000
0000
1000
,
0000
0000
0010
0010
,
0010
0010
1001
0000
,
0000
0000
0010
0010
,
0010
0000
0100
0100
,
0100
0000
0010
0010
,
0010
0000
0100
0100
,
0100
0000
0001
0001
,
0001
0000
1000
1000
,
1000
0000
0001
0001
,
0001
0000
1000
1000
,
1000
0000
0001
1000
,
1000
0000
1000
0001
,
0001
0000
0010
0100
,
0100
0000
0100
0010
,
0010
0000
1000
0001
,
0001
0000
0010
0100
,
0100
0000
0001
1000
,
1000
0000
0100
0010
,
0010
0000
2002
0000
,
0000
0000
0000
0000
,
3003
0000
0010
0000
,
0001
0000
0100
0000
,
1000
0000
0010
0000
,
0001
0000
0100
0000
,
1000
0000
0010
0000
,
0001
0000
0100
0000
,
1000
0000
0010
0000
,
0001
0000
0100
0000
,
1001
0000
0000
0100
,
0000
0001
0000
0100
,
0000
1000
0000
0100
,
0000
0001
0000
0100
,
0000
1000
0010
0000
,
0100
0100
0001
0000
,
1000
0000
0001
1000
,
0001
1000
0100
0000
,
0000
0000
0110
0000
1000
0000
0000
1000
,
0000
0000
0000
0000
0001
0000
0000
0001
,
0000
0000
0010
0010
,
0010
0010
1001
0000
,
0000
0110
0000
1000
,
0100
0000
0001
0010
,
0001
0000
1000
0100
,
1000
0000
0010
0001
,
0001
1000
0110
0000
,
0001
0000
0110
0000
,
1000
0000
0110
0000
,
1001
0000
0110
0000
,
0000
0001
0000
0000
,
0000
0000
0000
0000
;
#NOTES:
     dance-single:
     :
     Medium:
     10:
     :
0000
0000
0000
0000
,
0000
0000
0000
0000
,
0000
0000
0000
0000
,
0000
0000
0000
0000
,
0000
0000
0000
0000
,
0000
0000
0000
0000
,
0000
0000
0000
0000
,
0000
0000
0000
0000
,
0000
0000
0000
0000
,
0000
0000
0000
0000
,
0000
0000
0000
0000
,
0000
0000
0000
0000
,
0000
1000
0100
1000
0001
0000
0000
1000
,
0001
1000
0001
0100
2000
0000
0000
0000
,
3000
1000
0100
0001
0100
0000
0000
0001
,
1000
0001
1000
0100
0002
0000
0000
0000
,
0000
0003
0001
0000
0100
0000
0010
0000
,
0100
0000
0010
0000
0001
0010
0001
0010
,
0100
1000
0100
0010
0001
0000
1000
0000
,
0001
0000
1000
0000
0010
0001
0010
0001
,
0010
1000
1000
0000
0101
0000
1010
0000
,
0101
1010
1100
0011
,
1100
0000
0011
0000
0010
0010
0010
0010
,
0010
0010
0010
0010
0110
0000
1001
0000
,
2200
0000
3300
0000
0001
0000
0100
0010
,
0100
0010
1000
0000
1000
0000
0100
0010
,
0100
0010
0001
0000
0001
0000
0100
0010
,
0100
0010
1000
0000
1000
0000
0100
0010
,
0001
0010
0100
0000
0010
0000
0001
1000
,
0001
1000
0100
0000
0010
0000
1000
0001
,
1000
0001
0100
0000
0010
0000
0001
1000
,
0001
1000
0100
0000
0010
0000
1000
0010
,
0001
0010
0001
0000
1000
0000
0100
1000
,
0010
1000
0100
0000
0010
0000
0100
0010
,
1000
0010
0100
0000
0010
0000
1000
0010
,
0001
0010
1000
0000
0001
0000
1000
0001
,
0010
0001
1000
0000
0001
0000
0010
0001
,
0100
0001
0010
0000
0100
0000
0010
0100
,
0001
0100
0010
0000
0100
0000
0001
0100
,
1000
0100
0001
0000
1000
0000
0001
1000
,
0100
1000
0001
1000
0002
0000
0000
0000
,
0000
0000
0000
0000
,
0003
0000
0010
0001
,
0100
1000
0010
0001
,
0100
1000
0010
1000
,
0100
0001
0010
1000
,
0100
0001
0110
1000
,
0001
0010
0001
0000
1000
0010
1000
0000
,
0001
0010
0001
0000
1000
0001
1000
0000
,
0010
0100
0010
0000
1010
0000
0101
0000
,
0011
1000
0200
1000
,
0010
1000
0010
1000
,
0010
1000
0320
0001
,
0100
0001
0100
0001
,
0100
0000
0001
0000
0130
1000
0100
0000
,
0100
0001
0100
0000
0001
0100
0001
0000
,
0001
0010
0001
0000
0010
0001
0010
0000
,
0010
1000
0010
0000
1000
0000
0000
0000
,
0000
0110
0101
1010
,
0101
1010
1100
0011
,
1100
0000
0011
0000
0010
0010
0010
0010
,
0010
0010
0010
0010
0110
0000
0010
0000
,
0001
1100
1000
0100
,
0010
0001
0010
0001
0000
0000
0011
0000
0000
0100
0000
0000
,
0010
1000
0010
1000
0000
0000
1010
0000
0000
0100
0000
0000
,
0010
0001
0010
0001
0000
0000
0011
0000
0000
0100
0000
0000
,
0010
1000
0010
1000
0000
0000
1100
0000
0000
0001
0000
0000
,
0010
0100
0010
0010
0000
0000
0101
0000
0000
1000
0000
0000
,
0010
0100
0010
0010
0000
0000
1010
0000
0000
0001
0000
0000
,
0010
0100
0010
0010
0000
0000
0010
0000
0000
0001
0000
0000
,
1000
0110
0000
0000
,
0000
0000
0000
0000
;
#NOTES:
     dance-single:
     :
     Hard:
     13:
     :
0000
0000
0000
0000
,
0000
0000
0000
0000
,
0000
0000
0000
0000
,
0000
0000
0000
0000
,
0000
0000
0000
0000
,
0000
0000
0000
0000
,
0000
0000
0000
0000
,
0000
0000
0000
0000
,
0000
0000
1001
0001
,
0001
0001
1000
1000
,
1000
0000
1000
0000
0001
0001
1000
1000
,
0001
1000
0001
1000
0001
1000
0010
0100
0001
0000
0000
0000
0110
0000
0000
0000
,
1001
0000
1000
0000
0100
0000
0010
0000
0001
0000
0000
0000
0001
0010
0001
0010
,
0000
0000
0001
0000
0001
0100
0001
0100
0010
0000
0000
0000
0010
0100
0010
0100
,
0000
0000
0010
0000
1000
0000
0100
0000
0010
0000
0000
0000
0001
1000
0010
1000
,
0000
0000
0100
0000
0010
0100
0010
0100
0001
0000
0000
0000
1000
0100
1000
0100
,
0000
0000
0010
0000
0100
1000
0100
1000
0100
0000
0000
0000
0010
0001
0010
0001
,
0000
0000
0100
0000
1000
0100
1000
0000
0001
0010
0001
0000
0100
1000
0100
0000
,
0001
0010
0001
0000
0100
1000
0100
0000
0001
0000
0010
0000
0100
0010
0100
0000
,
1000
0000
0010
0000
0100
0010
0100
0000
0001
0000
1000
0001
1000
0000
0001
0000
,
0001
0000
0010
0000
0010
0000
0000
0000
1000
0000
0100
0010
0001
0000
0001
0000
,
0010
0100
1000
0000
0000
0000
0000
0000
1000
0000
0100
0010
0001
0000
0001
0000
,
0010
0100
1000
0000
0000
0000
0000
0000
0001
0000
1000
0000
0001
0000
1000
0000
,
0001
1000
0001
1000
0010
0100
0010
0100
0001
0000
0000
0000
1100
0000
0000
0001
,
1000
0001
0000
0000
0110
0000
0000
0000
1100
0000
0000
0000
0010
0000
1000
0010
,
1000
0000
0100
1000
0100
0000
0000
0000
0011
0000
0000
0000
0100
0000
0001
0010
,
0001
0000
0100
0001
0100
0000
0000
0000
0110
0000
0000
0000
0010
0000
1000
0100
,
1000
0000
0010
0100
0010
0000
0000
0000
1010
0000
0000
0000
0100
0000
0001
0100
,
0000
0000
0001
0000
0010
0000
0000
0000
0101
0000
0000
0000
0010
0000
0001
0010
,
0001
0000
0100
0001
0100
0000
0000
0000
1010
0000
0000
0000
0100
0000
1000
0010
,
1000
0000
0100
1000
0100
0000
0000
0000
0110
0000
0000
0000
0010
0000
0001
0100
,
0001
0000
0010
0100
0010
0000
0000
0000
0011
0000
0000
0000
0100
1000
0100
1000
,
0000
1000
0001
0000
0010
0100
1000
0000
1001
0000
0000
0000
0100
0000
0001
0100
,
0001
0000
0100
0001
0100
0002
0000
0000
0103
0000
0000
0000
1000
0000
0100
1000
,
0100
0000
1000
0100
1000
0010
0100
0001
0100
0000
0000
0000
0010
0000
0100
0010
,
0100
0000
0010
1000
0010
2000
0000
0000
3100
0000
0000
0000
0010
0000
0001
0010
,
0001
0000
0010
0000
2000
0000
0000
0000
3010
0000
0000
0000
0001
0000
0100
0010
,
0100
0000
0001
0100
0001
0200
0000
0000
0310
0000
0000
0000
1000
0000
0001
0100
,
0001
0000
0100
0010
0100
1000
0100
0010
0100
0000
0000
0000
0010
0000
1000
0100
,
1000
0000
0001
0010
0001
0020
0000
0000
0130
0000
0000
0000
1000
0001
1000
0001
,
0000
0001
0100
0000
0010
0100
0010
0100
0020
0000
0000
0000
0000
0000
0000
0000
,
0000
0000
0000
0000
,
0030
0001
0100
1000
0100
0000
1000
0100
,
0001
0000
0100
0001
0010
0000
0001
0010
,
1000
0010
0001
0100
1000
0000
0100
1000
,
0010
0000
1000
0010
0001
0000
0010
0001
,
0100
0000
0001
0100
1000
0000
1000
0100
,
0001
0000
0001
0100
1000
0100
0001
0010
,
0001
0010
1000
0010
0001
0010
1000
0001
,
0100
1000
0001
0010
1000
0001
1000
0010
,
0001
0000
1000
0000
0001
0000
1000
0000
0010
0000
0100
0000
0001
0000
0100
0010
,
0100
0000
1000
0000
0100
0000
0010
0000
0001
0000
0010
0000
1000
0000
0010
0100
,
0010
0000
0001
0000
0010
0000
1000
0000
0100
0000
0010
0000
0001
0000
0010
1000
,
0001
0000
0100
0000
0010
0000
1000
0000
0010
0000
0100
0000
1000
0000
0010
0100
,
0001
0000
0010
0000
0100
0000
1000
0000
0010
0000
1000
0000
0010
0100
0010
0000
,
0100
0000
0001
0000
0010
0100
0010
0000
0100
0000
1000
0000
0001
1000
0001
0000
,
1000
0000
0010
0000
0100
0001
0100
0000
0001
1000
0001
0000
0010
0100
0010
0000
,
0001
1000
0001
1000
0010
0100
0010
0000
0000
0010
0000
0000
0000
0000
0000
0000
,
0000
0000
0000
0000
1000
0000
0000
0000
0001
0000
0100
0010
1000
0000
1000
0000
,
0010
0100
0001
0000
0000
0000
0000
0000
0001
0000
0100
0010
1000
0000
1000
0000
,
0010
0100
0001
0000
0000
0000
0000
0000
0001
0000
0100
0000
0001
0000
0100
0000
,
0010
1000
0010
1000
0001
0100
0001
0100
0020
0000
0000
0000
0000
0000
0000
0000
,
0000
0000
0000
0130
0000
0000
1001
0000
0000
0001
0010
0001
,
0010
0001
0010
0001
0100
0010
1001
0000
0000
1000
0010
1000
,
0010
1000
0010
1000
0100
0010
1001
0000
0000
0010
0001
0010
,
0001
0010
0001
0010
0100
0010
1001
0000
0000
0010
1000
0010
,
0100
1000
0100
0010
0000
0000
1001
0000
0000
0010
0001
0001
,
0010
0001
0010
0001
0100
0001
0100
0010
0100
0010
1000
1000
,
0010
1000
0010
1000
0100
1000
0001
0010
0100
0010
0100
0100
,
0010
0010
0100
0100
0010
0001
1000
0000
0000
0010
0000
0000
,
1000
0110
0000
0000
,
0000
0000
0000
0000
;
#NOTES:
     dance-double:
     :
     Easy:
     5:
     :
00000000
00000000
00000000
00000000
,
00000000
00000000
00000000
00000000
,
00000000
00000000
00000000
00000000
,
00000000
00000000
00000000
00000000
,
00000000
00000000
00000000
00000000
,
00000000
00000000
00000000
00000000
,
00000000
00000000
00000000
00000000
,
00000000
00000000
00000000
00000000
,
00000000
00000000
00000000
00000000
,
00000000
00000000
00000000
00000000
,
00000000
00000000
00000000
00000000
,
00000000
00000000
00000000
00000000
,
00000000
00000000
00010000
00001000
,
00010000
00001000
00010000
00000000
,
00000000
00000000
00000001
00001000
,
00000001
00001000
00000001
00000000
,
00000000
00000000
00010000
00000000
,
00000010
00000000
00010000
00001000
,
00010000
00001000
00100000
00000000
,
00000010
00000000
00010000
01000000
,
01000000
00000000
10000000
00010000
,
10000000
00000000
00001000
00010000
,
00001000
00000000
00000001
00000001
,
00000001
00000001
00000110
00000000
,
00000000
00000000
00000010
00000010
,
00000010
00000000
00001000
00001000
,
00001000
00000000
00010000
00010000
,
00010000
00000000
01000000
01000000
,
01000000
00000000
00100000
00100000
,
00100000
00000000
00001000
00001000
,
00001000
00000000
00010000
00010000
,
00010000
00000000
00000100
00000100
,
00000100
00000000
00000010
00000010
,
00000010
00000000
00001000
00001000
,
00001000
00000000
00100000
00100000
,
00100000
00000000
10000000
10000000
,
10000000
00000000
00010000
00010000
,
00010000
00000000
00000100
00000100
,
00000100
00000000
01000000
01000000
,
01000000
00000000
00001000
00001000
,
00001000
00000000
00022000
00000000
,
00000000
00000000
00000000
00000000
,
00033000
00000000
00010000
00000000
,
01000000
00000000
10000000
00000000
,
00100000
00000000
00010000
00000000
,
01000000
00000000
10000000
00000000
,
00100000
00000000
00010000
00000000
,
00001000
00000000
00000010
00000000
,
00000001
00000000
00000100
00000000
,
00001000
00000000
00000010
00000000
,
00001001
00000000
00000001
00000100
,
00001000
00000000
00010000
01000000
,
10000000
00000000
10000000
01000000
,
00010000
00000000
00001000
00000100
,
00000001
00000000
00000001
00000001
,
00001000
00001000
00010000
00010000
,
10000000
10000000
00010000
10000000
,
00010000
00001000
00000100
00000000
,
00000000
00000110
00000001
00001000
,
00000001
00000000
00010000
00001000
,
00010000
00000000
00100000
00100000
,
00100000
00100000
10010000
00000000
,
00000000
01100000
00000000
00010000
,
00001000
00000000
00000010
00001000
,
00000010
00000000
00100000
00001000
,
00100000
00000000
00010000
00001000
,
00001000
00000100
00000110
00000000
,
00001100
00000000
00011000
00000000
,
00110000
00000000
01100000
00000000
,
11000000
00000000
10010000
00000000
,
00000000
01000000
00000000
00000000
,
00000000
00000000
00000000
00000000
;
#NOTES:
     dance-double:
     :
     Medium:
     11:
     :
00000000
00000000
00000000
00000000
,
00000000
00000000
00000000
00000000
,
00000000
00000000
00000000
00000000
,
00000000
00000000
00000000
00000000
,
00000000
00000000
00000000
00000000
,
00000000
00000000
00000000
00000000
,
00000000
00000000
00000000
00000000
,
00000000
00000000
00000000
00000000
,
00000000
00000000
00000000
00000000
,
00000000
00000000
00000000
00000000
,
00000000
00000000
00000000
00000000
,
00000000
00000000
00000000
00000000
,
00000000
00001000
00010000
00001000
01000000
00000000
00000000
00010000
,
10000000
00010000
10000000
01000000
00020000
00000000
00000000
00000000
,
00030000
00010000
00001000
00010000
00000100
00000000
00000000
00001000
,
00000001
00001000
00000001
00000100
00002000
00000000
00000000
00000000
,
00000000
00003000
00001000
00000000
00000100
00000000
00000010
00000000
,
00000100
00000000
00000010
00000000
00001000
00000100
00000010
00000100
,
00001000
00000100
00010000
00001000
00010000
00000000
00000010
00000000
,
00010000
00000000
00100000
00000000
00010000
00001000
00010000
00001000
,
00000010
00000001
00000001
00000000
00000020
00000000
00000030
00000020
,
00000000
00000030
00000000
00000000
00200000
00000000
00300000
00200000
,
00000000
00300000
00000000
00000000
00000010
00000010
00000010
00000010
,
00000010
00000010
00000010
00000010
00000110
00000000
00001010
00000000
,
00022000
00000000
00033000
00000000
00010000
00000000
01000000
00100000
,
01000000
00100000
10000000
00000000
10000000
00000000
01000000
00100000
,
01000000
00100000
00010000
00000000
00001000
00000000
00000100
00000010
,
00000100
00000010
00000001
00000000
00000001
00000000
00000100
00000010
,
00001000
00000010
00000100
00000000
00000010
00000000
00001000
00000001
,
00001000
00000001
00000100
00000000
00001000
00000000
00010000
00001000
,
00010000
00001000
00100000
00000000
01000000
00000000
10000000
00010000
,
10000000
00010000
01000000
00000000
00010000
00000000
00100000
00010000
,
00100000
10000000
00100000
00000000
00001000
00000000
00010000
00001000
,
00000010
00000001
00000010
00000000
00000001
00000000
00000100
00001000
,
00010000
00100000
00010000
00000000
00100000
00000000
10000000
01000000
,
00010000
00001000
00010000
00000000
00000100
00000000
00000001
00000100
,
00001000
00000100
00000010
00000000
00000001
00000000
00000100
00001000
,
00010000
00100000
01000000
00000000
00100000
00000000
10000000
01000000
,
00010000
00001000
00000010
00000000
00000001
00000000
00000100
00001000
,
00010000
00100000
10000000
00000000
00010000
00000000
10000000
00010000
,
10000000
01000000
10000000
00010000
20000000
00000000
00000000
00000000
,
00000000
00000000
00000000
00000000
,
30000000
00000000
00100000
00010000
,
01000000
00100000
00010000
01000000
,
00100000
00010000
00001000
00000100
,
00001000
00000010
00000100
00001000
,
00000010
00000100
00001000
00000010
,
00001000
00000010
00010000
00000000
00000100
00000010
00000001
00000000
,
00001000
00000100
00010000
00000000
00000010
00001000
00010000
00000000
,
00100000
00010000
00001000
00000000
00001001
00000000
00011000
00000000
,
10010000
00000000
00020000
00100000
,
00001000
00100000
00001000
00100000
,
00001000
00100000
00032000
00000100
,
00010000
00000100
00010000
00000100
,
00010000
00000000
00000100
00000000
00013000
00100000
00010000
00000000
,
00001000
00000100
00001000
00000000
00000001
00000010
00000001
00000000
,
00000100
00001000
00000100
00000000
00000010
00001000
00010000
01000000
,
00010000
10000000
01000000
00000000
00001000
00000000
00000000
00000000
,
00000000
00000000
00000000
00000000
00200000
00000000
00300000
00200000
,
00000000
00300000
00000000
00000000
00000020
00000000
00000030
00000020
,
00000000
00000030
00000000
00000000
00100000
00100000
00100000
00100000
,
00100000
00100000
00100000
00100000
01100000
00000000
00010000
00000000
,
00001000
00000110
00000001
00000100
,
00000010
00001000
00000010
00001000
00000000
00000000
00001010
00000000
00000000
00000100
00000000
00000000
,
00010000
00001000
00010000
00001000
00000000
00000000
00011000
00000000
00000000
01000000
00000000
00000000
,
00100000
10000000
00100000
10000000
00000000
00000000
10100000
00000000
00000000
01000000
00000000
00000000
,
00100000
00010000
00100000
00010000
00000000
00000000
00110000
00000000
00000000
00001000
00000000
00000000
,
00000010
00000100
00000010
00001000
00000000
00000000
00001010
00000000
00000000
00000100
00000000
00000000
,
00001000
00010000
00001000
00100000
00000000
00000000
00110000
00000000
00000000
00010000
00000000
00000000
,
00100000
01000000
00100000
10000000
00000000
00000000
00100000
00000000
00000000
00001000
00000000
00000000
,
00000010
00000110
00000000
00000000
,
00000000
00000000
00000000
00000000
;
#NOTES:
     dance-double:
     :
     Hard:
     13:
     :
00000000
00000000
00000000
00000000
,
00000000
00000000
00000000
00000000
,
00000000
00000000
00000000
00000000
,
00000000
00000000
00000000
00000000
,
00000000
00000000
00000000
00000000
,
00000000
00000000
00000000
00000000
,
00000000
00000000
00000000
00000000
,
00000000
00000000
00000000
00000000
,
00000000
00000000
00011000
00011000
,
00011000
00011000
01010000
01010000
,
10100000
00000000
10100000
00000000
10000000
10000000
00010000
00010000
,
00100000
00001000
00010000
00001000
00010000
00001000
00010000
00001000
00010000
00000000
00000000
00000000
00001010
00000000
00000000
00000000
,
00001001
00000000
00000001
00000000
00000100
00000000
00001000
00000000
00010000
00000000
00000000
00000000
00001000
00010000
00001000
00010000
,
00000000
00000000
00001000
00000000
00100000
00010000
00100000
00010000
10000000
00000000
00000000
00000000
01000000
10000000
01000000
10000000
,
00000000
00000000
10000000
00000000
01000000
00000000
00010000
00000000
00001000
00000000
00000000
00000000
00010000
00001000
00010000
00001000
,
00000000
00000000
00010000
00000000
00000100
00001000
00000100
00001000
00000001
00000000
00000000
00000000
00000100
00000001
00000100
00000001
,
00000000
00000000
00000010
00000000
00000100
00001000
00000100
00001000
00000100
00000000
00000000
00000000
00010000
00000100
00010000
00000100
,
00000000
00000000
00001000
00000000
00000010
00001000
00000010
00000000
00010000
00001000
00010000
00000000
00000100
00001000
00000100
00000000
,
00010000
00001000
00010000
00000000
00001000
00100000
00001000
00000000
00010000
00000000
00000010
00000000
00000100
00000010
00000100
00000000
,
00000001
00000000
00000010
00000000
00000100
00000010
00000100
00000000
00001000
00000000
00010000
00000000
00100000
00000000
00010000
00000000
,
00001000
00000001
00000001
00000000
00000001
00001000
00010000
10000000
,
00010000
00001000
00000000
00000000
00000001
00001000
00010000
10000000
,
00010000
00001000
00000000
00000000
00000001
00001000
00010000
00001000
,
00000001
00000100
00000001
00000100
00000010
00001000
00000010
00010000
00001000
00000000
00000000
00000000
00011000
00000000
00000000
00100000
,
01000000
00100000
00000000
00000000
10010000
00000000
00000000
00000000
11000000
00000000
00000000
00000000
00010000
00000000
10000000
00100000
,
10000000
00000000
00010000
10000000
00010000
00000000
00000000
00000000
00110000
00000000
00000000
00000000
10000000
00000000
00010000
00100000
,
00010000
00000000
01000000
00010000
01000000
00000000
00000000
00000000
00011000
00000000
00000000
00000000
00100000
00000000
00001000
00010000
,
00001000
00000000
00100000
00001000
00100000
00000000
00000000
00000000
00011000
00000000
00000000
00000000
00000100
00000000
00001000
00000100
,
00000000
00000000
00001000
00000000
00000010
00000000
00000000
00000000
00000101
00000000
00000000
00000000
00001000
00000000
00000001
00000010
,
00000001
00000000
00000100
00000001
00000100
00000000
00000000
00000000
00001010
00000000
00000000
00000000
00000001
00000000
00001000
00000010
,
00001000
00000000
00000100
00001000
00000100
00000000
00000000
00000000
00011000
00000000
00000000
00000000
00000010
00000000
00010000
00001000
,
00010000
00000000
00000010
00010000
00000010
00000000
00000000
00000000
00011000
00000000
00000000
00000000
01000000
00010000
01000000
00010000
,
00000000
00010000
10000000
00000000
00010000
00100000
01000000
00000000
00010000
00000000
00000000
00000000
01000000
00000000
10000000
00100000
,
10000000
00000000
00100000
01000000
00100000
02000000
00000000
00000000
03010000
00000000
00000000
00000000
01000000
00000000
00001000
00100000
,
00001000
00000000
01000000
00001000
01000000
00010000
00100000
00001000
00010000
00000000
00000000
00000000
00000100
00000000
00001000
00000010
,
00001000
00000000
00000100
00001000
00000100
00002000
00000000
00000000
00003010
00000000
00000000
00000000
00000100
00000000
00000001
00000100
,
00000001
00000000
00001000
00000000
00000020
00000000
00000000
00000000
00001030
00000000
00000000
00000000
00000001
00000000
00000100
00000001
,
00000100
00000000
00000100
00000010
00000100
00000020
00000000
00000000
00001030
00000000
00000000
00000000
00000100
00000000
00000010
00000100
,
00000010
00000000
00000100
00001000
00000100
00010000
00001000
00010000
00001000
00000000
00000000
00000000
00100000
00000000
01000000
00100000
,
01000000
00000000
10000000
00010000
10000000
00020000
00000000
00000000
00130000
00000000
00000000
00000000
00001000
00010000
00001000
00010000
,
00000000
00010000
00000100
00000000
00000010
00000001
00000010
00000001
00000020
00000000
00000000
00000000
00000000
00000000
00000000
00000000
,
00000000
00000000
00000000
00000000
,
00000030
00000100
00001000
00000010
00000001
00000000
00000010
00000001
,
00000100
00000000
00000001
00000100
00000010
00000000
00000100
00000010
,
00001000
00010000
00000010
00001000
00010000
00000000
00001000
00010000
,
01000000
00000000
00010000
01000000
10000000
00000000
01000000
10000000
,
00100000
00000000
00100000
00010000
00001000
00000000
00000010
00001000
,
00010000
00000000
00100000
00010000
00001000
00000100
00000001
00000010
,
00001000
00010000
01000000
10000000
00100000
00010000
00001000
00100000
,
00001000
00000010
00001000
00010000
00000010
00001000
00010000
00001000
,
00000010
00000100
00000010
00000100
00000001
00000100
00001000
00010000
,
00100000
10000000
00100000
00010000
00001000
00010000
01000000
10000000
,
01000000
00010000
00001000
00000010
00000001
00000010
00001000
00010000
,
00100000
00010000
00000010
00010000
00001000
00000010
00001000
00010000
,
01000000
00000000
10000000
00000000
01000000
00000000
00010000
00000000
00001000
00000000
00000010
00000000
00000100
00000010
00000100
00000000
,
00001000
00000000
00000010
00000000
00000100
00000010
00000100
00000000
00001000
00000000
00010000
00000000
00001000
00010000
00001000
00000000
,
00010000
00000000
00100000
00000000
01000000
00100000
01000000
00000000
00010000
10000000
00010000
00000000
00100000
01000000
00100000
00000000
,
00010000
00100000
00010000
00100000
01000000
00010000
00001000
00000000
00000000
01000000
00000000
00000000
00000000
00000000
00000000
00000000
,
00000000
00000000
00010000
00000000
10000000
00010000
00001000
00000001
,
00001000
00010000
00000000
00000000
10000000
00010000
00001000
00000001
,
00001000
00010000
00000000
00000000
10000000
00010000
00001000
00010000
,
10000000
01000000
10000000
01000000
00100000
00010000
00100000
00010000
00200000
00000000
00000000
00000000
00000000
00000000
00000000
00000000
,
00000000
00000000
00000000
01300000
00000000
00000000
10010000
00000000
00000000
00010000
00100000
00010000
,
10000000
00010000
00100000
00010000
00000000
00000000
00011000
00000000
00000000
00001000
00000100
00001000
,
00000001
00001000
00000100
00001000
00000000
00000000
00001001
00000000
00000000
00000010
00000100
00000010
,
00001000
00000010
00000100
00000010
00000000
00000000
00001010
00000000
00000000
00000100
00001000
00000100
,
00010000
00001000
00000010
00001000
00000000
00000000
00011000
00000000
00000000
00100000
00010000
00010000
,
00100000
00010000
00100000
00010000
01000000
00010000
01000000
00100000
01000000
00100000
00010000
00010000
,
00001000
00000010
00001000
00000010
00000100
00001000
00000001
00000010
00000100
00010000
00001000
00001000
,
00100000
00100000
00010000
00010000
01000000
10000000
01000000
00000000
00000000
00010000
00000000
00000000
,
00000100
00000101
00000000
00000000
,
00000000
00000000
00000000
00000000
;
