
//----- song ID: caof -----//
#TITLE:Catch Our Fire!;
#ARTIST:中島由貴;
#ARTISTTRANSLIT:Yuki Nakashima;
#BANNER:Catch Our Fire!.png;
#BACKGROUND:Catch Our Fire!-bg.png;
#CDTITLE:./CDTitles/DDR A.png;
#MUSIC:Catch Our Fire!.ogg;
#SAMPLESTART:56.68;
#SAMPLELENGTH:15;
#DISPLAYBPM:190;
#BPMS:0=191.5,4=190;
#NOTES:
     dance-single:
     :
     Beginner:
     5:
     :
0000
0000
0000
0000
,
0000
0000
0000
0000
,
0000
0000
0000
0000
,
0000
0000
0000
0000
,
0000
0000
0000
0000
,
0000
0000
0000
0000
,
0000
0000
0000
0000
,
1000
0000
0010
0000
,
0001
0000
0010
0000
,
1000
0000
0001
0000
,
1000
0000
0001
0000
,
1001
0000
1001
0000
,
1000
0001
2002
3003
,
1000
0010
0100
0000
,
0001
0000
1000
0000
,
0001
0010
0100
0000
,
1000
0000
0001
0000
,
1000
1000
0010
0000
,
0001
0001
0010
0000
,
0002
0003
2000
3000
,
0002
0003
2000
3000
,
0001
0100
0010
0000
,
1000
0000
0001
0000
,
1000
0100
0010
0000
,
0001
0000
1000
0000
,
0001
0001
0100
0000
,
1000
1000
0100
0000
,
0020
0000
0000
0030
,
0200
0000
0000
0300
,
1001
0000
0000
0000
,
0110
0000
0000
0000
,
1001
0000
0000
0000
,
0110
0000
0000
0000
,
0002
0000
0003
0000
,
0010
0010
0010
0000
,
2000
0000
3000
0000
,
0010
0010
0010
0000
,
1000
0010
1000
0000
,
0100
1000
0100
0000
,
0001
0100
0001
0000
,
0010
0001
0010
0000
,
2000
0000
3000
0000
,
0002
0000
0003
0000
,
1001
0000
0000
0000
,
0000
0000
0000
0000
,
0001
0100
0010
0000
,
1000
0001
1000
0000
,
1000
0100
0010
0000
,
0001
1000
0001
0000
,
1000
0000
0010
0000
,
0001
0000
0100
0000
,
2000
0000
3000
0000
,
0002
0000
0003
0000
,
0010
0001
1000
0000
,
0001
0100
0001
0000
,
0010
1000
0001
0000
,
1000
0100
1000
0000
,
0001
0000
0010
0000
,
1000
0000
0100
0000
,
0220
0000
0330
0000
,
0002
0003
2000
3000
,
0020
0000
0030
0000
,
0200
0000
0300
0000
,
0010
1000
0100
0000
,
0002
0003
2000
3000
,
0010
0001
0100
0000
,
2000
3000
0002
0003
,
1000
1000
0001
0001
,
1000
1000
0001
0001
,
1000
0000
1000
0000
,
0010
0000
0010
0000
,
0001
0000
0001
0000
,
0100
0000
0200
0000
,
0000
0000
0000
0000
,
0300
0000
0000
0000
,
1000
0100
0010
0000
,
0001
1000
0001
0000
,
0001
0100
0010
0000
,
1000
0001
1000
0000
,
0010
0000
1000
0000
,
0010
0000
0001
0000
,
0220
0000
0000
0330
,
2000
3000
0002
0003
,
2002
0000
0000
0000
,
3003
0000
0000
0000
,
1000
1000
0010
0000
,
0001
0001
0010
0000
,
0001
1000
0010
0000
,
1000
0001
0010
0000
,
1000
0000
0001
0000
,
1000
0001
1000
0000
,
0010
0000
0100
0000
,
0001
1000
0001
1000
,
0010
0000
0010
0000
,
0100
0000
0100
0100
,
0000
0000
0000
0000
;
#NOTES:
     dance-single:
     :
     Easy:
     10:
     :
0000
0000
0000
0000
,
0000
0000
0000
0000
,
0000
0000
0000
0000
,
0000
0000
0000
0000
,
0000
0000
0000
0000
,
0000
0000
0000
0000
,
0000
0000
0000
0000
,
0001
0000
0010
0000
0100
1000
0100
0000
,
1000
0010
0001
0100
,
0001
0000
1000
0000
0010
0100
0010
0000
,
2000
3100
0002
0103
,
0010
0100
0010
0000
0100
0010
0100
0000
,
0010
0100
2002
3003
,
0001
0000
0010
0000
0100
0010
0001
0000
,
0100
1000
0010
0001
,
1000
0000
0010
0000
0100
0010
1000
0000
,
0100
0001
0010
1000
,
0001
0000
0100
0000
0010
1000
0100
0000
,
0010
0100
1001
0000
,
2020
3030
0022
0033
,
0202
0303
2200
3300
,
1000
0000
0100
0000
0010
0001
1000
0000
,
0002
0010
1000
0013
,
0100
0000
0010
0000
0001
1000
0100
0000
,
2000
0010
0001
3010
,
0100
0000
0001
0000
1000
0100
0010
0000
,
0001
1000
0110
0000
,
0010
0000
0000
0001
0000
0000
0100
0000
,
0000
0010
0000
0000
1000
0000
1001
0000
,
0110
0000
0000
1000
1000
0000
0000
0001
,
0001
0000
0000
1000
1000
0000
0000
0000
,
0110
0000
0000
0001
0001
0000
0000
1000
,
1000
0000
0000
0001
0001
0000
0000
0000
,
1000
0100
0010
0001
,
0100
0001
0100
0101
,
0001
0100
0010
1000
,
0100
1000
0100
1100
,
0010
0000
0010
0000
0001
1000
0001
0000
,
0100
0000
0100
0000
1000
0001
1000
0000
,
0010
0000
0010
0000
0001
1000
0001
0000
,
0100
0000
0100
0000
1000
0001
1000
0000
,
0001
0000
0000
0010
0000
0000
0100
0000
,
0000
1000
0000
0000
0010
0000
0100
0000
,
0001
0001
0000
0010
0010
0000
1000
1000
,
0000
0010
0010
0000
0001
0001
0000
0000
,
1000
0000
0100
0000
0010
0100
0010
0000
,
0001
0010
0001
0000
0110
0000
0011
0000
,
0001
0000
0100
0000
0010
0100
0010
0000
,
1000
0010
1000
0000
0110
0000
1010
0000
,
0001
0000
0010
0000
1000
0010
1000
0000
,
0001
0000
0100
0000
1000
0100
1000
0000
,
0001
0000
0000
1000
0000
0000
0010
0000
,
0000
0100
0000
0000
0110
0000
1001
0000
,
1000
0000
0100
0000
0010
0001
1000
0000
,
0100
1000
0001
0000
0110
0000
1100
0000
,
0001
0000
0100
0000
0010
1000
0001
0000
,
0100
0001
1000
0000
0110
0000
0101
0000
,
0010
1000
0010
0001
,
0010
0100
0010
0000
0001
0000
1000
0000
,
0220
0000
0000
0330
,
2000
0000
3002
0000
,
0013
0000
0001
0001
0000
0100
0100
0000
,
0010
0010
0000
1000
2000
0000
3000
0000
,
0001
0000
0100
0000
0010
1000
0001
0000
,
2000
3010
0002
0013
,
1000
0000
0100
0000
0010
0001
1000
0000
,
0002
0103
2000
3100
,
0001
0100
0001
0000
1000
0100
1000
0000
,
0001
0010
0001
0000
1000
0010
1000
0000
,
0001
0000
0000
0100
0000
0000
0010
0000
,
0000
1000
0000
0000
0110
0000
1001
0000
,
0010
0000
0000
1000
0000
0000
0100
0000
,
0000
0010
0000
0000
0200
0000
0000
0000
,
0000
0000
0000
0000
,
0300
0000
0000
0000
,
0001
0000
0100
0000
0010
1000
0001
0000
,
0100
0001
1000
0000
0110
0000
0101
0000
,
1000
0000
0100
0000
0010
0001
1000
0000
,
0100
1000
0001
0000
0110
0000
1100
0000
,
0010
0001
0010
1000
,
0010
0100
0010
0000
1000
0000
0001
0000
,
0220
0000
0000
0330
,
0002
0000
2003
3000
,
0220
0000
0000
0330
,
1000
0000
0100
0000
0010
0001
0100
0000
,
0001
0000
1000
0000
0010
1000
0001
0000
,
0010
0100
1001
0000
,
1000
0000
0010
0000
0100
0001
0100
0000
,
0001
0010
1000
0100
,
1000
0000
0001
0000
0010
0100
0010
0000
,
0002
0103
2000
3100
,
0010
0100
0010
0000
0100
0010
0100
0000
,
0010
0100
1000
0010
,
0110
0000
1000
1000
0000
0010
0010
0000
,
0001
0001
0000
0010
0010
0000
1001
0000
,
0000
0000
0000
0000
;
#NOTES:
     dance-single:
     :
     Medium:
     13:
     :
0000
0000
0000
0000
,
0000
0000
0000
0000
,
0000
0000
0000
0000
,
0000
0000
0000
0000
,
0000
0000
0000
0000
,
0000
0000
0000
0000
,
0000
0000
0000
0000
,
1000
0100
0010
0001
0100
0010
1000
0100
,
0001
0000
0000
0100
0000
0000
1000
0000
0000
0100
0000
0000
0001
0000
0100
0000
,
1000
0000
0001
0100
0010
1000
0010
0100
,
0001
1000
0100
0010
0001
1000
0001
0000
,
0010
0010
0010
0000
0100
0100
0100
0000
,
0010
0000
0000
0001
0000
0000
1000
0000
2002
0000
0000
0000
3003
0000
0000
0000
,
1000
0000
0010
0000
0100
0010
1000
0000
,
0100
1000
0001
0100
0010
1000
0010
0000
,
0001
0000
0010
0000
0100
0010
0001
0000
,
0100
0001
1000
0100
0010
0001
0010
0000
,
1000
0010
0100
0000
0001
0100
0010
0000
,
1000
0000
0001
0000
0110
0000
0000
0001
,
0200
0000
0300
1000
0200
0000
0300
0001
,
0020
0000
0000
0000
0030
0000
1000
0000
0010
0000
0000
0010
0000
0000
0010
0000
,
0001
0000
0110
0000
1000
0100
0001
0000
,
0100
1000
0001
1000
0010
1000
0001
1000
,
0100
0000
0110
0000
0001
0100
1000
0000
,
0100
0001
1000
0001
0010
0001
1000
0001
,
0100
0010
1000
0000
0100
0010
0001
0000
,
0010
0000
0100
0000
1001
0000
0000
0001
,
0010
0000
1000
0010
0000
0001
0010
0000
,
1000
0100
0000
0001
0100
0000
1001
0000
,
0110
0000
0000
0101
0101
0000
0000
1010
,
1010
0000
0000
0000
0000
0000
0101
0000
0101
0000
0000
0010
0000
0000
0100
0000
,
0110
0000
0000
1100
1100
0000
0000
0011
,
0011
0000
0000
0000
0000
0000
1100
0000
1100
0000
0000
0010
0000
0000
0100
0000
,
0020
0000
0000
0032
0000
0103
0010
0000
,
2000
0000
0000
3001
1000
0000
1001
1000
,
0020
0000
0000
2030
0000
3100
0010
0000
,
0001
0000
0000
1000
0000
0000
0001
0000
0010
0000
0000
0000
1100
0000
0000
0000
,
0010
0001
0010
0001
1000
0100
1000
0100
,
1000
0001
0100
0010
1000
0001
0100
0010
,
1000
0010
1000
0010
0100
0001
0100
0001
,
1000
0100
0010
0001
1000
0100
0010
0001
,
1000
0010
0010
1000
0001
0001
1000
0100
,
0100
1000
0001
0001
1000
0000
0001
0000
,
1200
1300
0000
0021
0031
0000
1020
1030
,
0000
0201
0301
0000
0120
0130
0000
0000
,
1000
0010
0100
0010
1000
0100
0010
0100
,
1000
0010
0100
0010
0110
0000
1010
0000
,
0001
0010
0100
0010
0001
0100
0010
0100
,
0001
0010
0100
0010
0110
0000
0011
0000
,
1001
0000
1000
0100
0001
0100
1000
0001
,
1001
0000
0001
0100
1000
0100
0001
1000
,
1001
0000
0001
0011
0000
0010
0110
0000
,
0100
1100
0000
1000
1001
0000
1001
0000
,
0001
0010
1000
0010
0001
0100
1000
0100
,
0001
0010
1000
0010
0110
0000
1001
0000
,
1000
0010
0001
0010
1000
0100
0001
0100
,
1000
0010
0001
0010
0110
0000
1001
0000
,
0110
0000
1000
0010
0100
0010
1000
0100
,
0010
0001
1000
0001
0010
0000
0100
0000
,
0220
0000
0000
0330
,
0002
0000
2003
3000
,
0110
0000
0001
1000
0000
0010
0100
0000
,
0001
1000
0000
0100
0020
0000
0030
0000
,
0001
0000
0000
0001
0000
0000
0010
0000
0000
0000
0100
0000
1000
0000
0010
0000
,
1000
0001
1000
0100
1000
0010
0100
0001
,
1000
0000
0000
1000
0000
0000
0100
0000
0000
0000
0010
0000
0001
0000
0100
0000
,
0001
0000
0000
0100
0000
0000
1000
0000
0000
0010
0000
0000
0001
0000
0000
0000
,
1000
0010
0100
0001
1000
0100
0010
0001
,
1000
0001
0010
0100
1000
0001
0100
0000
,
1010
0000
0010
0110
0000
0100
0101
0000
,
0001
1001
0000
0000
0110
0000
1001
0000
,
0001
0010
0010
0001
1000
1000
0001
0100
,
0100
0001
1000
1000
0020
0000
0000
0000
,
0000
0000
0000
0000
,
0030
0000
0000
0000
,
1000
0010
0001
0010
1000
0100
0001
0100
,
1000
0010
0001
0010
0110
0000
1001
0000
,
0001
0010
1000
0010
0001
0100
1000
0100
,
0001
0010
1000
0010
0110
0000
1001
0000
,
0110
0000
0001
0010
0100
0010
0001
0100
,
0010
1000
0001
1000
0010
0000
0100
0000
,
0210
0000
0000
0000
0000
0000
0000
0000
0310
0000
0000
0010
0000
0000
0010
0000
,
2000
0000
3002
0003
,
0220
0000
0000
0330
,
0001
1000
0100
0010
0001
0010
0100
0000
,
1000
0100
0001
0000
0001
0100
1000
0000
,
0010
1000
0010
0100
0000
0100
0001
0000
,
0001
0100
0010
1000
0100
0010
0001
0100
,
1000
0000
0000
0100
0000
0000
0001
0000
0000
0100
0000
0000
1000
0000
0100
0000
,
0001
0000
1000
0100
0010
0001
0010
0100
,
1000
0001
0100
0010
1000
0001
1000
0000
,
0010
0010
0010
0000
0100
0100
0100
0000
,
0010
0000
0000
1000
0000
0000
0001
0000
0010
0000
0001
0000
1000
0000
0100
0000
,
0110
0000
0010
0011
0000
0001
1001
0000
,
1000
1010
0000
0010
0110
0000
1001
0000
,
0000
0000
0000
0000
;
#NOTES:
     dance-single:
     :
     Hard:
     17:
     :
0000
0000
0000
0000
,
0000
0000
0000
0000
,
0000
0000
0000
0000
,
0000
0000
0000
0000
,
0000
0000
0000
0000
,
0000
0000
0000
0000
,
0000
0000
0000
0000
,
0001
0100
0001
0100
0010
1000
0010
1000
0001
1000
0001
1000
0100
1000
0100
1000
,
0001
0000
0100
0010
0000
1000
0001
0000
0100
0010
0000
1000
0001
0000
1000
0000
,
0100
0000
0000
0000
1000
0100
1000
0100
0010
0001
0010
0001
1000
0001
1000
0001
,
1000
0010
0100
0001
1000
0100
0010
0001
1000
0010
0100
0001
1000
0000
0000
0000
,
0011
0001
0011
0000
1010
1000
1010
0000
,
0001
0000
0000
1000
0000
0000
0001
0000
0220
0000
0000
0000
0330
0000
0000
0000
,
0002
0000
0000
2003
0000
0000
3020
0000
0000
0000
0000
0000
0000
0000
0000
0000
,
0030
0000
0000
0000
0000
0000
0010
0000
2000
0000
0000
3200
0000
0000
0302
0000
,
0203
0000
0000
2300
0000
0000
3002
0000
0000
0000
0000
0000
0000
0000
0000
0000
,
0003
0000
0000
0000
0000
0000
0100
0000
0020
0000
0000
2030
0000
0000
3200
0000
,
0320
0000
0000
2030
0000
0000
3020
0000
0000
0000
0031
0000
1000
0000
0010
0000
,
0100
0000
0000
0001
0000
0000
1000
0000
0001
0000
0000
0000
0000
0000
1000
0010
,
0200
0000
0000
0000
0300
0000
0001
0100
0020
0000
0000
0000
0030
0000
1000
0100
,
0020
0000
0000
0000
0030
0000
0001
0010
0100
0000
0000
1000
0000
0000
0100
0000
,
0020
0000
0000
0032
0000
0000
0023
0000
0000
0000
0000
0000
0030
0000
0000
0000
,
0001
0010
0001
0010
0100
1000
0100
1000
0001
0100
0001
0100
0010
1000
0010
1000
,
0002
0000
0000
0203
0000
0000
0302
0000
0000
0000
0000
0000
0003
0000
0000
0000
,
1000
0001
1000
0001
0100
0010
0100
0010
1000
0001
1000
0001
0100
0010
0100
0010
,
2000
0000
0000
3002
0000
0000
0203
0000
0000
0000
1300
0000
0100
0000
0001
0000
,
0010
0000
0000
0100
0000
0000
0010
0000
0001
0000
0000
0000
0000
0000
1000
0100
,
0010
0000
0110
0011
0000
0011
1001
0000
,
1001
1010
0000
1010
0110
0000
1001
0000
,
0110
0000
1000
0100
1000
0100
1000
0000
1100
0000
0001
0010
0001
0010
0001
0000
,
0011
0000
1000
0010
1000
0010
1000
0000
1010
0000
0000
0100
0000
0000
0010
0000
,
0110
0000
0001
0100
0001
0100
0001
0000
0101
0000
1000
0100
1000
0100
1000
0000
,
1100
0000
0100
0010
0100
0010
0100
0000
0110
0000
0000
0001
0000
0000
0010
0000
,
0200
0000
0000
2300
0000
0000
3002
0000
0000
0000
1003
0000
0100
0000
0000
0000
,
0020
0000
0000
0031
1000
0000
1001
1000
,
0020
0000
0000
0230
0000
0000
0320
0000
0000
0000
1030
0000
0100
0000
0000
0000
,
0002
0000
0000
0203
0000
0000
1300
0000
0001
0000
0000
0000
1001
0000
0000
0000
,
0110
0000
1000
0010
1000
0000
1000
0001
1000
0000
1000
0100
1000
0000
0100
0000
,
1000
0100
1000
0100
0010
0100
0010
0100
0010
0000
0001
0000
1000
0000
0001
0000
,
0010
0000
0001
0010
0001
0000
0001
1000
0001
0000
0001
0100
0001
0000
0100
0000
,
0001
0100
0001
0100
0010
0100
0010
0100
0010
0000
1000
0000
0100
0000
0020
0000
,
0001
0001
0032
1000
1000
2003
0010
0010
,
3020
0100
0100
0130
0010
0000
1000
0000
,
0001
0101
0000
1000
1010
0000
0001
0011
,
0000
0000
1000
0000
1100
0000
0000
0000
0010
0000
1001
0000
0000
0000
0010
0100
,
0010
0000
1000
0010
0100
0000
0010
0000
1000
0000
0100
0010
0100
0000
1000
0000
,
0010
0000
0100
0010
1000
0000
0100
0000
0110
0000
0000
0000
0011
0000
0010
0100
,
0010
0000
0001
0010
0100
0000
0010
0000
0001
0000
0100
0010
0100
0000
0001
0000
,
0010
0000
0100
0010
0001
0000
0100
0000
0110
0000
0000
0000
1010
0000
0000
0000
,
1001
0000
0000
0000
0000
0000
0001
0100
0010
0000
0000
1000
0000
0000
0100
0000
,
0010
0000
0000
0000
0000
0000
0100
1000
0001
0000
0000
0010
0000
0000
0001
0000
,
0011
0000
1000
0010
1000
0000
1010
0000
0010
0100
0010
0000
0110
0000
0100
0001
,
0100
0000
0101
0000
0001
1000
0001
0000
0110
0000
0000
0000
1001
0000
0010
0100
,
0010
0000
1000
0010
0100
0000
0001
0000
1000
0000
0100
0010
0001
0000
1000
0000
,
0010
0000
0100
0001
1000
0000
0100
0000
0110
0000
0000
0000
0011
0000
0010
0100
,
0010
0000
0001
0010
0100
0000
1000
0000
0001
0000
0100
0010
1000
0000
0001
0000
,
0010
0000
0100
1000
0001
0000
0100
0000
0110
0000
0000
0000
1010
0000
0000
0000
,
1001
0000
0000
0000
0000
0000
0010
0001
1000
0000
0000
0010
0000
0000
0100
0000
,
0010
0000
0000
0001
0000
0000
0010
0000
1000
0000
0000
0000
0001
0000
0000
0000
,
0200
0000
0000
0000
0000
0000
0000
0000
0010
0000
0000
0010
0000
0000
0310
0000
,
2000
0000
3002
0000
,
0103
0000
0101
0110
0000
0110
1010
0000
,
1010
1001
0000
1001
0220
0000
0330
0000
,
2000
0000
0000
3002
0000
0000
0023
0000
0000
0000
0130
1000
0100
0010
0001
1000
,
0010
0100
0010
0100
0001
0100
0001
0100
0010
1000
0010
1000
0010
0000
1000
0000
,
0200
0000
0000
0320
0000
0000
0032
0000
0000
0000
1003
0010
1000
0100
0010
0001
,
1000
0001
0000
0010
0100
0000
1000
0001
0000
0010
0100
0000
1000
0000
0000
0000
,
0001
0100
0001
0100
0010
0100
0010
0100
0010
1000
0010
1000
0001
0100
0010
1000
,
0100
1000
0100
1000
0100
0010
0100
0010
0001
0000
0010
0000
0001
0000
0000
0000
,
0011
0000
0011
0110
0000
0110
1100
0000
,
1100
1001
0000
0000
0110
0000
1001
0000
,
1000
0100
0010
0001
1000
0001
1000
0010
0100
0001
1000
0001
1000
0100
0010
0001
,
1000
0001
1000
0010
0100
0001
1000
0001
0020
0000
0000
0000
0000
0000
0000
0000
,
0000
0000
0000
0000
,
0030
0000
0000
0000
0000
0000
0000
0000
0000
0000
0000
0000
0000
0000
0010
0100
,
0010
0000
0001
0010
0100
0000
1000
0000
0001
0000
0100
0010
1000
0000
0001
0000
,
0010
0000
0100
1000
0001
0000
0100
0000
0110
0000
0000
0000
1010
0000
0010
0100
,
0010
0000
1000
0010
0100
0000
0001
0000
1000
0000
0100
0010
0001
0000
1000
0000
,
0010
0000
0100
0001
1000
0000
0100
0000
0110
0000
0000
0000
0011
0000
0000
0000
,
1001
0000
0000
0000
0000
0000
0010
1000
0001
0000
0000
0010
0000
0000
0100
0000
,
0010
0000
0000
1000
0000
0000
0010
0000
0001
0000
0000
0000
1000
0000
0000
0000
,
0200
0000
0000
0000
0300
0000
0000
0000
0101
0000
0000
0110
0000
0000
1010
0000
,
0002
0000
2003
0000
,
3020
0000
0000
0030
,
1000
0000
0000
0010
1000
0000
0010
0000
0100
0000
0000
0001
0100
0000
0001
0000
,
1000
0000
0000
0100
1000
0000
0001
0000
0100
0000
0000
0001
1000
0000
0100
0000
,
0010
0000
0000
0001
1000
0000
0010
0000
0000
0000
1000
0100
0010
0001
1000
0001
,
1000
0100
1000
0100
0010
0001
0010
0001
1000
0001
1000
0001
0100
0001
0100
0001
,
1000
0000
0100
0010
0000
0001
1000
0000
0100
0010
0000
0001
1000
0000
0001
0000
,
0100
0000
0000
0000
0001
0100
0001
0100
0010
1000
0010
1000
0001
1000
0001
1000
,
0001
0010
0100
1000
0001
0100
0010
1000
0001
0010
0100
1000
0001
0000
0000
0000
,
1010
1000
1010
0000
0011
0001
0011
0000
,
1000
0000
0000
0001
0000
0000
1000
0000
0110
0000
1000
0000
0001
0000
0100
0000
,
0101
0000
0101
1100
0000
1100
1010
0000
,
1010
0011
0000
0011
0110
0000
1001
0000
,
0000
0000
0000
0000
;
#NOTES:
     dance-double:
     :
     Easy:
     9:
     :
00000000
00000000
00000000
00000000
,
00000000
00000000
00000000
00000000
,
00000000
00000000
00000000
00000000
,
00000000
00000000
00000000
00000000
,
00000000
00000000
00000000
00000000
,
00000000
00000000
00000000
00000000
,
00000000
00000000
00000000
00000000
,
00100000
00000000
10000000
00000000
01000000
00100000
01000000
00000000
,
00010000
00001000
00000010
00000001
,
00001000
00000000
00000010
00000000
00000100
00000010
00000100
00000000
,
00000001
00000100
00001000
00010000
,
00001000
00010000
00001000
00000000
00010000
00001000
00010000
00000000
,
00100000
01000000
20020000
30030000
,
10000000
00000000
00010000
00000000
01000000
00100000
10000000
00000000
,
01000000
00010000
00001000
00000100
,
00000001
00000000
00000010
00000000
00000100
00000010
00000100
00000000
,
00001000
00000100
00000010
00000001
,
00000100
00000000
00000010
00000000
00010000
00001000
00010000
00000000
,
01000000
00100000
10010000
00000000
,
00220000
00330000
00022000
00033000
,
02020000
03030000
22000000
33000000
,
00010000
00000000
01000000
00000000
00100000
10000000
01000000
00000000
,
00010000
00001000
00000010
00000001
,
00000010
00000000
00000100
00000000
00000010
00000001
00000100
00000000
,
00001000
00010000
00100000
10000000
,
01000000
00000000
10000000
00000000
00010000
01000000
00100000
00000000
,
00010000
00001000
00011000
00000000
,
00100000
00000000
00000000
00001000
00000000
00000000
00000010
00000000
,
00000000
00000001
00000000
00000000
00000100
00000000
00000010
00000000
,
00000110
00000000
00000000
00000001
00000100
00000000
00000000
00000100
,
00001000
00000000
00000000
00001000
00010000
00000000
00000000
00000000
,
00011000
00000000
00000000
00010000
00100000
00000000
00000000
00100000
,
10000000
00000000
00000000
10000000
00010000
00000000
00000000
00000000
,
01000000
00100000
10000000
01000000
,
00100000
00001000
00010000
00011000
,
01000000
00001000
00000100
00000010
,
00001000
00000100
00000010
00000110
,
00000001
00000000
00000001
00000000
00001000
00000100
00000001
00000000
,
00000100
00000000
00001000
00000000
00000010
00010000
00001000
00000000
,
00100000
00000000
00100000
00000000
00010000
01000000
10000000
00000000
,
01000000
00000000
00010000
00000000
10000000
01000000
00100000
00000000
,
01000000
00000000
00000000
00010000
00000000
00000000
00000100
00000000
,
00000000
00000010
00000000
00000000
00000001
00000000
00001000
00000000
,
00000001
00000001
00000000
00000100
00000100
00000000
00001000
00001000
,
00000000
00010000
00010000
00000000
00001000
00001000
00000000
00000000
,
00001000
00000000
00010000
00000000
00100000
01000000
00010000
00000000
,
00100000
01000000
00010000
00000000
00001000
00000000
00001000
00000000
,
00010000
00000000
00001000
00000000
00000010
00000100
00001000
00000000
,
00000010
00000100
00001000
00000000
00010000
00000000
00010000
00000000
,
00110000
00000000
00000000
00000000
00010000
10000000
00100000
00000000
,
01010000
00000000
00000000
00000000
00100000
01000000
00100000
00000000
,
10000000
00000000
00000000
01000000
00000000
00000000
00001000
00000000
,
00000000
00000100
00000000
00000000
00000010
00000000
00000110
00000000
,
00010000
00000000
00001000
00000000
00000010
00000100
00001000
00000000
,
00000010
00000100
00001000
00000000
00010000
00000000
00010000
00000000
,
00001000
00000000
00010000
00000000
00100000
01000000
00010000
00000000
,
00100000
01000000
00010000
00000000
00001000
00000000
00001000
00000000
,
00001010
00000000
00000100
00000010
,
00000001
00000100
00000010
00000000
00001000
00000000
00000001
00000000
,
00000202
00000000
00000000
00000303
,
00002000
00003000
00020000
00030000
,
00100000
00000000
00100000
10000000
00000000
10000000
01000000
00000000
,
01000000
00100000
00000000
00100000
00010000
00000000
00000000
00000000
,
00010000
00000000
10000000
00000000
01000000
00010000
00001000
00000000
,
00020000
00001000
00030020
00001030
,
00000001
00000000
00000100
00000000
00000010
00001000
00000100
00000000
,
00020000
00001000
00030200
00001300
,
00000001
00000000
00000100
00000000
00001000
00010000
00001000
00000000
,
00010000
00000000
01000000
00000000
10000000
00010000
10000000
00000000
,
00100000
00000000
00000000
00010000
00000000
00000000
00001000
00000000
,
00000000
00000100
00000000
00000000
00000001
00000000
00000110
00000000
,
00000001
00000000
00000000
00000010
00000000
00000000
00001000
00000000
,
00000000
00010000
00000000
00000000
00002000
00000000
00000000
00000000
,
00000000
00000000
00000000
00000000
,
00003000
00000000
00000000
00000000
,
00001000
00000000
00010000
00000000
00100000
01000000
00010000
00000000
,
00100000
01000000
00010000
00000000
00001000
00000000
00001000
00000000
,
00010000
00000000
00001000
00000000
00000010
00000100
00001000
00000000
,
00000010
00000100
00001000
00000000
00010000
00000000
00010000
00000000
,
00110000
00000000
01000000
00100000
,
10000000
01000000
00100000
00000000
00010000
00000000
10000000
00000000
,
22000000
00000000
00000000
33000000
,
00020000
00030000
00002000
00003000
,
00022000
00000000
00000000
00033000
,
01000000
00000000
00001000
00000000
00010000
00000100
00001000
00000000
,
00000010
00000000
00000100
00000000
00000001
00001000
00000100
00000000
,
00000010
00000100
00001100
00000000
,
00000010
00000000
00000001
00000000
00000100
00000010
00000100
00000000
,
00001000
00010000
00100000
10000000
,
00010000
00000000
00100000
00000000
01000000
00100000
01000000
00000000
,
10000000
01000000
00010000
00001000
,
00010000
00001000
00010000
00000000
00001000
00010000
00001000
00000000
,
00000010
00000100
00001000
00000010
,
00000110
00000000
00000001
00000100
00000000
00000100
00001000
00000000
,
00001000
00010000
00000000
00010000
00100000
00000000
01100000
00000000
,
00000000
00000000
00000000
00000000
;
#NOTES:
     dance-double:
     :
     Medium:
     14:
     :
00000000
00000000
00000000
00000000
,
00000000
00000000
00000000
00000000
,
00000000
00000000
00000000
00000000
,
00000000
00000000
00000000
00000000
,
00000000
00000000
00000000
00000000
,
00000000
00000000
00000000
00000000
,
00000000
00000000
00000000
00000000
,
00000001
00000100
00000010
00001000
00000100
00010000
00001000
00100000
,
00010000
00000000
00000000
00100000
00000000
00000000
01000000
00000000
00000000
10000000
00000000
00000000
00100000
00000000
01000000
00000000
,
00100000
00000000
10000000
01000000
00010000
00001000
00000010
00000001
,
00001000
00000001
00000100
00000010
00001000
00000001
00001000
00000000
,
00000010
00000010
00000010
00000000
00010000
00010000
00010000
00000000
,
00100000
00000000
00000000
10000000
00000000
00000000
00100000
00000000
02000000
00000000
00000000
00000000
03000000
00000000
00000000
00000000
,
00100000
00000000
10000000
00000000
01000000
00010000
00001000
00000000
,
00000100
00000001
00001000
00000000
00000100
00000010
00000001
00000000
,
00000100
00000000
00000010
00000000
00000100
00001000
00010000
00000000
,
00100000
10000000
00010000
00000000
00100000
00010000
01000000
00000000
,
00001000
00010000
00100000
00010000
00100000
00010000
00001000
00000000
,
00000010
00000000
00000001
00000000
00001100
00000000
00000000
00000001
,
00000200
00000000
00000300
00001000
00020000
00000000
00030000
00100000
,
20000000
00000000
00000000
00000000
30000000
00000000
00010000
00000000
01000000
00000000
00000000
01000000
00000000
00000000
01000000
00000000
,
00100000
00000000
10000000
00000000
00100000
00010000
00001000
00000000
,
00100000
00001000
01000000
00010000
00100000
00001000
01000000
00000000
,
00001000
00000000
00000100
00000000
00000010
00001000
00000100
00000000
,
00010000
00000010
00001000
00000100
00010000
00000010
00001000
00000000
,
00000100
00000010
00000001
00000000
00000100
00000010
00001000
00000000
,
00000100
00000000
00010000
00000000
00011000
00000000
00000000
00010000
,
00100000
00000000
10000000
01000000
00000000
00010000
00001000
00000000
,
00000010
00000001
00000000
00000100
00000010
00000000
00001001
00000000
,
00000110
00000000
00000000
00001000
00001100
00000000
00000000
00010000
,
00011000
00000000
00000000
00000000
00000000
00000000
00100000
00000000
00110000
00000000
00000000
01000000
00000000
00000000
10000000
00000000
,
11000000
00000000
00000000
00010000
01010000
00000000
00000000
00001000
,
00011000
00000000
00000000
00000000
00000000
00000000
00000010
00000000
00001010
00000000
00000000
00000100
00000000
00000000
00000010
00000000
,
00002000
00000000
00000000
00003002
00000000
00000103
00000010
00000000
,
00002000
00000000
00000000
00013000
01000000
00000000
01100000
00100000
,
20000000
00000000
00000000
32000000
00000000
03100000
00010000
00000000
,
00001000
00000000
00000000
00000100
00000000
00000000
00000010
00000000
00000001
00000000
00000000
00000000
00000011
00000000
00000000
00000000
,
00000001
00000100
00000001
00000100
00001000
00000100
00001000
00000100
,
00000010
00001000
00010000
01000000
00100000
10000000
01000000
00000000
,
10000000
01000000
10000000
01000000
00010000
01000000
00010000
01000000
,
00100000
00010000
00001000
00000100
00000010
00000001
00000100
00000000
,
00000001
00000010
00000010
00000100
00001000
00001000
00000010
00010000
,
00010000
00001000
00100000
00100000
00010000
00000000
01100000
00000000
,
10000000
01000000
00000000
00010000
01000000
00000000
10000000
00100000
,
00000000
00010000
00001000
00000000
00000010
00000100
00000000
00000000
,
00010000
00001000
00000010
00001000
00010000
00000010
00000100
00000010
,
00010000
00001000
00000010
00001000
00001010
00000000
00011000
00000000
,
00001000
00010000
00100000
00010000
00001000
00100000
01000000
00100000
,
00001000
00010000
00100000
00010000
00110000
00000000
00011000
00000000
,
00000110
00000000
00000001
00000100
00000010
00001000
00000100
00000000
,
00000110
00000000
00000010
00001000
00010000
01000000
00100000
00000000
,
01000000
00000000
10000000
00100000
00000000
00010000
00001000
00000000
,
00000100
00000001
00000000
00000010
00001000
00000000
00011000
00000000
,
00010000
00001000
00000100
00001000
00010000
00000100
00000010
00000100
,
00010000
00001000
00000100
00001000
00001100
00000000
00011000
00000000
,
00001000
00010000
01000000
00010000
00001000
01000000
00100000
01000000
,
00001000
00010000
01000000
00010000
01010000
00000000
00011000
00000000
,
00000110
00000000
00000001
00000010
00000100
00000010
00000001
00000100
,
00000010
00001000
00010000
01000000
00100000
00000000
10000000
00000000
,
20020000
00000000
00000000
30030000
,
02000000
00000000
03200000
00300000
,
01100000
00000000
10000000
01000000
00000000
00010000
00001000
00000000
,
00000100
00000001
00000000
00000010
00000200
00000000
00000300
00000000
,
00001000
00000000
00000000
00000100
00000000
00000000
00000010
00000000
00000000
00000000
00000001
00000000
00000100
00000000
00000010
00000000
,
00010000
00001000
00100000
00010000
10000000
01000000
00100000
00010000
,
10000000
00000000
00000000
00100000
00000000
00000000
01000000
00000000
00000000
00000000
00100000
00000000
10000000
00000000
01000000
00000000
,
00010000
00000000
00000000
00001000
00000000
00000000
00000100
00000000
00000000
00000001
00000000
00000000
00000010
00000000
00000000
00000000
,
00000001
00000010
00000100
00001000
00000001
00000100
00001000
00010000
,
00100000
10000000
01000000
00100000
00010000
10000000
01000000
00000000
,
01100000
00000000
10000000
00100000
00000000
00010000
00001000
00000000
,
00000010
00000001
00000000
00000000
00000110
00000000
00001001
00000000
,
00000010
00000100
00000100
00001000
00010000
00010000
01000000
10000000
,
10000000
00100000
01000000
01000000
00200000
00000000
00000000
00000000
,
00000000
00000000
00000000
00000000
,
00300000
00000000
00000000
00000000
,
00010000
00001000
00000010
00001000
00010000
00000010
00000100
00000010
,
00010000
00001000
00000010
00001000
00001010
00000000
00011000
00000000
,
00001000
00010000
00100000
00010000
00001000
00100000
01000000
00100000
,
00001000
00010000
00100000
00010000
00110000
00000000
00011000
00000000
,
00000110
00000000
00000001
00000010
00000100
00000010
00000001
00000100
,
00000010
00001000
00010000
01000000
00100000
00000000
10000000
00000000
,
20020000
00000000
00000000
00000000
30030000
00000000
00000000
00000000
00100000
00000000
00000000
00010000
00000000
00000000
10000000
00000000
,
00200000
00000000
02300000
00000000
,
03200000
00000000
00000000
00300000
,
00010000
00001000
00000010
00000001
00000100
00000010
00001000
00000000
,
00000100
00010000
00001000
00000000
00100000
00010000
10000000
00000000
,
00010000
01000000
00100000
10000000
00000000
10000000
00100000
00000000
,
10000000
01000000
00100000
00010000
01000000
00001000
00010000
00000010
,
00001000
00000000
00000000
00000010
00000000
00000000
00000100
00000000
00000000
00000001
00000000
00000000
00000010
00000000
00000100
00000000
,
00000010
00000000
00000001
00000100
00001000
00010000
00100000
10000000
,
00010000
10000000
01000000
00100000
00010000
10000000
00010000
00000000
,
00100000
00100000
00100000
00000000
00001000
00001000
00001000
00000000
,
00000010
00000000
00000000
00000001
00000000
00000000
00000010
00000000
00000100
00000000
00001000
00000000
00000001
00000000
00000100
00000000
,
00000110
00000000
00001000
00001010
00000000
00010000
00011000
00000000
,
01000000
01010000
00000000
10000000
10100000
00000000
01100000
00000000
,
00000000
00000000
00000000
00000000
;
#NOTES:
     dance-double:
     :
     Hard:
     18:
     :
00000000
00000000
00000000
00000000
,
00000000
00000000
00000000
00000000
,
00000000
00000000
00000000
00000000
,
00000000
00000000
00000000
00000000
,
00000000
00000000
00000000
00000000
,
00000000
00000000
00000000
00000000
,
00000000
00000000
00000000
00000000
,
10000000
01000000
00100000
00000000
01000000
00100000
00010000
00000000
00100000
00010000
00001000
00000000
00010000
00001000
00000100
00000000
,
00000010
00000000
00000001
00001000
00000000
00000010
00000100
00000000
00000001
00001000
00000000
00000100
00000010
00000000
00000001
00000000
,
00000100
00000000
00000000
00000000
00000010
00001000
00000010
00001000
00010000
00001000
00010000
00001000
00010000
01000000
00010000
01000000
,
00100000
10000000
00100000
10000000
00010000
10000000
00010000
10000000
01000000
00100000
01000000
00100000
00010000
00000000
00000000
00000000
,
00100000
00001000
00011000
00000000
00000010
00010000
00011000
00000000
,
00001000
00000000
00000000
00000010
00000000
00000000
00000001
00000000
00002000
00000000
00000000
00000000
00003000
00000000
00000000
00000000
,
00000002
00000000
00000000
00000203
00000000
00000000
00002300
00000000
00000000
00000000
00000000
00000000
00000000
00000000
00000000
00000000
,
00003000
00000000
00000000
00000000
00000000
00000000
00010000
00000000
00000020
00000000
00000000
00020030
00000000
00000000
00230000
00000000
,
20300000
00000000
00000000
30020000
00000000
00000000
02030000
00000000
00000000
00000000
00000000
00000000
00000000
00000000
00000000
00000000
,
03000000
00000000
00000000
00000000
00000000
00000000
10000000
00000000
00020000
00000000
00000000
00032000
00000000
00000000
00003200
00000000
,
00000320
00000000
00000000
00002030
00000000
00000000
00003200
00000000
00000000
00000000
00000310
00000000
00000001
00000000
00000100
00000000
,
00001000
00000000
00000000
00010000
00000000
00000000
01000000
00000000
10000000
00000000
00000000
00000000
00000000
00000000
00010000
01000000
,
00200000
00000000
00000000
00000000
00300000
00000000
10000000
01000000
00200000
00000000
00000000
00000000
00300000
00000000
00001000
00010000
,
00002000
00000000
00000000
00000000
00003000
00000000
00010000
00000100
00001000
00000000
00000000
00001000
00000000
00000000
00001000
00000000
,
00000200
00000000
00000000
00000320
00000000
00000000
00000032
00000000
00000000
00000000
00000000
00000000
00000003
00000000
00000000
00000000
,
00000100
00000010
00001000
00000000
00000010
00001000
00010000
00000000
00001000
00010000
01000000
00000000
00010000
01000000
00100000
00000000
,
20000000
00000000
00000000
32000000
00000000
00000000
23000000
00000000
00000000
00000000
00000000
00000000
30000000
00000000
00000000
00000000
,
01000000
00100000
00010000
00000000
00100000
00010000
00001000
00000000
00010000
00001000
00000100
00000000
00001000
00000100
00000010
00000000
,
00000002
00000000
00000000
00002003
00000000
00000000
00003200
00000000
00000000
00000000
00000301
00000000
00000100
00000000
00001000
00000000
,
00010000
00000000
00000000
00100000
00000000
00000000
01000000
00000000
10000000
00000000
00000000
00000000
00000000
00000000
00010000
01000000
,
00100000
00000000
01100000
10100000
00000000
10100000
11000000
00000000
,
11000000
01010000
00000000
01010000
00011000
00000000
00110000
00000000
,
00011000
00000000
00000010
00001000
00000010
00000000
00010010
00000000
00011000
00000000
00000100
00001000
00000100
00000000
00010100
00000000
,
00011000
00000000
00000010
00001000
00000010
00000000
00010010
00000000
00011000
00000000
00000000
00001000
00000000
00000000
00010000
00000000
,
00011000
00000000
00100000
00010000
00100000
00000000
00101000
00000000
00011000
00000000
01000000
00010000
01000000
00000000
01001000
00000000
,
00011000
00000000
00100000
00010000
00100000
00000000
00101000
00000000
00011000
00000000
00000000
00010000
00000000
00000000
00001000
00000000
,
00020000
00000000
00000000
00030020
00000000
00000000
00000032
00000000
00000000
00000000
00001003
00000000
00000100
00000000
00000000
00000000
,
00000002
00000000
00000000
00000013
00000100
00000000
00000110
00010000
,
00002000
00000000
00000000
00203000
00000000
00000000
20300000
00000000
00000000
00000000
30010000
00000000
01000000
00000000
00000000
00000000
,
20000000
00000000
00000000
30200000
00000000
00000000
00310000
00000000
00100000
00000000
00000000
00000000
01100000
00000000
00000000
00000000
,
10000000
00000000
01000000
00100000
01000000
00000000
00010000
00001000
00010000
00000000
00001000
00000010
00001000
00000000
00000010
00000000
,
00000001
00001000
00000001
00001000
00000100
00000010
00000100
00000010
00000001
00000000
00001000
00000000
00000100
00000000
00000010
00000000
,
00000001
00000000
00000100
00000010
00000100
00000000
00001000
00010000
00001000
00000000
00010000
00100000
00010000
00000000
00100000
00000000
,
10000000
00010000
10000000
00010000
01000000
00100000
01000000
00100000
10000000
00000000
00010000
00000000
01000000
00000000
00100000
00000000
,
10000000
10000000
20000000
00010000
00010000
30020000
00001000
00001000
,
00032000
00000001
00000001
00003001
00001000
00000000
00000001
00000000
,
00000110
00000011
00000000
00000011
00000101
00000000
00000101
00001100
,
00000000
00000000
00001100
00000000
00011000
00000000
00000000
00000000
00011000
00000000
00110000
00000000
00000000
00000000
00001000
00010000
,
00001000
00000000
00100000
01000000
00100000
00000000
00001000
00000000
00010000
00000000
00100000
01000000
00100000
00000000
00010000
00000000
,
00001000
00000000
00100000
01000000
00100000
00000000
00001000
00000000
00101000
00000000
00000000
00000000
00011000
00000000
00010000
00001000
,
00010000
00000000
00000010
00000100
00000010
00000000
00010000
00000000
00001000
00000000
00000010
00000100
00000010
00000000
00001000
00000000
,
00010000
00000000
00000010
00000100
00000010
00000000
00010000
00000000
00010010
00000000
00000000
00000000
00011000
00000000
00000000
00000000
,
01100000
00000000
00000000
00000000
00000000
00000000
10000000
01000000
00100000
00000000
00000000
00010000
00000000
00000000
00100000
00000000
,
01000000
00000000
00000000
00000000
00000000
00000000
10000000
00010000
01000000
00000000
00000000
00100000
00000000
00000000
10000000
00000000
,
10100000
00000000
00010000
00100000
00010000
00000000
00110000
00000000
00001000
00010000
00001000
00000000
00011000
00000000
00000010
00001000
,
00000010
00000000
00001010
00000000
00000001
00001000
00000001
00000000
00001001
00000000
00000000
00000000
00000110
00000000
00010000
00001000
,
00010000
00000000
00000100
00000010
00000100
00000000
00010000
00000000
00001000
00000000
00000100
00000010
00000100
00000000
00001000
00000000
,
00010000
00000000
00000100
00000010
00000100
00000000
00010000
00000000
00010100
00000000
00000000
00000000
00011000
00000000
00001000
00010000
,
00001000
00000000
01000000
00100000
01000000
00000000
00001000
00000000
00010000
00000000
01000000
00100000
01000000
00000000
00010000
00000000
,
00001000
00000000
01000000
00100000
01000000
00000000
00001000
00000000
01001000
00000000
00000000
00000000
00011000
00000000
00000000
00000000
,
00000110
00000000
00000000
00000000
00000000
00000000
00001000
00000100
00000010
00000000
00000000
00000001
00000000
00000000
00000100
00000000
,
00001000
00000000
00000000
00010000
00000000
00000000
01000000
00000000
10000000
00000000
00000000
00000000
00100000
00000000
00000000
00000000
,
02000000
00000000
00000000
00000000
00000000
00000000
00000000
00000000
00100000
00000000
00000000
00100000
00000000
00000000
03100000
00000000
,
00020000
00000000
00032000
00000000
,
00013000
00000000
00110000
00011000
00000000
00001010
00011000
00000000
,
01010000
00011000
00000000
00001100
00022000
00000000
00033000
00000000
,
00200000
00000000
00000000
00302000
00000000
00000000
00003020
00000000
00000000
00000000
00000031
00000100
00000001
00000100
00000010
00000000
,
00001000
00000010
00001000
00000010
00010000
00001000
00010000
00001000
00100000
00010000
00100000
00010000
00100000
00000000
00001000
00000000
,
00020000
00000000
00000000
02030000
00000000
00000000
23000000
00000000
00000000
00000000
30100000
01000000
00100000
01000000
00010000
00000000
,
10000000
01000000
00000000
01000000
00010000
00000000
00010000
00001000
00000000
00001000
00000010
00000000
00000001
00000000
00000000
00000000
,
00001000
00000100
00001000
00000000
00000100
00000010
00000100
00000000
00001000
00000100
00000010
00000001
00000100
00000010
00001000
00000010
,
00010000
00001000
00010000
00000000
00001000
01000000
00001000
01000000
00010000
00000000
10000000
00000000
00100000
00000000
00000000
00000000
,
10100000
00000000
10100000
01100000
00000000
01100000
01010000
00000000
,
01010000
00011000
00000000
00000000
00001010
00000000
00000101
00000000
,
00000001
00000010
00000100
00001000
00000001
00000000
00000100
00000010
00001000
00010000
00001000
00000000
00010000
01000000
00100000
10000000
,
00010000
00000000
10000000
01000000
00100000
00010000
10000000
00000000
00200000
00000000
00000000
00000000
00000000
00000000
00000000
00000000
,
00000000
00000000
00000000
00000000
,
00300000
00000000
00000000
00000000
00000000
00000000
00000000
00000000
00000000
00000000
00000000
00000000
00000000
00000000
00001000
00010000
,
00001000
00000000
01000000
00100000
01000000
00000000
00001000
00000000
00010000
00000000
01000000
00100000
01000000
00000000
00010000
00000000
,
00001000
00000000
01000000
00100000
01000000
00000000
00001000
00000000
01001000
00000000
00000000
00000000
00011000
00000000
00010000
00001000
,
00010000
00000000
00000100
00000010
00000100
00000000
00010000
00000000
00001000
00000000
00000100
00000010
00000100
00000000
00001000
00000000
,
00010000
00000000
00000100
00000010
00000100
00000000
00010000
00000000
00010100
00000000
00000000
00000000
00011000
00000000
00000000
00000000
,
01100000
00000000
00000000
00000000
00000000
00000000
00010000
01000000
00100000
00000000
00000000
10000000
00000000
00000000
01000000
00000000
,
00010000
00000000
00000000
00001000
00000000
00000000
00000100
00000000
00000001
00000000
00000000
00000000
00000010
00000000
00000000
00000000
,
00000200
00000000
00000000
00000000
00000300
00000000
00000000
00000000
00000110
00000000
00000000
00000011
00000000
00000000
00000101
00000000
,
00002000
00000000
00023000
00000000
,
00032000
00000000
00000000
00003000
,
00010000
00000000
00000000
00001000
00000010
00000000
00001000
00000000
00010000
00000000
00000000
00000010
00000100
00000000
00000010
00000000
,
00010000
00000000
00000000
00001000
00000010
00000000
00001000
00000000
00010000
00000000
00000000
00000010
00000100
00000000
00000010
00000000
,
00010000
00000000
00000000
00001000
00000010
00000000
00000001
00000000
00000000
00000000
00001000
00000100
00001000
00000100
00000010
00000000
,
00000001
00000100
00000010
00000000
00000100
00000010
00001000
00000000
00000010
00001000
00010000
00000000
00001000
00010000
01000000
00000000
,
00100000
00000000
10000000
00010000
00000000
00100000
01000000
00000000
10000000
00010000
00000000
01000000
00100000
00000000
10000000
00000000
,
01000000
00000000
00000000
00000000
00100000
00010000
00100000
00010000
00001000
00010000
00001000
00010000
00001000
00000100
00001000
00000100
,
00000010
00000001
00000010
00000001
00001000
00000001
00001000
00000001
00000100
00000010
00000100
00000010
00001000
00000000
00000000
00000000
,
00000010
00010000
00011000
00000000
00100000
00001000
00011000
00000000
,
00010000
00000000
00000000
00100000
00000000
00000000
10000000
00000000
00010000
00000000
01000000
00000000
00100000
00000000
10000000
00000000
,
10100000
00000000
10010000
01010000
00000000
00011000
00001100
00000000
,
00000110
00000011
00000000
00001001
00001010
00000000
00000110
00000000
,
00000000
00000000
00000000
00000000
;
