
//----- song ID: chop -----//
#TITLE:CHOCOLATE PHILOSOPHY;
#ARTIST:常盤ゆう;
#ARTISTTRANSLIT:Yuu Tokiwa;
#BANNER:CHOCOLATE PHILOSOPHY.png;
#BACKGROUND:CHOCOLATE PHILOSOPHY-bg.png;
#CDTITLE:./CDTITLES/GF 8thMIX & DM 7thMIX.png;
#MUSIC:CHOCOLATE PHILOSOPHY.ogg;
#SAMPLESTART:40.926;
#SAMPLELENGTH:15;
#DISPLAYBPM:110;
#BPMS:0=109.5,3=110;
#TIMESIGNATURES:0=3=4,135=2.5=4.5,140=3=4;
#NOTES:
     dance-single:
     :
     Beginner:
     2:
     :
0000
0000
0000
0000
,
0000
0000
0000
0000
,
0000
0000
0000
0000
,
0000
0000
0000
1000
,
0000
0000
0001
0000
,
0000
0000
0010
0000
0000
0010
0000
0000
,
0100
0000
0000
2000
,
0000
3000
0000
0000
1000
0000
0000
0000
,
0000
0000
0002
0000
0000
0003
0000
0000
,
0001
0000
0000
0020
,
0000
0000
0030
0000
,
0000
0001
0000
0000
,
1000
0000
0000
0001
,
0000
0001
0000
0000
0001
0000
0000
0000
,
0000
0000
1000
0000
0000
1000
0000
0000
,
1000
0000
0000
0020
,
0000
0030
0000
0000
0010
0000
0000
0000
,
0000
0000
1001
0000
0000
0110
0000
0000
,
1001
0000
0000
1000
,
0000
1000
0000
0000
0010
0000
0000
0000
,
0000
0000
0001
0000
0000
0001
0000
0000
,
0010
0000
0000
0001
,
0000
0000
1000
0000
,
0000
0000
1001
0000
0000
0110
0000
0000
,
1001
0000
0000
0020
,
0000
0000
0030
0000
,
0000
0200
0000
0000
,
0300
0000
0000
0002
,
0000
0000
0003
0000
,
0000
2000
0000
0000
,
3000
0000
0000
0001
,
0000
0010
0000
0000
0001
0000
0000
0000
,
0000
0000
1000
0000
0000
0010
0000
0000
,
1000
0000
0000
0001
,
0000
0000
0000
1000
0000
0000
0000
0000
,
1001
0000
0000
0110
0000
0000
1001
0000
,
0000
0000
0000
0000
,
0000
0000
1000
0000
0000
1000
0000
0000
,
0010
0000
0000
0001
,
0000
0001
0000
0000
0010
0000
0000
0000
,
0000
0001
0000
0000
,
1000
0000
0000
1001
,
0000
0110
0000
0000
1001
0000
0000
0000
,
0000
0000
2000
0000
0000
3000
0000
0000
,
1000
0000
0000
0002
,
0000
0003
0000
0000
0001
0000
0000
0000
,
0000
0000
0001
0000
0000
0010
0000
0000
,
0001
0000
0000
1000
,
0000
0010
0000
0000
1000
0000
0000
1001
,
0000
0000
0000
0000
;
#NOTES:
     dance-single:
     :
     Easy:
     4:
     :
0000
0000
0000
0000
,
0000
0000
0000
0000
,
0000
0000
0000
0000
,
0000
0000
0000
1000
,
0000
0100
0000
0000
0001
0000
0000
0100
,
0000
0000
1000
0000
0000
0001
0000
0000
,
2000
0000
0000
3000
0000
0000
0001
0000
,
0000
0001
0000
0000
2000
0000
0000
3010
,
0000
0000
0002
0000
0000
2003
0000
0000
,
3001
0000
0000
1000
,
0000
1000
0000
0000
0001
0000
0000
0100
,
0000
0000
1000
0000
0000
0100
0000
0000
,
0010
0000
0000
1000
,
0000
1000
0000
0000
0001
0000
0000
0001
,
0000
0110
0000
0000
,
1001
0000
0000
0001
,
0000
0100
0000
0000
1000
0000
0000
0010
,
0000
0000
0100
0000
0000
0010
0000
0000
,
1001
0000
0000
1000
,
0000
1000
0000
0000
0001
0000
0000
0001
,
0000
0000
0020
0000
0000
1030
0000
0000
,
0200
0000
0000
0301
0000
0000
1000
0000
,
0000
0010
0000
0000
0001
0000
0000
0010
,
0000
0000
1000
0000
0000
0100
0000
0000
,
0001
0000
0000
0100
0000
0000
2000
0000
,
0000
3010
0000
0000
0002
0000
0000
0103
,
0000
0000
0010
0000
0000
0110
0000
0000
,
1000
0000
0000
1001
0000
0000
0020
0000
,
0000
0031
0000
0000
0200
0000
0000
1300
,
0000
0000
0001
0000
0000
1000
0000
0000
,
1001
0000
0000
0001
,
0000
0100
0000
0000
1000
0000
0000
0010
,
0000
0000
1000
0000
0000
0100
0000
0000
,
0001
0000
0000
0010
0000
0000
0100
0000
,
0000
0110
0000
1000
0000
0000
1001
0000
,
0000
0000
0000
0110
0000
0000
1001
0000
,
0000
0110
0000
0000
2000
0000
3000
0002
,
0000
0000
1003
0000
0000
1000
0000
0000
,
0001
0000
0000
0001
0000
0000
0020
0000
,
0000
1030
0000
0000
0200
0000
0000
0301
,
0000
0000
1000
0000
0000
0010
0000
0000
,
0001
0000
0000
0010
0000
0000
1000
0000
,
0000
0100
0000
0000
0001
0000
0000
0100
,
0000
0000
1000
0000
0000
0100
0000
0000
,
0001
0000
0000
0010
0000
0000
2000
0000
,
0000
3001
0000
0000
0002
0000
0000
1003
,
0000
0000
0001
0000
0000
0100
0000
0000
,
1000
0000
0000
0010
0000
0000
0002
0000
,
0000
2003
0000
0000
3001
0000
0000
1001
,
0000
0000
0000
0000
;
#NOTES:
     dance-single:
     :
     Medium:
     8:
     :
0000
0000
0000
0000
,
0000
0000
0000
0000
,
0000
0000
0000
0000
,
0000
0000
0000
2000
,
0100
3100
0000
0000
0010
0001
1000
0001
,
0000
0000
1000
0000
0001
0100
0000
0010
,
1010
0000
0000
2000
,
0001
3001
0000
0000
0010
0000
0100
1000
,
0000
0000
1001
0000
1000
0100
0000
0010
,
0001
0000
0000
0002
,
1000
1003
0000
0000
0010
0000
0100
0001
,
0000
0000
0110
0000
0000
1010
0000
0000
,
0101
0000
0000
1001
0000
0000
0002
0000
,
0010
0013
0000
0000
0200
0000
1000
1300
,
0000
0000
2100
0000
0000
3001
0000
0000
,
0102
0000
0000
1003
0000
0000
0020
0000
,
0100
0130
0000
0000
0001
0000
1000
0001
,
0000
0000
0011
0000
0000
0110
0000
0000
,
1001
0000
0000
1001
,
0000
1000
0010
1000
0001
0000
0000
0001
,
0010
0001
2000
0000
0100
3200
0000
0010
,
0320
0000
0001
0031
0000
0000
1001
0000
,
0000
0001
0100
0010
1000
0000
0000
1000
,
0100
0010
0002
0000
1000
2003
0000
0010
,
3020
0000
0100
0130
0000
0000
0001
1000
,
0001
0000
0010
0010
0000
0100
0100
0000
,
1000
0001
1001
0000
0000
0110
0000
0000
,
1001
0000
0000
0110
0000
0000
1000
0001
,
1000
0000
0010
0010
0000
0100
0100
0000
,
0001
1000
1001
0000
0000
0110
0000
0000
,
1001
0000
0000
0001
,
0000
0010
0001
0010
0200
0000
0000
1300
,
0000
0000
0011
0000
0000
1100
0000
0000
,
1010
0000
0000
0101
0000
0000
0200
0000
,
0000
0310
0100
0002
0000
0000
1003
0001
,
0010
0000
0100
1000
0000
0001
0100
0000
,
0010
1000
0000
0000
1001
0000
0000
0110
,
0000
0000
1001
0000
0000
1000
0010
1000
,
0001
0000
0000
0001
0010
0001
2000
0000
,
0100
3200
0000
0010
0320
0000
0001
0031
,
0000
0000
1001
0000
0000
0001
0100
0010
,
1000
0000
0000
1000
0100
0010
0002
0000
,
1000
2003
0000
0010
3020
0000
0100
0130
,
0000
0000
0101
0000
0000
0010
1000
0010
,
0100
0000
0000
0101
0000
0000
0102
0000
,
0000
1003
0000
0000
2100
0000
0000
3001
,
0000
0000
0011
0000
0000
0100
1000
0100
,
0010
0000
0000
0011
0000
0000
0101
0000
,
0000
0110
0000
0000
1000
0001
1000
1001
,
0000
0000
0000
0000
;
#NOTES:
     dance-single:
     :
     Hard:
     9:
     :
0000
0000
0000
0000
,
0000
0000
0000
0000
,
0000
0000
0000
0000
,
0000
0000
0000
0000
0000
0000
1100
0100
,
0010
0001
1000
0001
0100
0010
1000
0001
,
0100
0001
0010
0100
1000
0001
0100
0010
,
1000
0100
0010
0001
0000
0000
0120
0000
,
0031
0010
0100
1000
0100
0000
0010
0001
,
0100
0010
1000
0000
0001
0010
0100
1000
,
0002
0000
1003
0000
1000
0100
0010
0000
,
0001
1000
0001
0100
0010
0000
1000
0001
,
0010
0100
2000
0000
3001
0100
0010
1000
,
0002
0000
1003
0000
1000
0100
0110
0000
,
0001
0100
0010
1000
0002
0000
0013
0000
,
0100
1000
0100
0010
0000
0000
0001
1000
,
0002
0000
0103
0000
0001
0010
0110
1000
,
0001
0000
0010
0100
2000
0000
3001
0000
,
1000
0100
0020
0000
0031
1000
0001
0100
,
0020
0000
0030
0000
0000
0000
1010
0010
,
1000
0001
0100
0001
0010
0100
1000
0001
,
1000
0100
0020
0000
0031
1000
0010
0100
,
0001
0000
0010
0100
0000
1000
1001
0001
,
0100
0010
1000
0001
0010
0100
1000
0010
,
0100
0001
2000
0000
0000
3000
0000
1000
,
0001
0000
0010
0100
0000
0010
0011
1000
,
0001
0000
0100
0010
0100
0000
0000
0000
,
0001
1000
1020
0000
0000
0130
0001
1000
,
0001
0000
0000
0000
0000
0000
0011
0100
,
2000
0000
3001
0010
0100
0000
0000
0000
,
0010
0001
2000
0000
3010
0100
0001
1000
,
0100
0000
0000
0000
0000
0000
1000
0100
,
1000
0100
0000
0010
0001
0100
0001
0100
,
0000
0010
1000
0000
0001
0010
0000
0100
,
1000
0000
0001
0100
0000
0010
1000
0001
,
1000
0001
0001
0100
0010
0100
0010
0010
,
0100
0001
1000
0100
0010
0001
0010
0000
,
0000
0000
0000
0000
0100
1000
0001
0010
,
0001
1000
0011
0010
0001
1000
0100
1000
,
0010
0100
0001
1000
0001
0100
0020
0000
,
1030
0001
0010
0100
1000
0000
0010
0100
,
0000
0001
1001
1000
0100
0010
0001
1000
,
0010
0100
0001
0010
0100
1000
0002
0000
,
0000
0003
0000
0000
1000
0000
0010
0100
,
0000
0010
1010
1000
0100
0010
0001
1000
,
0001
0100
0010
1000
0001
0010
0100
1000
,
0100
0010
0001
0100
0020
1000
0100
0001
,
0100
1030
1001
0001
0010
0100
1000
0001
,
1000
0010
0100
0001
0010
0100
1000
0100
,
0010
0001
0100
0010
1000
0010
0100
1001
,
0000
0000
0000
0000
;
#NOTES:
     dance-single:
     :
     Challenge:
     12:
     :
0000
0000
0000
0000
,
0000
0000
0000
0000
,
0000
0000
0000
0000
,
0000
0000
0000
0000
0000
0000
0000
0000
0000
0000
0000
0000
0000
0000
0000
0000
0000
0000
1000
0000
0000
0001
0000
0100
,
0010
0000
0000
1000
0000
0000
0001
0000
0000
0100
0000
0000
0010
0000
0000
1000
0000
0001
0010
0000
0000
0100
0000
0000
,
1000
0000
0000
0001
0000
0000
0010
0000
0000
0100
0000
1000
0100
0000
0000
0010
0000
0000
0001
0000
0010
0100
0000
0000
,
1000
0000
0000
0001
0000
0000
1000
0000
0000
1001
0000
0000
0000
0000
0000
0000
0000
0000
1000
0000
0000
0010
0000
0100
,
0001
0000
0000
0010
0000
0000
0100
0000
0000
1000
0000
0000
0001
0000
0000
0100
0000
0010
1000
0000
0000
0001
0000
0000
,
0010
0000
0000
0100
0000
0000
1000
0000
0000
0100
0000
0001
0100
0000
0000
1000
0000
0000
0100
0000
0000
0010
0000
0000
,
0001
0000
0000
1000
0000
0010
0100
0000
0000
0000
0000
0000
0001
0000
0000
1000
0000
0000
0010
0000
0000
0100
0000
0001
,
1000
0000
0000
0001
0000
0000
0010
0000
0000
0100
0000
0000
1000
0000
0000
0001
0000
0100
0010
0000
0000
1000
0000
0000
,
0001
0000
0000
1000
0000
0000
0100
0000
0000
0010
0000
0001
0010
0000
0000
0100
0000
0000
1000
0000
0000
0010
0000
0000
,
0100
0000
0000
0001
0000
1000
0100
0000
0000
0000
0000
0000
0010
0000
0000
0001
0000
0000
1000
0000
0000
0001
0000
0100
,
0010
0000
0000
1000
0000
0000
0001
0000
0000
0010
0000
0000
0100
0000
0000
1000
0000
0001
1000
0000
0000
0000
0000
0000
,
0100
0000
0000
0010
0000
0000
0001
0000
0000
1000
0000
0001
1000
0000
0000
0010
0000
0000
0100
0000
0000
0001
0000
0000
,
1000
0000
0000
0100
0000
0010
0001
0000
0000
0000
0000
0000
0001
0000
0000
0010
0000
0000
0100
0000
0000
1000
0000
0001
,
1000
0000
0000
0010
0000
0000
0100
0000
0000
1000
0000
0000
0100
0000
0000
0001
0000
1000
0010
0000
0000
0000
0000
0000
,
1000
0100
1100
0000
0010
0001
1000
0001
,
1001
0000
0000
0000
0000
0000
0000
0000
0000
0001
0000
0000
0010
0000
0000
0100
0000
0000
1000
0000
0000
0001
0000
0010
,
0001
0000
0000
0010
0000
0000
0100
0000
0000
1000
0000
0000
0010
0000
0100
0001
0000
1000
0010
0000
0000
0100
0000
0000
,
0001
1000
0200
0310
0011
2000
3010
0110
,
0002
0000
0000
0103
0000
0000
0110
0000
0000
0020
0000
0000
1030
0000
0000
1001
0000
0000
0100
0000
0000
0010
0000
0001
,
0010
0000
0000
0100
0000
0000
1000
0000
0000
0001
0000
0000
1000
0000
0010
0100
0000
0001
1000
0000
0000
0100
0000
0000
,
0010
0001
2000
3100
1100
0200
0310
0110
,
0001
0000
0000
0010
0000
0100
0010
0000
0000
0100
0000
0000
1000
0000
0001
1000
0000
0000
0001
0000
0000
0011
0000
0000
,
0011
0000
0000
0100
0000
0000
1100
0000
0000
1100
0000
0000
0001
0000
0000
0010
0000
0100
1000
0000
0000
0001
0000
0000
,
0100
0000
0010
1000
0000
0000
0001
0000
0000
0101
0000
0000
0101
0000
0000
0010
0000
0000
1010
0000
0000
1010
0000
0000
,
0001
0000
0100
0010
0000
1000
0001
0000
0000
1000
0000
0000
0100
0000
0000
0010
0000
0000
0100
0000
0000
0110
0000
0000
,
0110
0000
0000
0001
0000
0000
1001
0000
0000
1001
0000
0000
0001
0000
0000
0100
0000
0010
1000
0000
0000
0001
0000
0000
,
0010
0000
0100
1000
0000
0000
0001
0000
0000
0011
0000
0000
0110
0000
0000
1000
0000
0000
0110
0000
0000
0011
0000
0000
,
1000
1010
0110
1001
0000
0000
0001
0010
,
0100
0100
0010
1000
0001
0100
0010
0010
,
0001
1000
0100
0010
0100
0100
0010
1000
,
0001
0000
0000
1000
0000
0000
0010
0000
0000
0010
0000
0000
0001
0000
0000
1000
0000
0000
0001
0000
0010
0100
0000
0000
,
0010
0000
0000
0110
0000
0000
0110
0000
0000
0001
0000
1000
0010
0000
0000
1000
0000
0000
1001
0000
0000
1001
0000
0000
,
1000
0000
0100
0010
0000
0000
0011
0000
0000
1000
0000
0010
0100
0000
0000
0101
0000
0000
0100
0000
0000
0001
0000
0000
,
1000
0010
0100
0001
2000
3100
1100
0020
,
0031
0000
0000
0011
0000
0000
1000
0000
0000
0001
0000
0010
0001
0000
0000
0010
0000
0000
0100
0000
0000
1000
0000
0000
,
0010
0000
0100
0001
0000
1000
0010
0000
0000
0100
0000
0000
0001
0000
0000
1000
0000
0000
0200
0000
0000
0310
0000
0000
,
0011
2000
3010
0110
0002
0103
0110
0020
,
1030
0000
0000
1001
0000
0000
0100
0000
0000
0010
0000
0001
0010
0000
0000
0100
0000
0000
1000
0000
0000
0001
0000
0000
,
1000
0000
0010
0100
0000
0001
1000
0000
0000
0100
0000
0000
0010
0000
0000
0001
0000
0000
2000
0000
0000
3100
0000
0000
,
1100
0000
0000
0200
0000
0000
0310
0000
0000
0110
0000
0000
0001
0000
0000
0010
0000
0100
0010
0000
0000
0100
0000
0000
,
1000
0000
0001
1000
0000
0000
0100
0000
0000
0010
0000
0001
1000
0000
0000
0010
0000
0000
0100
0000
0000
0001
0000
0000
,
1000
0000
0000
0010
0000
0100
0001
0000
0000
1000
0000
0000
0100
0000
0000
0010
0000
0000
0002
0000
0000
0100
0000
0000
,
1000
0023
0100
1000
0230
0001
0010
2300
,
0001
0000
0000
3010
0000
0000
0001
0000
0000
0010
0000
0100
1000
0000
0000
0010
0000
0000
0100
0000
0000
0001
0000
0000
,
1000
0000
0000
0100
0000
0010
0001
0000
0000
1000
0000
0000
0001
0000
0000
1000
0000
0000
0002
0000
0000
0013
0000
0001
,
0010
0000
0000
0200
0000
0000
1300
0000
0100
1000
0000
0000
1001
0000
0000
0101
0000
0000
0110
0000
0000
1001
0000
0000
,
0000
0000
0000
0000
;
#NOTES:
     dance-double:
     :
     Easy:
     4:
     :
00000000
00000000
00000000
00000000
,
00000000
00000000
00000000
00000000
,
00000000
00000000
00000000
00000000
,
00000000
00000000
00000000
10000000
,
00000000
01000000
00000000
00000000
00010000
00000000
00000000
00001000
,
00000000
00000000
00010000
00000000
00000000
00001000
00000000
00000000
,
00000020
00000000
00000000
00000031
00000000
00000000
00000001
00000000
,
00000000
00000100
00000000
00000000
00002000
00000000
00000000
00013000
,
00000000
00000000
00020000
00000000
00000000
00031000
00000000
00000000
,
00010000
00000000
00000000
00100000
,
00000000
10000000
00000000
00000000
00010000
00000000
00000000
01000000
,
00000000
00000000
10000000
00000000
00000000
01000000
00000000
00000000
,
00100000
00000000
00000000
10000000
,
00000000
10000000
00000000
00000000
00010000
00000000
00000000
00010000
,
00000000
00110000
00000000
00000000
,
00011000
00000000
00000000
00000010
,
00000000
00000001
00000000
00000000
00000100
00000000
00000000
00001000
,
00000000
00000000
00010000
00000000
00000000
00100000
00000000
00000000
,
10010000
00000000
00000000
10000000
,
00000000
10000000
00000000
00000000
01000000
00000000
00000000
01000000
,
00000000
00000000
00020000
00000000
00000000
00031000
00000000
00000000
,
00002000
00000000
00000000
00013000
00000000
00000000
00001000
00000000
,
00000000
00000010
00000000
00000000
00000001
00000000
00000000
00001000
,
00000000
00000000
00000002
00000000
00000000
00000203
00000000
00000000
,
00002300
00000000
00000000
00013000
00000000
00000000
00100000
00000000
,
00000000
10000000
00000000
00000000
00010000
00000000
00000000
01000000
,
00000000
00000000
00100000
00000000
00000000
10100000
00000000
00000000
,
01000000
00000000
00000000
01010000
00000000
00000000
00001000
00000000
,
00000000
00010000
00000000
00000000
00001000
00000000
00000000
00000010
,
00000000
00000000
00000001
00000000
00000000
00001000
00000000
00000000
,
00001001
00000000
00000000
00000002
,
00000000
00000203
00000000
00000000
00002300
00000000
00000000
00013000
,
00000000
00000000
00020000
00000000
00000000
00230000
00000000
00000000
,
20300000
00000000
00000000
31000000
00000000
00000000
01000000
00000000
,
00000000
01100000
00000000
00100000
00000000
00000000
01100000
00000000
,
00010000
00000000
00000000
10000000
00000000
00000000
01000000
00000000
,
00000000
00010000
00000000
00000000
00002000
00000000
00003000
00000020
,
00000000
00000030
00000001
00000000
00000000
00000001
00000000
00000000
,
00000100
00000000
00000000
00000100
00000000
00000000
00002000
00000000
,
00000000
00013000
00000000
00000000
00020000
00000000
00000000
00031000
,
00000000
00000000
00010000
00000000
00000000
00100000
00000000
00000000
,
10000000
00000000
00000000
00010000
00000000
00000000
20000000
00000000
,
00000000
32000000
00000000
00000000
03020000
00000000
00000000
00031000
,
00000000
00000000
00001000
00000000
00000000
00000010
00000000
00000000
,
00000001
00000000
00000000
00000100
00000000
00000000
00002000
00000000
,
00000000
00013000
00000000
00000000
00020000
00000000
00000000
00031000
,
00000000
00000000
00010000
00000000
00000000
00100000
00000000
00000000
,
10000000
00000000
00000000
01000000
00000000
00000000
00020000
00000000
,
00000000
00032000
00000000
00000000
00013000
00000000
00000000
00011000
,
00000000
00000000
00000000
00000000
;
#NOTES:
     dance-double:
     :
     Medium:
     8:
     :
00000000
00000000
00000000
00000000
,
00000000
00000000
00000000
00000000
,
00000000
00000000
00000000
00000000
,
00000000
00000000
00000000
20000000
,
01000000
31000000
00000000
00000000
01000000
00010000
00001000
00010000
,
00000000
00000000
00001000
00000000
00000010
00000001
00000000
00000010
,
00000100
00000000
00000000
00002000
,
00000001
00003001
00000000
00000000
00000001
00000000
00000100
00001000
,
00000000
00000000
00011000
00000000
00001000
00010000
00000000
00100000
,
01000000
00000000
00000000
20000000
,
00010000
30010000
00000000
00000000
00010000
00000000
00100000
01000000
,
00000000
00000000
11000000
00000000
00000000
01010000
00000000
00000000
,
00011000
00000000
00000000
00001010
00000000
00000000
00000002
00000000
,
00001000
00001003
00000000
00000000
00000020
00000000
00000100
00000130
,
00000000
00000000
00002100
00000000
00000000
00013000
00000000
00000000
,
00120000
00000000
00000000
00031000
00000000
00000000
00000020
00000000
,
00000100
00000130
00000000
00000000
00001000
00000000
00010000
00001000
,
00000000
00000000
00110000
00000000
00000000
01100000
00000000
00000000
,
10010000
00000000
00000000
10000000
,
00000000
10000000
00100000
10000000
00010000
00000000
00000000
00100000
,
00010000
00100000
00020000
00000000
00001000
00032000
00000000
00000100
,
00003200
00000000
00000010
00000310
00000000
00000000
00000001
00000000
,
00000000
00000001
00000100
00000001
00001000
00000000
00000000
00000010
,
00000100
00001000
00020000
00000000
00001000
00032000
00000000
00010000
,
00023000
00000000
00100000
00130000
00000000
00000000
10000000
00010000
,
10000000
00000000
00010000
00010000
00000000
00100000
00100000
00000000
,
01000000
00100000
01100000
00000000
00000000
00101000
00000000
00000000
,
00011000
00000000
00000000
00010100
00000000
00000000
00001000
00000001
,
00001000
00000000
00000010
00000010
00000000
00000100
00000100
00000000
,
00000001
00001000
00001001
00000000
00000000
00000110
00000000
00000000
,
00001001
00000000
00000000
00000001
,
00000000
00000100
00000001
00000100
00002000
00000000
00000000
00013000
,
00000000
00000000
00110000
00000000
00000000
01100000
00000000
00000000
,
10010000
00000000
00000000
01100000
00000000
00000000
02000000
00000000
,
00000000
03100000
01000000
20000000
00000000
00000000
30010000
10000000
,
01000000
00000000
00100000
00010000
00000000
00001000
00000100
00000000
,
00000010
00000001
00000000
00000000
00000110
00000000
00000000
00001001
,
00000000
00000000
00000001
00000000
00000000
00000001
00000010
00000001
,
00001000
00000000
00000000
00000010
00001000
00000010
00002000
00000000
,
00010000
00023000
00000000
01000000
02030000
00000000
00100000
03100000
,
00000000
00000000
10000000
00000000
00000000
10000000
01000000
10000000
,
00010000
00000000
00000000
00100000
01000000
00010000
00002000
00000000
,
00010000
00023000
00000000
00001000
00032000
00000000
00000010
00003010
,
00000000
00000000
00000011
00000000
00000000
00000010
00000100
00000010
,
00000001
00000000
00000000
00000101
00000000
00000000
00002100
00000000
,
00000000
00013000
00000000
00000000
00021000
00000000
00000000
00130000
,
00000000
00000000
10100000
00000000
00000000
00010000
00100000
01000000
,
00100000
00000000
00000000
01100000
00000000
00000000
11000000
00000000
,
00000000
01010000
00000000
00000000
00001000
00010000
00001000
00011000
,
00000000
00000000
00000000
00000000
;
#NOTES:
     dance-double:
     :
     Hard:
     10:
     :
00000000
00000000
00000000
00000000
,
00000000
00000000
00000000
00000000
,
00000000
00000000
00000000
00000000
,
00000000
00000000
00000000
00000000
00000000
00000000
10000000
01000000
,
00010000
00001000
00010000
00001000
00000010
00000001
00000100
00001000
,
00010000
00001000
00010000
00100000
10000000
00010000
00100000
01000000
,
10000000
01000000
00010000
00001000
00000000
00000000
00000020
00000000
,
00000031
00000010
00000100
00001000
00000100
00000000
00000010
00000001
,
00000100
00001000
00010000
00000000
00001000
00010000
00100000
10000000
,
00020000
00000000
10030000
00000000
10000000
01000000
00010000
00000000
,
00001000
00010000
00001000
00000100
00000001
00000000
00001000
00000001
,
00000010
00001000
00020000
00000000
00031000
00010000
00100000
10000000
,
00020000
00000000
10030000
00000000
10000000
01000000
00100000
00000000
,
00010000
01000000
00100000
00010000
00002000
00000000
00003100
00000000
,
00000001
00001000
00000100
00000010
00000000
00000000
00000001
00001000
,
00000200
00000000
00000310
00000000
00000001
00000010
00001000
00010000
,
00001000
00000000
00010000
00100000
20000000
00000000
30010000
00000000
,
10000000
01000000
00020000
00000000
00031000
00010000
00001000
00000010
,
00000002
00000000
00000003
00000000
00000000
00000000
00000001
00000100
,
00001000
00010000
00001000
00010000
00100000
10000000
01000000
00010000
,
00001000
00010000
00002000
00000000
00003010
00000100
00001000
00000010
,
00000001
00000000
00000001
00000010
00000000
00000010
00000100
00001000
,
00010000
00100000
10000000
00010000
10000000
01000000
00010000
00001000
,
00000010
00000001
00002000
00000000
00000000
00003000
00000000
00001000
,
00000001
00000000
00000001
00000010
00000000
00000010
00001000
00010000
,
00001000
00000000
00010000
00001000
00010000
00000000
00000000
00000000
,
00100000
10000000
00020000
00000000
00000000
10030000
01000000
00010000
,
00001000
00000000
00000000
00000000
00000000
00000000
00000010
00000100
,
00002000
00000000
00003001
00000010
00001000
00000000
00000000
00000000
,
00010000
00001000
00020000
00000000
00130000
10000000
00010000
10000000
,
01000000
00000000
00000000
00000000
00000000
00000000
10000000
01000000
,
10000000
01000000
00000000
01000000
00010000
00001000
00010000
00001000
,
00000000
00001000
00000010
00000000
00000001
00000010
00000000
00000100
,
00001000
00000000
00000001
00000100
00000000
00000010
00010000
00001000
,
00010000
00001000
00001000
00010000
00100000
10000000
00100000
00100000
,
01000000
00010000
10000000
01000000
00010000
00001000
00000010
00000000
,
00000000
00000000
00000000
00000000
00000001
00000001
00000001
00001000
,
00001000
00001000
00000001
00000100
00001000
00010000
00001000
00010000
,
00100000
10000000
01000000
00010000
00001000
00010000
00002000
00000000
,
00003010
00000100
00001000
00000010
00000001
00000000
00000001
00000010
,
00000000
00000010
00000100
00001000
00010000
00100000
10000000
00010000
,
10000000
01000000
00010000
00001000
00000010
00000001
00002000
00000000
,
00000000
00003000
00000000
00000000
00000001
00000000
00000001
00000010
,
00000000
00000010
00000001
00000100
00001000
00010000
00001000
00010000
,
00100000
10000000
01000000
00010000
00001000
00010000
00001000
00000010
,
00000001
00001000
00000001
00000100
00001000
00010000
00001000
00010000
,
00100000
01000000
00010000
10000000
01000000
00010000
00001000
00010000
,
00001000
00000010
00000001
00000100
00001000
00010000
00001000
00010000
,
00100000
00010000
00100000
10000000
01000000
00010000
00001000
00011000
,
00000000
00000000
00000000
00000000
;
#NOTES:
     dance-double:
     :
     Challenge:
     12:
     :
00000000
00000000
00000000
00000000
,
00000000
00000000
00000000
00000000
,
00000000
00000000
00000000
00000000
,
00000000
00000000
00000000
00000000
00000000
00000000
00000000
00000000
00000000
00000000
00000000
00000000
00000000
00000000
00000000
00000000
00000000
00000000
10000000
00000000
00000000
01000000
00000000
00010000
,
00001000
00000000
00000000
00000010
00000000
00000000
00000001
00000000
00000000
00001000
00000000
00000000
00000001
00000000
00000000
00000100
00000000
00000010
00001000
00000000
00000000
00010000
00000000
00000000
,
01000000
00000000
00000000
00100000
00000000
00000000
10000000
00000000
00000000
00100000
00000000
01000000
00010000
00000000
00000000
00100000
00000000
00000000
00001000
00000000
00010000
00001000
00000000
00000000
,
00000010
00000000
00000000
00000001
00000000
00000000
00000010
00000000
00000000
00000100
00000000
00000000
00000000
00000000
00000000
00000000
00000000
00000000
00001000
00000000
00000000
00000010
00000000
00001000
,
00000001
00000000
00000000
00000010
00000000
00000000
00001000
00000000
00000000
00010000
00000000
00000000
00001000
00000000
00000000
00010000
00000000
00100000
10000000
00000000
00000000
00010000
00000000
00000000
,
00100000
00000000
00000000
01000000
00000000
00000000
10000000
00000000
00000000
01000000
00000000
00010000
01000000
00000000
00000000
10000000
00000000
00000000
00100000
00000000
00000000
00010000
00000000
00000000
,
00001000
00000000
00000000
00000100
00000000
00000001
00001000
00000000
00000000
00000000
00000000
00000000
00001000
00000000
00000000
00000001
00000000
00000000
00000010
00000000
00000000
00001000
00000000
00010000
,
00001000
00000000
00000000
00010000
00000000
00000000
00100000
00000000
00000000
10000000
00000000
00000000
00010000
00000000
00000000
00100000
00000000
01000000
10000000
00000000
00000000
01000000
00000000
00000000
,
00010000
00000000
00000000
00001000
00000000
00000000
00100000
00000000
00000000
00010000
00000000
00001000
00010000
00000000
00000000
00001000
00000000
00000000
00000100
00000000
00000000
00000010
00000000
00000000
,
00000001
00000000
00000000
00001000
00000000
00000001
00000100
00000000
00000000
00000000
00000000
00000000
00000001
00000000
00000000
00000100
00000000
00000000
00001000
00000000
00000000
00010000
00000000
00001000
,
00010000
00000000
00000000
00001000
00000000
00000000
00010000
00000000
00000000
00100000
00000000
00000000
01000000
00000000
00000000
00010000
00000000
10000000
00010000
00000000
00000000
00000000
00000000
00000000
,
10000000
00000000
00000000
01000000
00000000
00000000
00010000
00000000
00000000
00001000
00000000
00010000
00001000
00000000
00000000
00000010
00000000
00000000
00000001
00000000
00000000
00001000
00000000
00000000
,
00000100
00000000
00000000
00000010
00000000
00000001
00000010
00000000
00000000
00000000
00000000
00000000
00000001
00000000
00000000
00000010
00000000
00000000
00001000
00000000
00000000
00010000
00000000
00001000
,
00010000
00000000
00000000
00100000
00000000
00000000
10000000
00000000
00000000
00010000
00000000
00000000
00100000
00000000
00000000
01000000
00000000
10000000
00010000
00000000
00000000
00000000
00000000
00000000
,
00010000
10000000
11000000
00000000
01000000
00010000
00001000
00010000
,
00011000
00000000
00000000
00000000
00000000
00000000
00000000
00000000
00000000
00001000
00000000
00000000
00000010
00000000
00000000
00000001
00000000
00000000
00001000
00000000
00000000
00000001
00000000
00000010
,
00000001
00000000
00000000
00000010
00000000
00000000
00001000
00000000
00000000
00010000
00000000
00000000
00100000
00000000
10000000
00010000
00000000
01000000
00100000
00000000
00000000
10000000
00000000
00000000
,
00010000
01000000
10000000
01000000
00010000
10000000
00100000
00010000
,
00001000
00000000
00000000
00000010
00000000
00000000
00000001
00000000
00000000
00001000
00000000
00000000
00000100
00000000
00000000
00000001
00000000
00000000
00000100
00000000
00000000
00001000
00000000
00000001
,
00000010
00000000
00000000
00001000
00000000
00000000
00010000
00000000
00000000
00100000
00000000
00000000
10000000
00000000
00100000
01000000
00000000
00010000
10000000
00000000
00000000
01000000
00000000
00000000
,
00100000
00010000
20000000
01000000
31000000
02000000
00010000
03010000
,
00001000
00000000
00000000
00000010
00000000
00000001
00000010
00000000
00000000
00000100
00000000
00000000
00001000
00000000
00000001
00001000
00000000
00000000
00000001
00000000
00000000
00000011
00000000
00000000
,
00000011
00000000
00000000
00000100
00000000
00000000
00001100
00000000
00000000
00001100
00000000
00000000
00000001
00000000
00000000
00000010
00000000
00001000
00010000
00000000
00000000
00001000
00000000
00000000
,
00010000
00000000
00100000
10000000
00000000
00000000
00010000
00000000
00000000
01010000
00000000
00000000
01010000
00000000
00000000
00100000
00000000
00000000
10100000
00000000
00000000
10100000
00000000
00000000
,
10000000
00000000
00100000
00010000
00000000
00001000
00010000
00000000
00000000
00001000
00000000
00000000
00000100
00000000
00000000
00000001
00000000
00000000
00001000
00000000
00000000
00001010
00000000
00000000
,
00001010
00000000
00000000
00000100
00000000
00000000
00000101
00000000
00000000
00000101
00000000
00000000
00000001
00000000
00000000
00000100
00000000
00000010
00001000
00000000
00000000
00010000
00000000
00000000
,
01000000
00000000
00100000
10000000
00000000
00000000
00010000
00000000
00000000
00110000
00000000
00000000
00110000
00000000
00000000
01000000
00000000
00000000
11000000
00000000
00000000
11000000
00000000
00000000
,
10000000
01000000
00010000
00011000
00000000
00000000
00000010
00000001
,
00001000
00000000
00000000
00000100
00000000
00000000
00000001
00000000
00000100
00000010
00000000
00000000
00001000
00000000
00000000
00010000
00000000
00000000
00100000
00000000
00000000
10000000
00000000
00000000
,
00010000
00000000
01000000
00100000
00000000
00000000
10000000
00000000
00000000
01000000
00000000
00000000
00010000
00000000
00000000
00001000
00000000
00000000
00010000
00000000
00100000
00010000
00000000
00000000
,
00001000
00000000
00000000
00010000
00000000
00000000
01000000
00000000
00000000
00010000
00000000
00000000
00001000
00000000
00000000
00000010
00000000
00000000
00000010
00000000
00000001
00000010
00000000
00000000
,
00000100
00000000
00000000
00001100
00000000
00000000
00001100
00000000
00000000
00000001
00000000
00000010
00001000
00000000
00000000
00010000
00000000
00000000
00011000
00000000
00000000
00011000
00000000
00000000
,
00001000
00000000
00010000
00100000
00000000
00000000
10000000
00000000
00000000
00010000
00000000
00100000
01000000
00000000
00000000
10000000
00000000
00000000
01000000
00000000
00000000
00010000
00000000
00000000
,
00001000
00000010
00000001
00000100
00002000
00010000
00013000
00200000
,
10000000
00000000
00000000
10300000
00000000
00000000
00010000
00000000
00000000
10000000
00000000
00100000
10000000
00000000
00000000
00100000
00000000
00000000
00010000
00000000
00000000
00001000
00000000
00000000
,
00000010
00000000
00000001
00001000
00000000
00000100
00000010
00000000
00000000
00000001
00000000
00000000
00001000
00000000
00000000
00000100
00000000
00000000
00000001
00000000
00000000
00000100
00000000
00000000
,
00001000
00000001
00000010
00001000
00010000
00100000
10000000
00010000
,
01000000
00000000
00000000
10000000
00000000
00000000
01000000
00000000
00000000
00010000
00000000
10000000
00100000
00000000
00000000
00010000
00000000
00000000
00001000
00000000
00000000
00000010
00000000
00000000
,
00000001
00000000
00000010
00000100
00000000
00001000
00000001
00000000
00000000
00000100
00000000
00000000
00000010
00000000
00000000
00001000
00000000
00000000
00000002
00000000
00000000
00000100
00000000
00000000
,
00000103
00000000
00000000
00000200
00000000
00000000
00001000
00000000
00000000
00001300
00000000
00000000
00010000
00000000
00000000
00100000
00000000
10000000
00100000
00000000
00000000
01000000
00000000
00000000
,
00010000
00000000
10000000
00010000
00000000
00000000
10000000
00000000
00000000
01000000
00000000
00010000
00001000
00000000
00000000
00000010
00000000
00000000
00000001
00000000
00000000
00001000
00000000
00000000
,
00000001
00000000
00000000
00000100
00000000
00001000
00010000
00000000
00000000
00100000
00000000
00000000
10000000
00000000
00000000
00010000
00000000
00000000
10000000
00000000
00000000
01000000
00000000
00000000
,
00010000
01000000
00010000
00001000
00010000
00001000
00000010
00001000
,
00000010
00000000
00000000
00000001
00000000
00000000
00000001
00000000
00000000
00000010
00000000
00001000
00010000
00000000
00000000
01000000
00000000
00000000
10000000
00000000
00000000
00010000
00000000
00000000
,
10000000
00000000
00000000
00100000
00000000
00010000
00001000
00000000
00000000
00000100
00000000
00000000
00000001
00000000
00000000
00001000
00000000
00000000
00000002
00000000
00000000
00000010
00000000
00000000
,
00000013
00000020
00001000
00001030
00010000
00100000
00010000
00011000
,
00000000
00000000
00000000
00000000
;
