#VERSION:0.83;
#TITLE:CHAOS Terror-Tech Mix;
#ARTIST:ARM (IOSYS);
#TITLETRANSLIT:CHAOS (Terror-Tech Mix);
#BANNER:CHAOS Terror-Tech Mix.png;
#BACKGROUND:CHAOS Terror-Tech Mix-bg.png;
#CDTITLE:./CDTitles/DDR A.png;
#MUSIC:CHAOS Terror-Tech Mix.ogg;
#SAMPLESTART:97.448;
#SAMPLELENGTH:15;
#BPMS:0=165;
#STOPS:16=1.091,21=1.091,26=1.091,59=0.182,59.5=0.182,60=0.182,60.5=0.182,160.33333=0.364,175.66667=0.364,183=2.545,189.5=0.727,193.5=0.909,201=0.727,207=0.182,207.5=0.364,219.5=1.636,269.5=0.182,273=0.182,274.5=0.182,274.75=0.182,275=0.182,275.25=0.182,275.5=0.182,275.75=0.182,276=0.182,281=0.182,284.5=0.182,290=0.182,290.25=0.182;

//---------------dance-single - ----------------
#NOTEDATA:;
#STEPSTYPE:dance-single;
#DIFFICULTY:Beginner;
#METER:5;
#NOTES:
0000
0000
0000
0000
,
0000
0000
0000
0000
,
0000
0000
0000
0000
,
0001
0000
0000
0000
,
0001
1000
0000
0000
,
0000
1000
0010
0000
,
0000
0000
0010
0100
,
0000
0000
0000
0110
,
0000
0000
0000
0001
,
0000
0001
0000
0001
,
0000
0000
0000
1000
,
0000
1000
0000
1000
,
0000
0000
0000
0002
,
0000
0000
0003
2000
,
0000
0000
3000
0020
,
0000
0230
0000
0000
,
0300
0000
0110
0000
,
0000
0001
0000
0001
,
0000
1000
0000
0100
,
0000
1000
0000
0100
,
0000
0000
0110
0000
,
0000
0010
0000
0010
,
0000
0200
0000
0000
,
0000
0300
0000
0010
,
0010
0000
1001
0000
,
0000
0001
1000
0001
,
0000
1000
0000
0100
,
0000
0001
0000
0100
,
0000
0000
1001
0000
,
0000
0010
0100
0010
,
0000
0200
0000
0000
,
0000
0000
0000
0000
,
0300
0000
1001
0000
,
0110
0000
1001
0000
,
0110
0000
1001
0000
,
0110
0200
0000
0000
,
0300
0000
1001
0000
,
0110
0000
1001
1001
,
0000
0002
0000
0000
,
0000
2003
0000
0000
,
3000
0000
0000
0110
,
0000
1001
0000
0110
,
0000
1001
0000
0000
,
0001
0001
0001
0000
,
0000
0000
1001
0000
,
0110
0000
1001
0000
,
0010
0000
0010
0000
,
0010
0000
0100
0000
,
0100
0000
0000
0000
0000
0010
0000
0000
,
0000
0010
0000
0000
0000
0010
0000
0000
,
0000
0010
0000
0000
0000
0100
0000
0000
,
0000
0100
0000
0000
0000
0100
0000
0000
,
0001
1000
0001
0000
,
0100
0000
0100
0000
,
1000
0001
1000
0000
,
0000
0001
0000
1000
0000
0001
0000
0000
,
0000
0010
0000
0000
0000
0010
0000
0110
,
0000
0000
0000
0000
0000
0000
0000
1001
,
0000
0000
0000
0000
0000
0000
0000
1000
,
0000
0000
0000
0100
0000
0000
0000
0001
,
0000
0000
0000
0100
0000
0000
0000
1000
,
0000
0000
0000
0010
0000
0000
0000
0001
,
0000
0000
0000
0010
0000
0000
0000
1000
,
0000
0000
0000
0010
0000
0000
0000
0100
,
0000
0000
0000
0001
0000
0000
0000
1000
,
0000
0000
0000
0100
0000
0000
0000
0010
,
0000
0001
0000
0010
0000
0000
0000
0100
,
0000
0000
0000
1001
0000
0000
0100
0000
,
0000
0000
1001
0000
0000
0002
0000
0000
,
0000
0000
0003
1000
,
0000
0000
0110
0000
0000
0001
0000
0000
,
0000
0110
0000
0000
2000
0000
0000
0000
,
3002
0000
2000
0000
,
0000
0000
0000
3003
;

//---------------dance-single - ----------------
#NOTEDATA:;
#STEPSTYPE:dance-single;
#DIFFICULTY:Easy;
#METER:8;
#NOTES:
0000
0000
0000
0000
,
0000
0000
0000
0000
,
0000
0000
0000
0000
,
0001
0000
0000
1000
0000
0000
0001
0000
,
1001
0000
1000
0000
0000
0001
0000
0000
,
1000
0000
1001
0000
0010
0000
0000
0100
,
0000
0010
0110
0001
,
0000
0010
0000
0000
0100
0000
0010
0000
,
0001
1000
0001
1000
,
1000
0001
0001
0100
,
0000
0110
0000
0010
,
0010
1000
1000
0001
,
0000
1001
0000
0011
,
0000
1010
0000
1100
,
0000
0101
0000
0002
,
2003
3200
0000
0000
,
0300
0000
1001
0000
,
0100
0001
0001
0001
,
0000
0000
1000
0000
0000
0000
0100
0010
,
0100
1000
1000
1000
,
0000
0000
1001
0000
,
0100
0001
0100
0101
,
0000
0000
0002
0000
0000
2003
0000
0000
,
3200
0010
0000
0010
,
0310
0000
0110
0000
,
0010
1000
1000
1000
,
0000
0000
0001
0000
0000
0000
0010
0100
,
0010
0001
0001
0001
,
0000
0000
1001
0000
,
0010
1000
0010
1010
,
0000
0000
0000
0000
0001
0000
0000
1000
,
0000
0000
0100
0000
0000
0010
0001
0000
,
1000
1001
0100
0010
,
0100
0010
0100
0010
,
0000
1000
0001
1000
,
0001
2000
3000
0002
,
0003
0000
1001
0010
,
0001
0010
0001
0010
,
0000
0000
0100
0000
0000
1000
0000
0000
,
0100
0002
0003
2000
,
3000
0110
0010
1000
,
0001
0100
0001
0000
,
1000
0100
0001
0100
,
2000
3000
0002
0003
,
1010
0100
0001
0100
,
0001
1000
0100
0000
,
0010
1000
0100
1000
,
0010
0001
0100
0001
,
1000
0000
0001
0100
0000
0010
0000
1000
,
0000
0010
0000
0001
0000
0010
0000
0100
,
0000
0010
0000
0001
0000
0100
0000
1000
,
0000
0100
0000
0001
0000
1000
0001
0000
,
1000
0001
0010
1000
,
0001
0000
1000
0100
1000
0000
0000
0000
,
1000
0000
0010
0000
0001
0000
1000
0010
,
0000
1000
0000
0100
0000
0010
0000
0001
,
0000
0100
0001
0100
0000
0010
0000
1010
,
0000
0000
1001
0000
0000
0101
0000
0100
,
0000
0010
0000
1000
0000
0001
0000
1001
,
0000
1000
0000
0001
0000
0010
0000
0100
,
0000
1000
0000
0100
1000
0100
0000
1100
,
0000
0000
0000
0011
0000
0000
0000
0101
,
0000
0000
0000
1010
0000
0000
0000
0110
,
0000
0010
0000
1000
0000
0010
0000
0100
,
0000
0001
0000
0100
0001
0100
0000
0001
,
0000
0100
0000
1000
0000
0100
0000
0001
,
0000
0010
0000
1000
0000
0000
0000
0001
,
0000
0100
0000
0010
0110
0000
1000
0000
,
0100
0000
0110
0001
0000
2000
3002
0203
,
0320
0030
1000
0000
1001
0000
0100
0010
,
0001
0000
1001
0100
0000
0001
0010
0100
,
0000
1001
0100
0000
0002
0000
0000
0000
,
2003
0000
0000
0000
0000
0000
0000
0000
3100
0100
0200
0000
0000
0000
0000
0000
,
0000
0000
0000
0300
;

//---------------dance-single - ----------------
#NOTEDATA:;
#STEPSTYPE:dance-single;
#DIFFICULTY:Medium;
#METER:12;
#NOTES:
0000
0000
0000
0000
,
0000
0000
0000
0000
,
0000
0000
0000
0000
,
0001
0000
0000
0001
0000
0001
0000
0001
,
0000
0000
0000
0000
1000
0000
0000
0000
0000
0000
0100
0000
0010
0000
0000
0010
,
0000
0010
0000
0000
0001
0000
0000
1000
,
0000
1000
0000
1000
0000
0000
0001
0010
,
0000
0011
0000
0110
0000
0100
1000
0001
,
0100
0000
0001
1000
0010
0000
0001
1000
,
0100
0000
1000
0100
1000
0000
0001
0010
,
0001
0000
0000
0000
0011
0000
0000
0011
0000
0000
0000
0000
0001
0000
0100
0000
,
0001
0000
0100
0001
0100
0000
0010
1000
,
0010
0000
0000
0000
1010
0000
0000
1010
0000
0000
0000
0000
1000
0000
1000
0000
,
0100
0000
0001
0001
0100
0000
0001
0001
,
0010
0000
1000
1000
0010
0000
1000
1001
,
0001
1001
0200
0000
0000
0000
0000
0000
,
0000
0000
0300
0000
0110
0000
0000
0010
,
1000
0000
0001
0000
1000
0001
0000
0001
,
1000
0000
0010
0000
0110
0000
0010
1000
,
0001
1000
0100
0100
0010
0000
0001
1000
,
0001
0000
0000
0000
1001
0000
0000
1000
,
0100
0001
0100
0000
1000
0001
0000
1000
,
0001
0000
0000
0000
0200
0000
0000
0320
0000
0000
2030
0000
0000
3002
0000
0000
,
0013
0100
0020
0000
0000
0000
0100
0000
,
0130
0000
0000
0000
1001
0000
0000
0001
,
0100
1000
0100
0000
0010
0100
0000
0010
,
0100
0000
0000
0000
0001
0000
0000
1000
0000
0000
0001
0000
0100
0000
0001
0000
,
0100
0000
0001
0010
0100
0000
1000
0100
,
0010
0000
0000
0000
1001
0000
0000
0100
,
0001
0100
0001
0000
1000
0100
0000
0010
,
0100
0000
0000
0000
2000
0000
0000
3002
,
0000
0000
0000
0000
0023
0000
0000
0000
0000
0000
0130
0000
0010
0000
0100
0010
,
0100
0000
0000
0000
1000
0100
0001
0100
,
1000
0100
0001
0100
1000
0100
0001
0100
,
1000
0000
0001
0100
1000
0100
0001
0100
,
1000
0000
0100
0000
0001
0000
0000
0001
0010
0000
0000
0000
0100
0000
0000
0100
,
1000
0000
0000
0000
1001
0000
1000
0010
,
0001
0010
1000
0010
0001
0010
1000
0010
,
0001
0000
0000
0000
0020
0000
0000
2030
0000
0000
3200
0000
0000
0320
0000
0000
,
0031
0000
0000
2000
0000
0000
0002
0000
0000
0000
0000
0000
3003
0000
0000
0000
0000
0000
0100
0000
0000
0000
0100
0000
,
0000
0000
0100
0000
0000
0000
1001
0000
0000
0000
0000
0000
0001
0000
0000
0010
0000
0000
1000
0000
0000
0010
0000
0000
,
0001
0010
1000
0010
0001
0010
1000
0000
,
0010
0001
0100
0001
0010
0001
0100
0001
,
0010
0110
0100
0110
,
1001
0000
0100
1000
0010
1000
0100
1000
,
0010
1000
0100
1000
0010
0000
0000
0000
,
0001
0000
1000
0100
0001
0000
1000
0010
,
0001
0000
1000
0100
0010
0000
0001
0010
,
1000
0000
0001
0010
0001
0100
0000
0010
,
0001
0100
0000
0010
1000
0100
0000
0010
,
1000
0100
0001
0100
0000
0010
0100
1000
,
0000
0010
0100
0001
0000
1000
0001
0010
,
0001
0000
0000
0100
0000
0000
0001
0000
1000
0000
0100
0000
0000
0000
0100
0000
,
1000
0000
0000
0001
0000
0000
1000
0000
0001
0000
0010
0000
0000
0000
0010
0000
,
0001
0000
0000
0100
0000
0000
0010
0000
1000
0000
0010
0100
0010
0000
0010
0000
,
0000
0100
0000
0000
0001
0000
0100
0000
1000
0000
0000
0000
0010
0000
0000
0000
,
0100
0000
0110
0000
0010
0000
0110
0100
,
0000
0000
0001
0000
0000
1001
0000
1000
,
0100
0001
0100
1000
0010
0001
0010
1000
,
0100
0000
1000
0000
0100
0000
0010
0000
0001
0010
0000
0000
0000
0000
0001
0000
,
0010
0000
0001
0000
0010
0000
0100
0000
1000
0100
0000
0000
0000
0000
1000
0000
,
0000
0010
0000
0000
0001
0000
0000
1000
0000
0000
0100
0000
0000
0001
0000
0000
,
0010
0000
0000
1000
0000
0000
0001
0000
0000
0100
0000
0000
1000
0000
0001
0000
,
0100
0000
1000
0000
0100
0000
0001
0000
1000
0100
0000
0000
0000
0000
1000
0000
,
0010
0000
0001
0000
0010
0000
1000
0000
0010
1000
0000
0000
0000
0000
0001
0000
,
0010
0100
1000
0001
0010
0100
1000
0100
,
0010
0001
1000
0100
0010
0001
1000
0001
,
0000
0100
0000
0000
1001
0000
1001
0000
0110
0000
0000
0000
1000
0000
0000
0001
,
0000
0000
0110
0000
0110
0000
1001
0000
0000
0000
0001
0100
0001
0110
1000
0100
,
1000
0000
0000
0000
1000
0001
1000
0001
1000
0000
0000
0000
0001
0000
0000
0010
,
0000
0000
0100
0000
0110
0000
1001
0000
0000
0000
0001
0000
0000
1000
0000
0000
,
0100
1100
0011
0000
0001
0010
0100
1000
,
0001
1000
0001
0000
1000
0001
1000
0000
0010
0100
0220
0000
0000
0000
0000
0000
,
0000
0000
0000
0330
;

//---------------dance-single - ----------------
#NOTEDATA:;
#STEPSTYPE:dance-single;
#DIFFICULTY:Hard;
#METER:15;
#NOTES:
0000
0000
0000
0000
,
0000
0000
0000
0000
,
0000
0000
0000
0000
,
0010
0000
0000
0010
0000
0010
0000
0010
,
0100
0000
0000
0000
0001
0000
0000
0000
0000
0000
0001
0000
1000
0000
0000
1000
,
0000
1000
0001
0000
0100
0000
0000
0100
,
0000
0100
0000
0100
0010
0000
1000
0000
,
0000
0000
1000
0000
0000
0000
1000
0000
0000
0000
0100
0000
0010
0000
0001
0010
,
0000
0010
0100
0000
0100
1000
0000
1000
0001
0000
0000
0000
1000
0000
0100
0000
,
1000
0100
0001
0100
0001
0100
1000
0010
,
1000
0000
0000
0000
0110
0000
0000
1010
0000
0000
1001
0000
0001
0000
0010
0000
,
0001
0010
1000
0010
1000
0010
0001
0100
,
0001
0000
0000
0000
0101
0000
0000
1010
0000
0000
1001
0000
0100
0000
0001
0000
,
0100
0000
0001
0000
1000
0000
0010
0000
1000
0000
0010
0000
1000
0100
1000
0000
,
0100
1000
0100
0000
0010
0001
0010
0000
0001
0010
0001
0000
1000
1000
0100
0100
,
0001
0001
1000
0001
1000
0000
0000
0001
0000
0000
0010
0000
0000
1000
0000
0000
,
0001
0000
0000
0000
0000
0000
0000
0000
1001
0000
0000
0000
1000
0100
0000
0100
,
1000
0000
0000
0000
0010
0000
0000
0000
0100
0000
0001
0000
1000
0100
0010
0000
,
0110
0000
1000
0010
0001
0010
0100
0001
,
1000
0100
1000
0000
0001
0000
0000
0001
0100
0000
0001
0010
0100
0000
0000
0000
,
0110
0000
0001
0010
1001
0000
0000
0001
,
1000
0100
1000
0100
1000
0000
0000
0000
0100
0000
0110
0000
0000
0000
0010
0000
,
0110
0000
0000
0000
0011
0000
0000
0101
0000
0000
1010
0000
0000
1100
0000
0000
,
1001
0110
2002
0000
3003
0000
0110
0000
,
1001
0000
0000
0000
1000
0000
0000
0000
0101
0000
0000
0000
0100
0001
0000
0001
,
0100
0000
0010
0000
0100
0000
0000
0001
0100
0000
1000
0100
0001
0000
0010
0000
,
0110
0000
0000
0000
0001
0000
0000
0001
0010
0000
0001
0000
1000
0000
0100
0000
,
0010
0000
0001
0000
1000
0000
0000
0100
0010
0000
0100
0000
0010
0000
0010
0000
,
0010
0000
0000
0000
2000
0000
0000
0000
3001
0000
0000
0000
0010
0001
0000
0001
,
1000
0100
1000
0001
1100
0000
1000
0002
,
0200
0000
0303
0000
1010
0000
0010
0001
,
0000
0000
0100
0000
0010
0000
0100
0000
0001
1000
0110
0000
0000
0000
0010
0000
,
0010
0000
0010
0000
0100
0000
0000
0000
0001
0100
0001
0000
1000
0100
1000
0000
,
0001
0100
0001
0000
1000
0100
1000
0000
0001
0100
0001
0000
1000
0100
1000
0000
,
0100
0000
0000
0000
1000
0010
1000
0000
0001
0010
0001
0000
1000
0010
1000
0000
,
0001
0010
0001
0000
1000
0000
0000
0001
0100
0000
0000
0000
0001
0000
0000
1000
,
0100
0000
0000
0000
2000
0000
0000
0000
3001
0010
0001
0000
0100
0001
0100
0000
,
0001
0010
0001
0000
0100
0001
0100
0000
0001
0010
0001
0000
0100
0001
0100
0000
,
0001
0000
0000
0000
1000
0000
0000
1100
0000
0000
0001
0000
0000
0101
0000
0000
,
0010
0000
0000
0100
0000
0000
0220
0000
0000
0000
0000
0000
0330
0000
0000
0000
0000
0000
1000
0000
0000
0000
1000
0000
,
0000
0000
0000
0000
1000
0000
0000
0000
0000
0000
0000
0000
1000
0000
0000
0010
0000
0000
1000
0000
0000
0000
0000
0000
0100
0000
0000
1000
0000
0000
0100
0000
0000
0000
0000
0000
1000
0000
0000
0010
0000
0000
1000
0000
0000
0000
0000
0000
,
0100
1000
0100
0000
1000
0010
1000
0000
0100
1000
0100
0000
1000
0000
0000
0000
,
0100
0001
0100
0000
0100
1000
0100
0000
0100
0001
0100
0000
0100
1000
0100
0000
,
1000
0000
0000
0001
0000
0000
1000
0000
0010
0000
1000
0000
0010
0000
0000
0100
0000
0000
0001
0000
0010
0000
0001
0000
,
0011
0000
0000
0000
0010
0001
0010
0000
0010
1000
0010
0000
0010
0001
0010
0000
,
0010
1000
0010
0000
0010
0001
0010
0000
0010
1000
0010
0000
0000
0000
0000
0000
,
0010
1000
0001
0010
1000
0100
0010
0100
,
1000
0100
0001
0100
0010
0001
1000
0010
,
0001
0010
1000
0100
1000
0010
0001
0100
,
0010
1000
0100
0010
0001
0010
0100
1000
,
0001
0010
1000
0010
0001
0100
0010
0001
,
1000
0100
0010
1000
0010
0001
1001
0110
,
0001
0000
0000
0100
0000
0000
0010
0000
0101
0000
1000
0000
0000
0000
1000
0000
,
0000
1100
0000
0101
0000
1100
0000
0110
,
0001
0000
0000
1000
0000
0000
0100
0000
0011
0000
1000
0000
0000
0000
1000
0000
,
0000
0001
0000
0000
0010
0000
0101
0000
1000
0000
0000
0000
1000
0000
0000
0000
,
1100
0000
0101
0000
1100
0000
0110
0001
,
0000
0011
0000
0000
1000
0000
0000
0000
1010
0000
0100
0000
0110
0000
0000
0000
,
1000
0000
0100
0000
1000
0000
1100
0000
1000
0100
1000
0001
0010
0001
0010
0000
,
0001
0000
1000
0000
0100
0000
0001
0000
0100
1000
0000
1000
0100
0000
1100
0000
,
1000
0000
0001
0000
0100
0000
1000
0000
0100
0001
0000
0001
0100
0000
0001
0000
,
0000
0011
0000
0000
1000
0000
0000
1100
0000
0000
0010
0000
0000
1010
0000
0000
,
0100
0000
0000
0100
0001
0000
1000
0010
0100
0001
0010
0100
1000
0001
0010
0000
,
0001
0000
1000
0000
0010
0000
0001
0000
0010
1000
0000
1000
0010
0000
1010
0000
,
1000
0000
0001
0000
0010
0000
1000
0000
0010
0001
0000
0001
0010
0000
0001
0010
,
0100
0000
1000
0100
0010
0000
0001
0100
0010
0000
1000
0010
0100
0000
0010
0000
,
1000
0100
0001
0010
0001
0100
1000
0001
,
0000
0001
0100
0000
0100
0010
0100
0000
0110
0000
0000
0000
1000
0000
0000
1000
,
0100
0000
0100
0010
0100
0000
0110
0000
0000
0000
0101
1100
1010
0011
0101
0011
,
1010
1100
0000
0000
1000
0100
0010
0001
0100
0010
1000
0000
2000
0000
0000
0100
,
0000
0000
0001
0000
3100
0100
1000
0000
0000
0000
0002
0000
0000
0010
0000
0000
,
1000
0000
0013
0010
0001
0000
0000
0000
0001
0010
0100
1000
0001
0010
0100
1000
,
0001
1000
0001
1000
0100
0010
0100
0010
0001
1000
2002
0000
0000
0000
0000
0000
,
0000
0000
0000
3003
;

//---------------dance-single - ----------------
#NOTEDATA:;
#STEPSTYPE:dance-single;
#DIFFICULTY:Challenge;
#METER:17;
#BPMS:0=165;
#STOPS:4=2.545,9=1.091,14=1.091,19=1.091,34=0.182,34.25=0.182,41=0.182,41.25=0.182,50=0.182,50.5=0.182,51=0.182,51.5=0.182,56=0.182,62.83333=0.18,70.33334=0.182,70.5=0.182,77.33334=0.182,85.5=0.182,92.33334=0.181,99.83334=0.181,100=0.182,106.83334=0.182,115=0.182,121.83334=0.182,126=0.182,126.5=0.182,127=0.182,127.83334=0.544,134.33333=0.182,142=0.366,148.83333=0.18,156.66667=0.364,163.33333=3.091,169=0.727,173=0.909,180.5=0.727,186.5=0.182,187=0.363,191=0.182,191.5=0.182,192=0.182,192.5=0.182,197=1.636,200.5=0.182,201=0.182,201.5=0.182,202=0.182,219=0.182,219.25=0.182,219.5=0.182,219.75=0.182,220=0.182,220.25=0.182,220.5=0.182,241.5=0.182,245=0.182,245.83333=0.182,246=0.182,246.25=0.182,246.5=0.182,246.75=0.182,247=0.182,247.25=0.182,247.5=0.182,249.83333=0.179,252=0.182,252.5=0.182,255=0.182,255.5=0.182,260=0.182,260.25=0.182;
#NOTES:
0000
0000
0000
0000
,
0000
0000
0100
0000
0000
0100
0000
0100
,
0000
0000
0000
0000
0000
0000
0100
0000
0000
0000
0000
0000
0200
0300
0000
0000
0000
0000
0000
0000
0000
0000
0000
0000
0010
0000
0000
0000
0000
0000
0000
0000
0000
0000
0000
0000
0000
0000
0000
0000
0000
0000
0001
0000
0000
0000
0000
0000
,
1000
0000
0000
0000
0000
0000
0001
0000
0000
1000
0000
0000
0000
0000
0000
0001
0000
0000
1000
0000
0000
0000
0000
0000
0200
0300
0000
0000
0000
0000
0000
0000
0000
0000
0000
0000
0210
0000
0000
0000
0000
0000
0000
0000
0000
0000
0000
0000
,
0000
0000
0000
0000
0000
0000
0001
0000
0000
0000
0000
0000
0000
0000
0000
0000
0000
0000
0001
0000
0000
0000
0000
0000
0000
0000
0000
0000
0000
0000
1000
0000
0000
0000
0000
0000
1000
0300
0000
0000
0000
0000
0000
0000
0000
0000
0000
0000
,
0100
0000
1000
0001
0000
0001
0010
0000
0001
1000
0000
1000
0100
0000
0100
0000
,
1001
0000
0100
0010
1000
0001
0010
0100
1000
0100
0010
0001
1000
0010
0100
0000
,
0001
1000
0100
0010
0011
0001
0010
0100
,
1100
0000
0001
0000
0100
0000
0010
0000
1010
0101
1001
0000
1100
0000
0001
0000
,
0100
0010
1010
1000
0001
0100
0101
0010
,
1000
0000
0001
0000
1001
0011
1100
0000
0001
0000
0100
0000
1000
0000
0100
0000
,
0001
0000
0100
0000
1000
0000
0100
0000
0001
0010
0100
0010
1000
0010
0100
0010
,
0001
0100
0010
0100
1000
0100
0010
0100
0001
1000
1010
0001
0101
1000
1100
0010
,
0001
0010
0000
0010
0100
0000
0100
1000
0000
1000
0001
0000
0001
0100
0000
0000
,
0010
0000
0110
0000
0000
0000
1000
0100
0000
0100
1000
0000
0001
0000
0010
0000
,
0000
0000
0000
0000
0000
0000
0000
0000
0000
0000
0000
0000
0001
0000
0000
0000
0000
0000
0000
0000
0000
0000
0000
0000
0100
0000
0000
0000
0000
0000
0000
0000
0000
0000
0000
0000
0000
0000
0000
0000
0000
0000
0000
0000
0000
0000
0000
0000
0001
0000
0000
0000
0000
0000
0000
0000
0000
0000
0000
0000
0100
0000
0000
0000
0000
0000
0000
0000
0000
0000
0000
0000
0001
0000
0000
0000
0000
0000
0000
0000
0000
0000
0000
0000
0100
0000
0000
0000
0000
0000
0000
0000
0000
0000
0000
0000
0001
0000
0000
0000
0000
0000
0000
0000
0000
0000
0000
0000
0000
0000
0000
0000
0000
0000
0000
0000
0000
0000
0000
0000
1000
0000
0000
0000
0000
0000
0000
0000
0000
0000
0000
0000
0000
0000
0000
0000
0200
0000
0300
0000
0000
0000
0000
0000
1000
0000
0000
0000
0000
0000
0000
0000
0000
0000
0000
0000
0000
0000
0000
0000
0000
0000
0000
0000
0000
0000
0000
0000
0010
0000
0000
0000
0000
0000
0000
0000
0000
0000
0000
0000
0000
0000
0000
0000
0000
0000
0000
0000
0000
0000
0000
0000
,
0110
0000
0100
0000
0001
0000
0010
0000
0100
1000
0001
0010
0001
0000
0000
1000
,
0100
0000
0000
0000
0000
0000
0000
0000
0000
0000
0000
0000
0010
0000
0000
0000
0000
0000
0000
0000
0000
0000
0000
0000
0001
0000
0000
0000
0000
0000
0000
0000
0000
0000
0000
0000
0010
0000
0000
0000
0000
0000
0000
0000
0000
0000
0000
0000
0100
0000
0000
0000
0000
0000
0000
0000
0000
0000
0000
0000
0000
0000
0000
0000
0000
0000
0000
0000
0000
0000
0000
0000
1000
0000
0000
0000
0000
0000
0000
0000
0000
0000
0000
0000
0000
0000
0000
0000
0000
0000
0000
0000
0000
0000
0000
0000
0010
0000
0000
0000
0000
0000
0000
0000
0000
0000
0000
0000
0000
0000
0000
0000
0200
0000
0300
0000
0000
0000
0000
0000
0010
0000
0000
0000
0000
0000
0000
0000
0000
0000
0000
0000
0000
0000
0000
0000
0000
0000
0000
0000
0000
0000
0000
0000
1001
0000
0000
0000
0000
0000
0000
0000
0000
0000
0000
0000
0000
0000
0000
0000
0000
0000
0000
0000
0000
0000
0000
0000
0000
0000
0000
0000
0000
0000
0000
0000
0000
0000
0000
0000
0000
0000
0000
0000
0000
0000
0000
0000
0000
0000
0000
0000
,
0000
0000
1000
0000
0100
1000
0100
1000
0100
0000
0000
0100
1000
0000
0001
0000
,
0000
0000
0000
0000
0000
0000
0000
0000
0000
0000
0000
0000
0000
0000
0000
0000
0000
0000
0000
0000
0000
0000
0000
0000
0001
0000
0000
0000
0000
0000
0000
0000
0000
0000
0000
0000
0000
0000
0000
0000
0000
0000
0000
0000
0000
0000
0000
0000
1000
0000
0000
0000
0000
0000
0000
0000
0000
0000
0000
0000
0000
0000
0000
0000
0002
0000
0003
0000
0000
0000
0000
0000
0200
0000
0000
0000
0000
0000
0000
0000
0000
0000
0000
0000
0000
0000
0000
0000
0000
0000
0000
0000
0000
0000
0000
0000
0300
0000
0000
0000
0000
0000
0000
0000
0000
0000
0000
0000
0101
0000
0000
0000
0000
0000
0000
0000
0000
0000
0000
0000
0000
0000
0000
0000
0000
0000
0000
0000
0000
0000
0000
0000
0000
0000
0000
0000
0000
0000
0000
0000
0000
0000
0000
0000
0200
0000
0000
0000
0000
0000
0000
0000
0000
0000
0000
0000
0000
0000
0000
0000
0000
0000
0000
0000
0000
0000
0000
0000
0300
0000
0000
0000
0000
0000
0000
0000
0000
0000
0000
0000
1100
0000
0000
0000
0000
0000
0000
0000
0000
0000
0000
0000
,
0000
0100
0010
0120
0000
1000
0000
0001
,
0000
0000
1000
0000
0000
0000
0031
0001
1000
0000
0000
0000
1000
0010
0000
0001
,
0010
0000
1000
0000
0001
0000
0000
0100
0001
0000
1000
0100
0010
0001
0010
0000
,
0100
0000
0000
0000
0000
0000
0000
0000
0000
0000
0000
0000
0000
0000
0000
0000
0020
0000
0030
0000
0000
0000
0000
0000
0001
0000
0000
0000
0000
0000
0000
0000
0000
0000
0000
0000
0000
0000
0000
0000
0000
0000
0000
0000
0000
0000
0000
0000
0000
0000
0000
0000
0000
0000
0000
0000
0000
0000
0000
0000
0001
0000
0000
0000
0000
0000
0000
0000
0000
0000
0000
0000
0100
0000
0000
0000
0000
0000
0000
0000
0000
0000
0000
0000
0000
0000
0000
0000
0000
0000
0000
0000
0000
0000
0000
0000
0010
0000
0000
0000
0000
0000
0000
0000
0000
0000
0000
0000
0000
0000
0000
0000
0000
0000
0000
0000
0000
0000
0000
0000
1010
0000
0000
0000
0000
0000
0000
0000
0000
0000
0000
0000
0000
0000
0000
0000
0000
0000
0000
0000
0000
0000
0000
0000
1010
0000
0000
0000
0000
0000
0000
0000
0000
0000
0000
0000
0000
0000
0000
0000
0000
0000
0000
0000
0000
0000
0000
0000
0101
0000
0000
0000
0000
0000
0000
0000
0000
0000
0000
0000
0000
0000
0000
0000
0000
0000
0000
0000
0000
0000
0000
0000
,
1010
0000
0000
0000
0000
0000
0000
0000
0000
0000
0000
0000
0000
0000
0000
0000
0000
0000
0000
0000
0000
0000
0000
0000
0100
0000
0000
0000
0000
0000
0000
0000
0000
0000
0000
0000
0000
0000
0000
0000
0000
0000
0000
0000
0000
0000
0000
0000
0000
0000
0000
0000
0000
0000
0000
0000
0000
0000
0000
0000
0001
0000
0000
0000
0000
0000
0000
0000
0000
0000
0000
0000
0100
0000
0000
0000
0000
0000
0000
0000
0000
0000
0000
0000
0000
0000
0000
0000
0000
0000
0000
0000
0000
0000
0000
0000
0101
0000
0000
0000
0000
0000
0000
0000
0000
0000
0000
0000
0000
0000
0000
0000
0000
0000
0000
0000
0000
0000
0000
0000
0010
0000
0000
0000
0000
0000
0000
0000
0000
0000
0000
0000
0000
0000
0000
0000
0000
0000
0000
0000
0000
0000
0000
0000
1010
0000
0000
0000
0000
0000
0000
0000
0000
0000
0000
0000
0000
0000
0000
0000
0000
0000
0000
0000
0000
0000
0000
0000
0100
0000
0000
0000
0000
0000
0000
0000
0000
0000
0000
0000
0000
0000
0000
0000
0020
0000
0030
0000
0000
0000
0000
0000
,
1000
0000
1100
0000
0000
0000
1000
0100
0000
1000
0100
1000
0000
0001
0200
0000
,
0000
0000
0000
0000
0000
0000
0000
0000
0000
0000
0000
0000
0000
0000
0000
0000
0000
0000
0000
0000
0000
0000
0000
0000
0310
0000
0000
0000
0000
0000
0000
0000
0000
0000
0000
0000
0100
0000
0000
0000
0000
0000
0000
0000
0000
0000
0000
0000
0010
0000
0000
0000
0000
0000
0000
0000
0000
0000
0000
0000
0000
0000
0000
0000
0000
0000
0000
0000
0000
0000
0000
0000
1000
0000
0000
0000
0000
0000
0000
0000
0000
0000
0000
0000
0001
0000
0000
0000
0000
0000
0000
0000
0000
0000
0000
0000
1000
0000
0000
0000
0000
0000
0000
0000
0000
0000
0000
0000
0001
0000
0000
0000
0000
0000
0000
0000
0000
0000
0000
0000
1000
0000
0000
0000
0000
0000
0000
0000
0000
0000
0000
0000
0000
0000
0000
0000
0020
0000
0030
0000
0000
0000
0000
0000
0100
0000
0000
0000
0000
0000
0000
0000
0000
0000
0000
0000
0000
0000
0000
0000
0000
0000
0000
0000
0000
0000
0000
0000
0000
0000
0000
0000
0000
0000
0000
0000
0000
0000
0000
0000
0000
0000
0000
0000
0000
0000
0000
0000
0000
0000
0000
0000
,
1010
0000
0010
0001
0000
0100
0010
0100
,
0001
1000
0110
0000
0100
0000
0010
0100
0010
0000
0010
0000
0110
0000
0001
0010
,
0100
0000
0001
0100
0010
0000
0001
0100
0010
0000
0001
0010
0100
0000
0001
0010
,
0100
0000
0000
0000
0000
0000
0000
0000
0000
0000
0000
0000
0000
0000
0000
0000
0000
0000
0000
0000
0000
0000
0000
0000
0001
0000
0000
0000
0000
0000
0000
0000
0000
0000
0000
0000
0100
0000
0000
0000
0000
0000
0000
0000
0000
0000
0000
0000
0010
0000
0000
0000
0000
0000
0000
0000
0000
0000
0000
0000
0000
0000
0000
0000
0000
0000
0000
0000
0000
0000
0000
0000
0001
0000
0000
0000
0000
0000
0000
0000
0000
0000
0000
0000
0000
0000
0000
0000
0200
0000
0300
0000
0000
0000
0000
0000
1000
0000
0000
0000
0000
0000
0000
0000
0000
0000
0000
0000
0010
0000
0000
0000
0000
0000
0000
0000
0000
0000
0000
0000
0100
0000
0000
0000
0000
0000
0000
0000
0000
0000
0000
0000
0000
0000
0000
0000
0000
0000
0000
0000
0000
0000
0000
0000
1000
0000
0000
0000
0000
0000
0000
0000
0000
0000
0000
0000
0100
0000
0000
0000
0000
0000
0000
0000
0000
0000
0000
0000
0010
0000
0000
0000
0000
0000
0000
0000
0000
0000
0000
0000
0000
0000
0000
0000
0000
0000
0000
0000
0000
0000
0000
0000
,
1000
0000
0000
0000
0000
0000
0000
0000
0000
0000
0000
0000
0100
0000
0000
0000
0000
0000
0000
0000
0000
0000
0000
0000
0010
0000
0000
0000
0000
0000
0000
0000
0000
0000
0000
0000
0000
0000
0000
0000
0000
0000
0000
0000
0000
0000
0000
0000
1000
0000
0000
0000
0000
0000
0000
0000
0000
0000
0000
0000
0010
0000
0000
0000
0000
0000
0000
0000
0000
0000
0000
0000
0100
0000
0000
0000
0000
0000
0000
0000
0000
0000
0000
0000
0000
0000
0000
0000
0000
0000
0000
0000
0000
0000
0000
0000
1000
0000
0000
0000
0000
0000
0000
0000
0000
0000
0000
0000
1000
0000
0000
0000
0000
0000
0000
0000
0000
0000
0000
0000
0100
0000
0000
0000
0000
0000
0000
0000
0000
0000
0000
0000
0100
0000
0000
0000
0000
0000
0000
0000
0000
0000
0000
0000
0001
0000
0000
0000
0000
0000
0000
0000
0000
0000
0000
0000
0001
0000
0000
0000
0000
0000
0000
0000
0000
0000
0000
0000
0010
0000
0000
0000
0000
0000
0000
0000
0000
0000
0000
0000
0000
0000
0000
0000
0002
0000
0003
0000
0000
0000
0000
0000
,
1000
0100
0010
0000
1000
0010
0100
0000
1000
0010
0100
0000
1000
0100
0010
0000
,
1000
0000
0000
0000
0000
0000
0000
0000
0000
0000
0000
0000
0100
0000
0000
0000
0000
0000
0000
0000
0000
0000
0000
0000
0010
0000
0000
0000
0000
0000
0000
0000
0000
0000
0000
0000
0000
0000
0000
0000
0000
0000
0000
0000
0000
0000
0000
0000
1000
0000
0000
0000
0000
0000
0000
0000
0000
0000
0000
0000
0010
0000
0000
0000
0000
0000
0000
0000
0000
0000
0000
0000
0100
0000
0000
0000
0000
0000
0000
0000
0000
0000
0000
0000
0000
0000
0000
0000
0000
0000
0000
0000
0000
0000
0000
0000
1000
0000
0000
0000
0000
0000
0000
0000
0000
0000
0000
0000
0000
0000
0000
0000
0200
0000
0300
0000
0000
0000
0000
0000
0020
0000
0000
0000
0000
0000
0000
0000
0000
0000
0000
0000
0000
0000
0000
0000
0000
0000
0000
0000
0000
0000
0000
0000
0030
0000
0000
0000
0000
0000
0000
0000
0000
0000
0000
0000
1010
0000
0000
0000
0000
0000
0000
0000
0000
0000
0000
0000
0000
0000
0000
0000
0000
0000
0000
0000
0000
0000
0000
0000
0000
0000
0000
0000
0000
0000
0000
0000
0000
0000
0000
0000
,
0020
0000
0030
0011
0000
0000
0010
0000
0100
0000
0220
0000
0000
0000
0330
0000
,
0000
0000
0000
0000
0000
0000
0100
0000
0000
0000
0000
0000
0000
0000
0100
0000
0000
0000
0000
0000
0000
0000
0100
0000
0000
0000
0000
0000
0000
0000
0001
0000
0000
0100
0000
0000
0010
0000
0000
0000
0000
0000
0001
0000
0000
0010
0000
0000
,
0100
0000
0001
0010
0100
0000
0001
0100
0010
0000
0001
0100
0010
0000
0001
0010
,
0100
0000
0000
0000
0000
0000
0000
0000
0000
0000
0000
0000
0000
0000
0000
0000
0000
0000
0000
0000
0000
0000
0000
0000
0001
0000
0000
0000
0000
0000
0000
0000
0000
0000
0000
0000
0000
0000
0000
0000
0020
0000
0030
0000
0000
0000
0000
0000
0001
0000
0000
0000
0000
0000
0000
0000
0000
0000
0000
0000
0010
0000
0000
0000
0000
0000
0000
0000
0000
0000
0000
0000
1000
0000
0000
0000
0000
0000
0000
0000
0000
0000
0000
0000
0000
0000
0000
0000
0000
0000
0000
0000
0000
0000
0000
0000
0001
0000
0000
0000
0000
0000
0000
0000
0000
0000
0000
0000
0100
0000
0000
0000
0000
0000
0000
0000
0000
0000
0000
0000
1000
0000
0000
0000
0000
0000
0000
0000
0000
0000
0000
0000
0000
0000
0000
0000
0000
0000
0000
0000
0000
0000
0000
0000
0001
0000
0000
0000
0000
0000
0000
0000
0000
0000
0000
0000
0010
0000
0000
0000
0000
0000
0000
0000
0000
0000
0000
0000
1000
0000
0000
0000
0000
0000
0000
0000
0000
0000
0000
0000
0000
0000
0000
0000
0000
0000
0000
0000
0000
0000
0000
0000
,
0001
0000
0000
0100
0000
0000
1000
0000
0000
0000
0000
0000
0001
0000
0000
0000
0000
0000
1001
0000
0000
0000
0000
0000
1000
0000
0000
0000
0100
0000
0000
0000
1000
0000
0000
0000
0100
0000
0000
0000
0000
0000
0010
0000
0000
0000
0000
0000
,
0001
0000
0000
0000
0200
0300
0000
0000
0001
0000
0000
0000
1001
0000
0000
0000
0000
0000
0000
0000
0000
0000
0000
0000
1000
0000
0000
0010
0000
0000
0001
0000
0000
0000
0000
0000
1000
0000
0000
0100
0000
0000
0001
0000
0000
0000
0000
0000
,
1000
0000
0000
0000
0000
0000
0000
0000
0000
0000
0000
0000
0010
0000
0000
0000
0000
0000
0000
0000
0000
0000
0000
0000
0001
0000
0000
0000
0000
0000
0000
0000
0000
0000
0000
0000
0000
0000
0000
0000
0000
0000
0000
0000
0000
0000
0000
0000
1000
0000
0000
0000
0000
0000
0000
0000
0000
0000
0000
0000
0100
0000
0000
0000
0000
0000
0000
0000
0000
0000
0000
0000
0001
0000
0000
0000
0000
0000
0000
0000
0000
0000
0000
0000
0000
0000
0000
0000
0000
0000
0000
0000
0000
0000
0000
0000
1000
0000
0000
0000
0000
0000
0000
0000
0000
0000
0000
0000
0010
0000
0000
0000
0000
0000
0000
0000
0000
0000
0000
0000
0001
0000
0000
0000
0000
0000
0000
0000
0000
0000
0000
0000
0000
0000
0000
0000
0000
0000
0000
0000
0000
0000
0000
0000
1000
0000
0000
0000
0000
0000
0000
0000
0000
0000
0000
0000
0000
0000
0000
0000
0200
0000
0300
0000
0000
0000
0000
0000
0010
0000
0000
0000
0000
0000
0000
0000
0000
0000
0000
0000
1000
0000
0000
0000
0000
0000
0000
0000
0000
0000
0000
0000
,
0010
0000
0100
0000
0100
0000
0010
0001
0010
0000
0100
0000
0100
0000
0010
1000
,
0010
0000
0100
0000
0110
0000
0100
0001
0100
0000
0010
0000
0010
0000
0100
0000
,
1100
0000
0010
0000
0011
0000
1000
0000
0001
0100
1000
0000
0001
0000
1000
0000
,
0001
0010
1000
0000
0001
0000
0100
0000
0010
1000
0100
0000
0010
0001
0100
0000
,
0010
1000
0100
0000
0001
0000
0100
0000
1000
0010
1000
0000
0010
0000
0001
0000
,
0010
0100
0010
0000
1000
0000
0010
0000
0001
0000
1001
0000
0110
0000
0010
0000
,
0000
0001
1000
0000
0010
0000
0100
0000
0110
0000
0000
0000
1010
0000
0011
0000
,
0101
0000
1100
0000
1000
0000
1000
0000
0000
0010
1000
0000
0100
0000
0010
0000
,
0010
0000
0000
0000
0010
0000
0000
0001
1000
0000
0010
0100
0010
0000
1000
0000
,
0001
0000
0110
0000
1010
0000
0101
0000
0011
0000
1100
0000
0001
0000
0100
1000
,
0100
0000
0001
0000
0010
1000
0010
0000
0001
0000
1001
0000
0001
0100
0010
0000
,
1000
0100
0010
0000
1001
0000
0001
0010
0100
1000
0100
0010
0001
0000
0010
0000
,
0011
0000
0001
0000
1000
0000
0001
0010
0000
0100
1000
0100
1000
0000
0100
0000
,
1100
0000
0100
0000
1000
0000
0001
0100
0000
0010
0100
0010
0100
0110
1000
1100
,
0001
0011
0100
0100
1000
0001
0100
0010
1000
0001
0010
0100
1000
0100
0010
0000
,
0001
0000
1010
0000
1000
0000
0010
0000
0100
0010
0000
0010
1000
0010
1000
0000
,
0001
0000
0101
0000
0100
0000
0010
0000
0010
0100
0000
0100
0001
0100
0010
0100
,
0010
0100
1000
0100
1000
0100
0001
0100
0001
0100
1000
0100
1000
0100
0010
1000
,
0100
0010
0001
1000
0100
0001
0100
1000
0010
0001
1000
0100
0001
1000
0010
0000
,
0000
0010
1000
0000
0100
0000
0011
0100
0010
0000
0000
0000
0010
0000
0000
0001
,
0100
0000
0000
0000
0000
0000
0000
0000
0000
0000
0000
0000
0000
0000
0000
0000
0000
0000
0000
0000
0000
0000
0000
0000
0010
0000
0000
0000
0000
0000
0000
0000
0000
0000
0000
0000
0000
0000
0000
0000
0000
0000
0000
0000
0000
0000
0000
0000
1001
0000
0000
0000
0000
0000
0000
0000
0000
0000
0000
0000
0010
0000
0000
0000
0000
0000
0000
0000
0000
0000
0000
0000
0100
0000
0000
0000
0000
0000
0000
0000
0000
0000
0000
0000
0000
0000
0000
0000
0020
0000
0030
0000
0000
0000
0000
0000
0101
0000
0000
0000
0000
0000
0000
0000
0000
0000
0000
0000
1100
0000
0000
0000
0000
0000
0000
0000
0000
0000
0000
0000
1010
0000
0000
0000
0000
0000
0000
0000
0000
0000
0000
0000
0011
0000
0000
0000
0000
0000
0000
0000
0000
0000
0000
0000
0110
0000
0000
0000
0000
0000
0000
0000
0000
0000
0000
0000
1100
0000
0000
0000
0000
0000
0000
0000
0000
0000
0000
0000
0101
0000
0000
0000
0000
0000
0000
0000
0000
0000
0000
0000
1000
0000
0000
0000
0000
0000
0000
0000
0000
0000
0000
0000
,
0100
0000
0000
0000
0000
0000
0000
0000
0000
0000
0000
0000
1000
0000
0000
0000
0000
0000
0000
0000
0000
0000
0000
0000
0001
0000
0000
0000
0000
0000
0000
0000
0000
0000
0000
0000
0100
0000
0000
0000
0000
0000
0000
0000
0000
0000
0000
0000
1000
0000
0000
0000
0000
0000
0000
0000
0000
0000
0000
0000
0001
0000
0000
0000
0000
0000
0000
0000
0000
0000
0000
0000
0010
0000
0000
0000
0000
0000
0000
0000
0000
0000
0000
0000
0000
0000
0000
0000
2000
0000
3000
0000
0000
0000
0000
0000
0001
0000
0000
0000
0000
0000
0000
0000
0000
0000
0000
0000
0010
0000
0000
0000
0000
0000
0000
0000
0000
0000
0000
0000
1000
0000
0000
0000
0000
0000
0000
0000
0000
0000
0000
0000
0010
0000
0000
0000
0000
0000
0000
0000
0000
0000
0000
0000
0001
0000
0000
0000
0000
0000
0000
0000
0000
0000
0000
0000
0000
0000
0000
0000
0000
0000
0000
0000
0000
0000
0000
0000
0010
0000
0000
0000
0000
0000
0000
0000
0000
0000
0000
0000
0000
0000
0000
0000
0000
0000
0000
0000
0000
0000
0000
0000
,
0100
0100
1000
0000
1000
0100
0001
0100
1000
0100
0000
0100
0010
0010
0001
1000
,
0001
0000
0000
0010
0000
0000
0100
0000
0000
0010
0000
0000
0100
0000
0000
1000
0000
0000
0001
0000
0000
1000
0000
0000
0001
0000
0000
0010
0000
0000
0100
0000
0000
1000
0000
0000
0001
0000
1000
0000
0001
0000
1000
0000
0001
0000
1000
0000
,
0001
1000
2002
0000
0000
0000
0000
0000
0000
0000
0000
0000
0000
0000
0000
0000
,
0000
3003
0000
0000
;

//---------------dance-double - ----------------
#NOTEDATA:;
#STEPSTYPE:dance-double;
#DIFFICULTY:Easy;
#METER:8;
#NOTES:
00000000
00000000
00000000
00000000
,
00000000
00000000
00000000
00000000
,
00000000
00000000
00000000
00000000
,
00000001
00000000
00000000
00000100
00000000
00000000
00001000
00000000
,
00011000
00000000
10000000
00000000
00000000
01000000
00000000
00000000
,
00010000
00000000
00011000
00000000
00000100
00000000
00000000
00000010
,
00000000
00001000
00011000
00100000
,
00000000
10000000
00000000
00000000
01000000
00000000
00010000
00000000
,
00001000
00011000
00000000
00001000
,
00010000
00001000
00010000
00001000
,
00000100
00000001
00000000
00000001
,
00000010
00000001
00000010
00000001
,
00000010
00001000
00000000
00011000
,
00000000
00110000
00000000
10100000
,
00000000
11000000
00000000
02000000
,
03200000
00302000
00000000
00000000
,
00003000
00000000
00000110
00000000
,
00000001
00000010
00000100
00000010
,
00000000
00000001
00000001
00000100
,
00000100
00001000
00010000
00001000
,
00000000
00000000
00011000
00000000
,
00100000
00010000
10000000
01000000
,
00000000
00000000
20000000
00000000
00000000
30200000
00000000
00000000
,
00310000
00200000
00000000
01000000
,
01300000
00000000
10010000
00000000
,
01000000
00010000
00010000
00010000
,
00000000
00000000
00001000
00000000
00000000
00000000
00000010
00000100
,
00000010
00000100
00001000
00000010
,
00000000
00000000
00001001
00000000
,
00000100
00000010
00001000
00000010
,
00000000
00000000
00000000
00000000
00000001
00000000
00000000
00001000
,
00000000
00000000
00010000
00000000
00000000
10000000
00000000
00000000
,
00000000
00000000
10010000
01000000
,
00010000
00001000
00010000
01000000
,
00000000
00010000
00001000
00000010
,
00001000
00020000
00030000
00002000
,
00003000
00000000
00011000
00000000
,
00001000
00000100
00000001
00000100
,
00000000
00000000
00000002
00000000
00000000
00002003
00000000
00000000
,
00003100
00000020
00000000
00000100
,
00000130
00000000
00000001
00000100
,
00001000
00000100
00000001
00000000
,
00000100
00001000
00010000
01000000
,
20000000
30000000
00020000
00030000
,
10010000
01000000
00100000
10000000
,
00100000
01000000
00100000
00000000
,
00000100
00001000
00010000
00100000
,
00010000
00001000
00000010
00001000
,
00010000
00000000
01000000
01000000
00000000
10000000
00000000
00100000
,
00000000
00010000
00000000
00001000
00000000
00000100
00000000
00000001
,
00000000
00000010
00000000
00000100
00000000
00001000
00000000
00000010
,
00000000
00001000
00000000
00000001
00000000
00000100
00001000
00000000
,
00010000
00100000
10000000
01000000
,
00100000
00010000
00100000
00001000
,
00010000
00000000
00000100
00000000
00001000
00000000
00000010
00000010
,
00000000
00000010
00000000
00001000
00000000
00000100
00000000
00000001
,
00000000
00000100
00000000
00001000
00000000
00010000
00000000
00011000
,
00000000
00000000
00101000
00000000
00000000
01100000
00000000
00010000
,
00000000
10000000
00000000
10010000
00000000
00000000
00000000
00010000
,
00000000
00000000
10000000
00000000
00000000
00000000
01000000
00000000
00000000
01000000
00000000
00000000
00000000
00000000
00010000
00000000
,
00000000
00000000
00001000
00000000
00000000
00000000
00000010
00000000
00000000
00000010
00000000
00000000
00000000
00000000
00001000
00000000
,
00000000
00000000
00010000
00000000
00000000
00100000
00000000
00000000
,
00010000
00000000
00000000
00001000
00000000
00000100
00000000
00000010
,
00000000
00000000
00001000
00000000
00000000
00000000
00010000
00000000
00000000
00010000
00000000
00000000
00000000
00000000
01000000
00000000
,
00000000
00000000
00100000
00000000
00000000
00000000
00010000
00000000
00000000
00010000
00000000
00000000
00000000
00000000
00001000
00000000
,
00000010
00000001
00000000
00000001
00000100
00001000
00000000
00010000
,
00000000
00100000
00000000
10000000
00000000
00000000
00000000
01000000
,
00000000
01000000
00000000
00000000
01000000
00000000
00000000
00000000
00110000
00000000
00000000
00000000
00001000
00000000
00000000
00001000
,
00000000
00001000
00000000
00000110
00000000
00000001
00001000
00010000
,
10000000
00010000
00001000
00010000
,
01010000
00000000
11000000
01000000
00000000
00010000
00000000
00001000
,
00000000
00001100
00000001
00000000
00000020
00000000
00000000
00000000
,
00000230
00000000
00000000
00000000
00000000
00000000
00000000
00000000
00001300
00010000
00022000
00000000
00000000
00000000
00000000
00000000
,
00000000
00000000
00000000
00033000
;

//---------------dance-double - ----------------
#NOTEDATA:;
#STEPSTYPE:dance-double;
#DIFFICULTY:Medium;
#METER:12;
#NOTES:
00000000
00000000
00000000
00000000
,
00000000
00000000
00000000
00000000
,
00000000
00000000
00000000
00000000
,
00001000
00000000
00000000
00001000
00000000
00001000
00000000
00001000
,
00000000
00000000
00010000
00000000
00000000
00010000
00000000
00010000
,
00000000
00010000
00000000
00000000
00001000
00000000
00000000
00000010
,
00000000
00000001
00000000
00000100
00000100
00000000
00000010
00001000
,
00000100
00000000
00000100
00010000
00001000
00000000
00001000
00010000
,
01000000
10000000
00010000
00000000
10010000
00000000
10000000
00100000
,
10000000
00100000
01000000
00010000
01000000
00001000
00010000
00001000
,
00000010
00000000
00000220
00000000
00000330
00000000
00000001
00000100
,
00000001
00000100
00000010
00001000
00000010
00000100
00000001
00000100
,
00001000
00000000
00022000
00000000
00033000
00000000
00010000
00100000
,
10000000
00000000
10000000
01000000
00010000
00000000
00001000
00000010
,
00000001
00000000
00000001
00000100
00001000
00000000
00010000
01000000
,
10000000
00100000
20000000
00000000
00000000
00000000
00000000
00000000
,
00000000
00000000
30000000
00000000
01100000
00000000
00000000
00100000
,
00010000
00000000
00001000
00000100
00001000
00000100
00001000
00000000
,
00000000
00000000
00000100
00000000
00000000
00000000
00000001
00000001
,
00000001
00000011
00000110
00001001
,
00000000
00000000
00000110
00000000
,
00000100
00000000
00001000
00010000
00100000
00010000
00001000
00000000
,
00000000
00000000
00000020
00000000
00000000
00000032
00000000
00000000
,
00000103
00002000
00000000
00010000
,
00013000
00000000
00011000
00000000
,
00010000
00000000
01000000
10000000
00100000
10000000
01000000
00000000
,
00000000
00000000
00010000
00000000
10000000
00000000
00100000
00010000
,
00100000
00000000
00001000
00010000
00000100
00001000
00000010
00000000
,
00000001
00000000
00000000
00000000
00000011
00000000
00001000
00001000
,
00000100
00000000
00000010
00000010
00001000
00000000
00010000
00001000
,
00011000
00000000
00000000
00000000
00100000
00000000
10000000
01000000
,
00000000
00010000
01000000
10000000
00100000
00010000
00001000
00000100
,
00000001
00000000
00000000
00000000
00000010
00000100
00000001
00000010
,
00000100
00001000
00000010
00000100
00001000
00010000
00001000
00100000
,
00010000
00000000
10000000
00100000
01000000
00010000
00100000
01000000
,
00010000
00001000
00020000
00000000
00000000
00000000
00032000
00000000
,
00000000
00000000
00003000
00000000
00011000
00000000
00010000
00100000
,
10000000
00010000
01000000
00100000
10000000
01000000
00100000
00010000
,
00100000
00000000
00000000
00000000
00001000
00000000
00000000
00000010
00000000
00000000
00001000
00000000
00000000
00010000
00000000
00000000
,
00100000
00000000
00000000
00010000
00000000
00000000
00002000
00000000
00000000
00000000
00000000
00000000
00000000
00000000
00000000
00000000
00000000
00000000
00010000
00000000
00000000
00000000
00010000
00000000
,
00000000
00000000
00013000
00000000
00000000
00000000
00001000
00000000
00000000
00000000
00000000
00000000
00000010
00000000
00000000
00000100
00000000
00000000
00000001
00000000
00000000
00000010
00000000
00000000
,
00000100
00001000
00000010
00000100
00000001
00000010
00000100
00000000
,
00001000
00010000
01000000
00000000
01000000
00010000
00001000
00000000
,
00010000
00100000
10000000
00000000
10000000
00100000
00010000
00000000
,
01100000
00000000
00010000
00100000
01000000
10000000
00100000
01000000
,
00010000
00100000
01000000
10000000
00100000
01000000
00000000
00000000
,
00001000
00000000
00000001
00000100
00001000
00000000
00000100
00000001
,
00000010
00000000
00000001
00001000
00000010
00000000
00010000
00001000
,
01000000
00000000
00100000
01000000
00010000
10000000
00000000
00100000
,
10000000
01000000
00000000
00100000
00010000
01000000
00000000
00100000
,
00010000
01000000
10000000
01000000
00000000
00010000
00100000
01000000
,
00000000
10000000
01000000
00010000
00000000
00001000
00010000
00001000
,
00010000
00000000
00000000
00010000
00000000
00000000
00001000
00000000
00000010
00000000
00001000
00000000
00010000
00000000
00000000
00000000
,
00001000
00000000
00000000
00001000
00000000
00000000
00010000
00000000
00100000
00000000
00010000
00000000
00001000
00000000
00000000
00000000
,
00010000
00000000
00000000
00010000
00000000
00000000
00100000
00000000
10000000
00000000
10000000
00000000
00000000
00000000
10000000
00000000
,
00000000
10000000
00000000
00000000
00100000
00000000
01000000
00000000
00010000
00000000
00100000
00000000
01000000
00000000
00000000
00000000
,
00010000
00000000
00001000
00000000
00000010
00000000
00000001
00000010
,
00000000
00000001
00000100
00000000
00000010
00000100
00001000
00011000
,
00000000
00110000
00000000
10100000
00000000
11000000
00000000
10000000
,
00100000
00000000
10000000
00000000
00100000
00000000
00010000
00000000
00000000
00010000
00000000
00000000
00000000
00000000
00001000
00000000
,
00000100
00000000
00001000
00000000
00000100
00000000
00000001
00000000
00000000
00000100
00000000
00000000
00000000
00000000
00001000
00000000
,
00000000
00010000
00000000
00000000
01000000
00000000
00000000
00010000
00000000
00000000
00001000
00000000
00000000
00010000
00000000
00000000
,
00100000
00000000
00000000
00010000
00000000
00000000
00001000
00000000
00000010
00000000
00000001
00000000
00000000
00000000
00000001
00000000
,
00000100
00000000
00000001
00000000
00000100
00000000
00001000
00000000
00000000
00001000
00000000
00000000
00000000
00000000
00010000
00000000
,
00100000
00000000
00010000
00000000
00100000
00000000
10000000
00000000
00000000
00100000
00000000
00000000
00000000
00000000
00010000
00000000
,
00000000
00001000
00000000
00000000
00000010
00000000
00000000
00001000
00000000
00000000
00010000
00000000
00000000
00001000
00000100
00000000
,
00001000
00010000
00100000
10000000
00100000
00010000
00000000
00001000
,
00000100
00000010
00000000
00000110
00000110
00000000
00001000
00010000
,
01000000
00000000
00000000
00000000
01100000
00000000
00000000
00000000
01100000
00000000
10000000
10000000
01000000
01000000
00100000
00100000
,
00010000
00010000
00000000
00000000
00002000
00000000
00000000
00000000
00023000
00000000
00000000
00000000
01030000
00000000
00100000
00000000
,
10000000
00000000
11000000
00010000
00000000
00001000
00000010
00000100
,
00000000
00000110
00001000
00000000
00000002
00000000
00000000
00000000
,
00002003
00000000
00000000
00000000
00000000
00000000
00000000
00000000
00013000
00010000
00020000
00000000
00000000
00000000
00000000
00000000
,
00000000
00000000
00000000
00030000
;

//---------------dance-double - ----------------
#NOTEDATA:;
#STEPSTYPE:dance-double;
#DIFFICULTY:Hard;
#METER:15;
#NOTES:
00000000
00000000
00000000
00000000
,
00000000
00000000
00000000
00000000
,
00000000
00000000
00000000
00000000
,
00000001
00000000
00000000
00000001
00000000
00000001
00000000
00001000
,
00001000
00000000
00000000
00000000
00010000
00000000
00000000
00000000
00000000
00000000
00010000
00000000
10000000
00000000
00000000
10000000
,
00000000
10000000
10000000
00000000
00010000
00000000
00000000
00010000
,
00000000
00010000
00000000
00001000
00001000
00000000
00010000
00001000
,
00010000
00000000
00001000
00000000
00100000
00000000
00010000
00000000
00100000
00000000
00010000
00000000
10000000
00000000
10000000
01000000
,
00000000
01000000
00010000
00000000
00010000
00001000
00000000
00001000
00000010
00000000
00000000
00000000
00000001
00000000
00000100
00000000
,
00001000
00000100
00000001
00000010
00001000
00000010
00000001
00000100
,
00001000
00000000
00000000
00000000
00011000
00000000
00000000
00011000
00000000
00000000
00000000
00000000
00010000
00000000
00100000
00000000
,
10000000
01000000
00010000
01000000
10000000
00100000
00010000
00100000
,
10000000
00000000
00000000
00000000
11000000
00000000
00000000
11000000
00000000
00000000
00000000
00000000
10000000
00000000
10000000
00000000
,
01000000
00000000
01000000
00000000
00100000
00000000
00100000
00000000
00010000
00000000
00010000
00000000
01000000
00010000
01000000
00000000
,
00001000
01000000
00001000
00000000
00010000
00001000
00010000
00000000
00000100
00010000
00000100
00000000
00000010
00000001
00000010
00000000
,
00000100
00001000
00000100
00000000
00020000
00000000
00000000
02030000
00000000
00000000
23000000
00000000
00000000
32000000
00000000
00000000
,
03010000
00000000
00000000
00000000
00000000
00000000
00000000
00000000
00011000
00000000
00000000
00000000
00010000
00100000
00000000
00100000
,
01000000
00000000
00000000
00000000
00010000
00000000
01000000
00000000
00100000
00000000
10000000
01000000
00100000
00000000
00010000
00000000
,
00110000
00000000
00100000
01000000
00010000
00001000
00010000
00010000
,
00001000
00000000
00001000
00000000
00010000
00000000
01000000
00010000
01000000
00000000
00010000
00001000
00010000
00000000
00001000
00000000
,
00001000
00000000
00000100
00000010
00000110
00000000
00000000
00000001
,
00000100
00000001
00000100
00000001
00000100
00000000
00000000
00000100
00000010
00000000
00001000
00000000
00000001
00000000
00000001
00000000
,
00000001
00000000
00000000
00000000
00000100
00000000
00000000
00001100
00000000
00000000
00010000
00000000
00000000
00110000
00000000
00000000
,
10000000
01000000
21000000
00000000
00010000
00000000
00100000
00000000
,
31000000
00000000
00000000
00000000
00000000
00000000
00000000
00000000
10010000
00000000
00000000
00000000
10000000
00100000
00000000
00100000
,
01000000
00000000
00000000
00000000
00010000
00000000
01000000
00000000
00100000
00000000
10000000
00010000
00100000
00000000
00001000
00000000
,
00011000
00000000
00010000
00000010
00001000
00000010
00010000
00001000
,
00001000
00000000
00010000
00000000
00001000
00000000
00010000
00000100
00010000
00000000
00000100
00001000
00000100
00000000
00010000
00000000
,
00001000
00000000
00000000
00000000
00010000
00000000
01000000
00000000
01100000
00000000
00000000
00000000
10000000
00100000
00000000
10000000
,
00100000
10000000
00000000
00100000
01000000
00000000
00000000
01000000
00010000
00000000
10000000
00000000
00010000
00000000
00010000
00000000
,
00010000
00000000
01000000
00000000
01100000
00000000
00100000
10000000
,
00000000
00000000
10000000
00000000
01000000
00000000
00010000
00000000
00001000
00010000
00001000
00000000
00011000
00000000
00010000
00000000
,
00011000
00000000
00000000
00000000
00000000
00000000
00000000
00000000
00000010
00010000
00000010
00000000
00010000
00001000
00010000
00000000
,
00000010
00010000
00000010
00000000
00010000
00001000
00010000
00000000
00000010
00010000
00000010
00000000
00010000
00001000
00010000
00000000
,
00001000
00000000
00000000
00000000
00100000
00001000
00100000
00000000
00001000
00010000
00001000
00000000
00100000
00001000
00100000
00000000
,
00001000
00010000
00001000
00000000
00010000
00000000
00000000
00010000
00100000
00000000
00000000
00000000
10000000
00000000
00000000
10000000
,
01000000
00000000
00000000
01000000
00010000
00000000
00000000
00000000
00011000
00000000
00000000
00000000
01000000
00001000
01000000
00000000
,
00001000
00010000
00001000
00000000
00010000
00000100
00010000
00000000
00001000
00010000
00001000
00000000
01000000
00001000
01000000
00000000
,
00001000
00000000
00000000
00000000
00010000
00000000
00000000
00001010
00000000
00000000
00000001
00000000
00000000
00000110
00000000
00000000
,
00000100
00000000
00000000
00000010
00000000
00000000
00000220
00000000
00000000
00000000
00000000
00000000
00000330
00000000
00000000
00000000
00000000
00000000
00001000
00000000
00000000
00000000
00001000
00000000
,
00000000
00000000
00000000
00000000
00001000
00000000
00000000
00000000
00000000
00000000
00000000
00000000
00011000
00000000
00000000
00000000
00000000
00000000
00000000
00000000
00000000
00000000
00000000
00000000
00010000
00000000
00000000
00001000
00000000
00000000
00010000
00000000
00000000
00000000
00000000
00000000
00000010
00000000
00000000
00001000
00000000
00000000
00000010
00000000
00000000
00000000
00000000
00000000
,
00010000
00001000
00010000
00000000
00000010
00001000
00000010
00000000
00010000
00001000
00010000
00000000
00001000
00000000
00010000
00000000
,
00001000
00010000
00001000
00000000
00100000
00010000
00100000
00000000
00001000
00010000
00001000
00000000
00100000
00000000
00010000
00000000
,
10000000
00000000
00000000
01000000
00000000
00000000
00100000
00000000
00010000
00000000
00100000
00000000
01000000
00000000
00000000
10000000
00000000
00000000
00010000
00000000
01000000
00000000
00010000
00000000
,
00011000
00000000
00000000
00000000
00010000
00001000
00010000
00000000
00000100
00001000
00000100
00000000
00010000
00001000
00010000
00000000
,
00000100
00001000
00000100
00000000
00010000
00001000
00010000
00000000
00000100
00000000
00001000
00000000
00000000
00000000
00000000
00000000
,
00000010
00001000
00000100
00010000
00001000
00010000
00000010
00010000
,
00001000
00010000
00100000
10000000
01000000
10000000
00010000
00100000
,
10000000
00100000
00001000
01000000
00010000
00100000
00001000
00010000
,
00000010
00000100
00000001
00000010
00001000
00000010
00000100
00001000
,
00000001
00000100
00001000
00010000
00001000
00000010
00000001
00001000
,
00000010
00000100
00001000
00010000
00100000
10000000
10010000
01100000
,
10000000
00000000
00000000
01000000
00000000
00000000
00100000
00000000
00010000
00000000
00001000
00000000
00000000
00000000
00001000
00000000
,
00000000
00110000
00000000
00001010
00000000
00110000
00000000
00001010
,
00001000
00000000
00000000
00000001
00000000
00000000
00000100
00000000
00001000
00000000
00010000
00000000
00000000
00000000
00010000
00000000
,
00000000
00001000
00000000
00000000
01000000
00000000
00100000
00000000
00010000
00000000
00000000
00000000
00001000
00000000
00000000
00000000
,
00001100
00000000
01010000
00000000
00001100
00000000
01010000
01100000
,
00000000
10000000
00000000
00000000
11000000
00000000
00000000
00000000
00100000
00000000
00010000
00000000
00110000
00000000
00000000
00000000
,
10000000
00000000
01000000
00000000
00010000
00000000
00001000
00000000
00000010
00000001
00000010
00000000
00000001
00000010
00000001
00000000
,
00000010
00000000
00001000
00000000
00000010
00000000
00000001
00000000
00000100
00001000
00000000
00001000
00010000
00000000
00100000
00000000
,
10000000
00000000
00100000
00000000
00010000
00000000
00100000
00000000
10000000
01000000
00000000
01000000
00010000
00000000
00001000
00000000
,
00000000
00010010
00000000
00000000
00010000
00000000
00000000
00101000
00000000
00000000
00001000
00000000
00000000
00010000
00000000
00000000
,
00010100
00000000
00000000
00001000
01000000
00000000
00010000
00100000
01000000
00000000
10000000
00000000
00000000
00000000
10000000
00000000
,
00100000
00000000
10000000
00000000
01000000
00000000
10000000
00000000
00100000
00010000
00000000
00010000
00001000
00000000
00000010
00000000
,
00000001
00000000
00000100
00000000
00000001
00000000
00000010
00000000
00000001
00000100
00000000
00000100
00001000
00000000
00010000
00000000
,
00100000
10000000
01000000
00010000
00001000
00000010
00000001
00000100
,
00001000
00010000
00001000
00022000
00000000
00033000
00000000
00010000
,
00000000
01000000
00000000
00000000
00100000
00000000
00010000
00000000
00011000
00000000
00000000
00000000
00001000
00000000
00000000
00000100
,
00000000
00000000
00000010
00000000
00001000
00000000
00011000
00000000
00000000
00000000
00010000
00100000
10000000
01000000
00010000
00001000
,
00000010
00000001
00000000
00000000
00000100
00000000
00000001
00000000
00000100
00000000
00000000
00000000
00000001
00000000
00000000
00000100
,
00000000
00000000
00001000
00000000
00010000
00000000
01100000
00000000
00000000
00000000
10000000
00000000
00000000
01000000
00000000
00000000
,
00010000
00001000
00011000
00000000
00010000
01000000
10000000
01000000
,
00010000
00000000
00001000
00000000
00000100
00000000
00000010
00010000
00001000
00010000
00022000
00000000
00000000
00000000
00000000
00000000
,
00000000
00000000
00000000
00033000
;

//---------------dance-double - ----------------
#NOTEDATA:;
#STEPSTYPE:dance-double;
#DIFFICULTY:Challenge;
#METER:18;
#BPMS:0=165;
#STOPS:4=2.545,9=1.091,14=1.091,19=1.091,34=0.182,34.25=0.182,41=0.182,41.25=0.182,50=0.182,50.5=0.182,51=0.182,51.5=0.182,56=0.182,62.83333=0.18,70.33334=0.182,70.5=0.182,77.33334=0.182,85.5=0.182,92.33334=0.181,99.83334=0.181,100=0.182,106.83334=0.182,115=0.182,121.83334=0.182,126=0.182,126.5=0.182,127=0.182,127.83334=0.544,134.33333=0.182,142=0.366,148.83333=0.18,156.66667=0.364,163.33333=3.091,169=0.727,173=0.909,180.5=0.727,186.5=0.182,187=0.363,191=0.182,191.5=0.182,192=0.182,192.5=0.182,197=1.636,200.5=0.182,201=0.182,201.5=0.182,202=0.182,219=0.182,219.25=0.182,219.5=0.182,219.75=0.182,220=0.182,220.25=0.182,220.5=0.182,241.5=0.182,245=0.182,245.83333=0.182,246=0.182,246.25=0.182,246.5=0.182,246.75=0.182,247=0.182,247.25=0.182,247.5=0.182,249.83333=0.179,252=0.182,252.5=0.182,255=0.182,255.5=0.182,260=0.182,260.25=0.182;
#NOTES:
00000000
00000000
00000000
00000000
,
00000000
00000000
00000100
00000000
00000000
00000010
00000000
00001000
,
00000000
00000000
00000000
00000000
00000000
00000000
00010000
00000000
00000000
00000000
00000000
00000000
02000000
03000000
00000000
00000000
00000000
00000000
00000000
00000000
00000000
00000000
00000000
00000000
00100000
00000000
00000000
00000000
00000000
00000000
00000000
00000000
00000000
00000000
00000000
00000000
00000000
00000000
00000000
00000000
00000000
00000000
10000000
00000000
00000000
00000000
00000000
00000000
,
11000000
00000000
00000000
00000000
00000000
00000000
00000000
00000000
00000000
00110000
00000000
00000000
00000000
00000000
00000000
00000000
00000000
00000000
10010000
00000000
00000000
00000000
00000000
00000000
02000000
03000000
00000000
00000000
00000000
00000000
00000000
00000000
00000000
00000000
00000000
00000000
00120000
00000000
00000000
00000000
00000000
00000000
00000000
00000000
00000000
00000000
00000000
00000000
,
00000000
00000000
00000000
00000000
00000000
00000000
00000000
00000000
00001000
00000000
00000000
00000000
00000000
00000000
00000000
00000000
00000000
00000000
00000000
00000000
00000000
00000000
00000000
00000000
01000000
00000000
00000000
00000000
00000000
00000000
00000000
00000000
00000000
00000000
00000000
00000000
00000000
00000000
00000000
00000000
00001000
00000000
00000000
00000000
00000000
00000000
00000000
00000000
00001000
00030000
00000000
00000000
00000000
00000000
00000000
00000000
00000000
00000000
00000000
00000000
00000000
00000000
00000000
00000000
,
00001001
00000000
00000010
00000100
00000000
00001000
00010000
00000000
00000100
00000010
00000000
00000001
00001000
00000000
00000100
00000000
,
00000010
00000001
00000100
00000000
00001000
00010000
00100000
00000000
10000000
01000000
00010000
01000000
10000000
00100000
01000000
00000000
,
00010000
10000000
01000000
00100000
00001000
00010000
00001000
00000100
,
00000010
00000000
00000001
00000000
00000010
00000000
00000100
00000000
00001010
00000101
00001010
00000000
00000100
00000000
00010000
00000000
,
00001000
00100000
00010000
10000000
00100000
01000000
00010000
00100000
,
00010000
00000000
01000000
00000000
10010000
00110000
11000000
00000000
00010000
00000000
01000000
00000000
10000000
00000000
00100000
00000000
,
00010000
00000000
00100000
00000000
10000000
00000000
01000000
00000000
00010000
01000000
00100000
00010000
01000000
00100000
00010000
00100000
,
00010000
00001000
00000100
00001000
00000100
00000001
00001000
00000100
00000010
00000010
00000001
00000001
00000100
00000100
00001000
00001000
,
00010000
00100000
00000000
00100000
10000000
00000000
10000000
01000000
00000000
01000000
00100000
00000000
00100000
00010000
00000000
00000000
,
01000000
00000000
10010000
00000000
00000000
00000000
10000000
01000000
00000000
01000000
00010000
00000000
00001000
00000000
00000100
00000000
,
00000001
00000000
00000000
00000000
00000000
00000000
00000000
00000000
00000000
00000000
00000000
00000000
00000010
00000000
00000000
00000000
00000000
00000000
00000000
00000000
00000000
00000000
00000000
00000000
00001000
00000000
00000000
00000000
00000000
00000000
00000010
00000000
00000000
00000000
00000000
00000000
00001000
00000000
00000000
00000000
00000000
00000000
00000010
00000000
00000000
00000000
00000000
00000000
00000100
00000000
00000000
00000000
00000000
00000000
00000000
00000000
00000000
00000000
00000000
00000000
00010000
00000000
00000000
00000000
00000000
00000000
00000000
00000000
00002000
00003000
00000000
00000000
01000000
00000000
00000000
00000000
00000000
00000000
00000000
00000000
00000000
00000000
00000000
00000000
00100000
00000000
00000000
00000000
00000000
00000000
00000000
00000000
00000000
00000000
00000000
00000000
,
01000000
00000000
01000000
00000000
00010000
00000000
00100000
00000000
01000000
00000000
01000000
00000000
10000000
00000000
00000000
10000000
,
00100000
00000000
00000000
00000000
00000000
00000000
00000000
00000000
00000000
00000000
00000000
00000000
00010000
00000000
00000000
00000000
00000000
00000000
00001000
00000000
00000000
00000000
00000000
00000000
00010000
00000000
00000000
00000000
00000000
00000000
00000000
00000000
00000000
00000000
00000000
00000000
00001000
00000000
00000000
00000000
00000000
00000000
00000000
00000000
00000000
00000000
00000000
00000000
00000010
00000000
00000000
00000000
00000000
00000000
00000000
00000000
00000200
00000300
00000000
00000000
00000010
00000000
00000000
00000000
00000000
00000000
00000000
00000000
00000000
00000000
00000000
00000000
00001001
00000000
00000000
00000000
00000000
00000000
00000000
00000000
00000000
00000000
00000000
00000000
00000000
00000000
00000000
00000000
00000000
00000000
00000000
00000000
00000000
00000000
00000000
00000000
,
00000000
00000000
00001100
00000000
00010000
00000100
00000010
00000001
00000010
00000000
00000000
00000010
00000100
00000000
00001000
00000000
,
00000000
00000000
00000000
00000000
00000000
00000000
00000000
00000000
00000000
00000000
00000000
00000000
00001000
00000000
00000000
00000000
00000000
00000000
00000000
00000000
00000000
00000000
00000000
00000000
00000010
00000000
00000000
00000000
00000000
00000000
00000000
00000000
00000200
00000300
00000000
00000000
00002000
00000000
00000000
00000000
00000000
00000000
00000000
00000000
00000000
00000000
00000000
00000000
00003000
00000000
00000000
00000000
00000000
00000000
00010100
00000000
00000000
00000000
00000000
00000000
00000000
00000000
00000000
00000000
00000000
00000000
00000000
00000000
00000000
00000000
00000000
00000000
00020000
00000000
00000000
00000000
00000000
00000000
00000000
00000000
00000000
00000000
00000000
00000000
00030000
00000000
00000000
00000000
00000000
00000000
01001000
00000000
00000000
00000000
00000000
00000000
,
00000000
00101000
00010000
00020100
00000000
01000000
00000000
00100000
,
00000000
00000000
00000010
00000000
00000000
00000000
00030100
00000000
00000110
00000000
00000000
00000000
00000001
00000100
00000000
00000100
,
00001000
00000000
00010000
00000000
00100000
00000000
00000000
01000000
00100000
00000000
10000000
00100000
00010000
00100000
10000000
00000000
,
01000000
00000000
00000000
00000000
00000000
00000000
00000000
00000000
00200000
00300000
00000000
00000000
00010000
00000000
00000000
00000000
00000000
00000000
00000000
00000000
00000000
00000000
00000000
00000000
00000000
00000000
00000000
00000000
00000000
00000000
01010000
00000000
00000000
00000000
00000000
00000000
00000000
00000000
00000000
00000000
00000000
00000000
00000000
00000000
00000000
00000000
00000000
00000000
11000000
00000000
00000000
00000000
00000000
00000000
00000000
00000000
00000000
00000000
00000000
00000000
10000000
00000000
00000000
00000000
00000000
00000000
00000000
00000000
00000000
00000000
00000000
00000000
10000000
00000000
00000000
00000000
00000000
00000000
00000000
00000000
00000000
00000000
00000000
00000000
00100000
00000000
00000000
00000000
00000000
00000000
00000000
00000000
00000000
00000000
00000000
00000000
,
00100000
00000000
00000000
00000000
00000000
00000000
00000000
00000000
00000000
00000000
00000000
00000000
00010000
00000000
00000000
00000000
00000000
00000000
00000000
00000000
00000000
00000000
00000000
00000000
00000000
00000000
00000000
00000000
00000000
00000000
00001000
00000000
00000000
00000000
00000000
00000000
00000010
00000000
00000000
00000000
00000000
00000000
00000000
00000000
00000000
00000000
00000000
00000000
00000100
00000000
00000000
00000000
00000000
00000000
00000000
00000000
00000000
00000000
00000000
00000000
00000010
00000000
00000000
00000000
00000000
00000000
00000000
00000000
00000000
00000000
00000000
00000000
00000010
00000000
00000000
00000000
00000000
00000000
00000000
00000000
00000000
00000000
00000000
00000000
00000010
00000000
00000000
00000000
00000000
00000000
00000000
00000000
00000002
00000003
00000000
00000000
,
00001000
00000000
00000110
00000000
00000000
00000000
00000001
00000100
00000000
00000010
00010000
00001000
00000000
00100000
02000000
00000000
,
00000000
00000000
00000000
00000000
00000000
00000000
00000000
00000000
00000000
00000000
00000000
00000000
03010000
00000000
00000000
00000000
00000000
00000000
01000000
00000000
00000000
00000000
00000000
00000000
10000000
00000000
00000000
00000000
00000000
00000000
00000000
00000000
00000000
00000000
00000000
00000000
10000000
00000000
00000000
00000000
00000000
00000000
01000000
00000000
00000000
00000000
00000000
00000000
00010000
00000000
00000000
00000000
00000000
00000000
00000000
00000000
00000000
00000000
00000000
00000000
01000000
00000000
00000000
00000000
00000000
00000000
00000000
00000000
00200000
00300000
00000000
00000000
01000000
00000000
00000000
00000000
00000000
00000000
00000000
00000000
00000000
00000000
00000000
00000000
00000000
00000000
00000000
00000000
00000000
00000000
00000000
00000000
00000000
00000000
00000000
00000000
,
10010000
00000000
00100000
10000000
00000000
01000000
00010000
00001000
,
00000010
00000000
00000001
00000000
00001001
00000000
00000100
00001000
00000100
00000000
00001000
00000000
00001001
00000000
00000001
00000100
,
00001000
00000000
00010000
00100000
10000000
00000000
10000000
01000000
00010000
00000000
00001000
00000010
00000001
00000000
00000001
00000100
,
00001000
00000000
00000000
00000000
00000000
00000000
00000000
00000000
00000000
00000000
00000000
00000000
00010000
00000000
00000000
00000000
00000000
00000000
00100000
00000000
00000000
00000000
00000000
00000000
10000000
00000000
00000000
00000000
00000000
00000000
00000000
00000000
00000000
00000000
00000000
00000000
10000000
00000000
00000000
00000000
00000000
00000000
00000000
00000000
02000000
03000000
00000000
00000000
10000000
00000000
00000000
00000000
00000000
00000000
00100000
00000000
00000000
00000000
00000000
00000000
00010000
00000000
00000000
00000000
00000000
00000000
00000000
00000000
00000000
00000000
00000000
00000000
00001000
00000000
00000000
00000000
00000000
00000000
00000100
00000000
00000000
00000000
00000000
00000000
00000001
00000000
00000000
00000000
00000000
00000000
00000000
00000000
00000000
00000000
00000000
00000000
,
00000001
00000000
00000000
00000000
00000000
00000000
00000010
00000000
00000000
00000000
00000000
00000000
00001000
00000000
00000000
00000000
00000000
00000000
00000000
00000000
00000000
00000000
00000000
00000000
00010000
00000000
00000000
00000000
00000000
00000000
01000000
00000000
00000000
00000000
00000000
00000000
10000000
00000000
00000000
00000000
00000000
00000000
00000000
00000000
00000000
00000000
00000000
00000000
00010000
00000000
00000000
00000000
00000000
00000000
00100000
00000000
00000000
00000000
00000000
00000000
01000000
00000000
00000000
00000000
00000000
00000000
00100000
00000000
00000000
00000000
00000000
00000000
10000000
00000000
00000000
00000000
00000000
00000000
00100000
00000000
00000000
00000000
00000000
00000000
00010000
00000000
00000000
00000000
00000000
00000000
00000000
00000000
00020000
00030000
00000000
00000000
,
10000000
01000000
00010000
00000000
00001000
00010000
00100000
00000000
10000000
00100000
00010000
00000000
00001000
00010000
01000000
00000000
,
10000000
00000000
00000000
00000000
00000000
00000000
01000000
00000000
00000000
00000000
00000000
00000000
00010000
00000000
00000000
00000000
00000000
00000000
00000000
00000000
00000000
00000000
00000000
00000000
00001000
00000000
00000000
00000000
00000000
00000000
00010000
00000000
00000000
00000000
00000000
00000000
00100000
00000000
00000000
00000000
00000000
00000000
00000000
00000000
00000000
00000000
00000000
00000000
10000000
00000000
00000000
00000000
00000000
00000000
00000000
00000000
02000000
03000000
00000000
00000000
00200000
00000000
00000000
00000000
00000000
00000000
00000000
00000000
00000000
00000000
00000000
00000000
00300000
00000000
00000000
00000000
00000000
00000000
00011000
00000000
00000000
00000000
00000000
00000000
00000000
00000000
00000000
00000000
00000000
00000000
00000000
00000000
00000000
00000000
00000000
00000000
,
00000020
00000000
00000030
00000110
00000000
00000000
00001000
00000000
00010000
00000000
00022000
00000000
00000000
00000000
00033000
00000000
,
00000000
00000000
00000000
00000000
00000000
00000000
00010000
00000000
00000000
00000000
00000000
00000000
00000000
00000000
01000000
00000000
00000000
00000000
00000000
00000000
00000000
00000000
10000000
00000000
00000000
00000000
00000000
00000000
00000000
00000000
10000000
00000000
00000000
00100000
00000000
00000000
00010000
00000000
00000000
00000000
00000000
00000000
00001000
00000000
00000000
00000010
00000000
00000000
,
00000001
00000000
00000001
00000100
00001000
00000000
00010000
01000000
10000000
00000000
10000000
00100000
00010000
00000000
00001000
00000010
,
00000001
00000000
00000000
00000000
00000000
00000000
00000000
00000000
00000000
00000000
00000000
00000000
00000001
00000000
00000000
00000000
00000000
00000000
00000000
00000000
00000020
00000030
00000000
00000000
00000001
00000000
00000000
00000000
00000000
00000000
00000010
00000000
00000000
00000000
00000000
00000000
00001000
00000000
00000000
00000000
00000000
00000000
00000000
00000000
00000000
00000000
00000000
00000000
00010000
00000000
00000000
00000000
00000000
00000000
00100000
00000000
00000000
00000000
00000000
00000000
10000000
00000000
00000000
00000000
00000000
00000000
00000000
00000000
00000000
00000000
00000000
00000000
10000000
00000000
00000000
00000000
00000000
00000000
01000000
00000000
00000000
00000000
00000000
00000000
00010000
00000000
00000000
00000000
00000000
00000000
00000000
00000000
00000000
00000000
00000000
00000000
,
00001000
00000000
00000000
00000100
00000000
00000000
00000001
00000000
00000000
00000000
00000000
00000000
00000010
00000000
00000000
00000000
00000000
00000000
00000110
00000000
00000000
00000000
00000000
00000000
00001000
00000000
00000000
00000000
00000100
00000000
00000000
00000000
00000001
00000000
00000000
00000000
00000100
00000000
00000000
00000000
00000000
00000000
00000110
00000000
00000000
00000000
00000000
00000000
,
00001000
00000000
00000000
00000000
00000020
00000030
00000000
00000000
00000100
00000000
00000000
00000000
00001001
00000000
00000000
00000000
00000000
00000000
00000000
00000000
00000000
00000000
00000000
00000000
00000010
00000000
00000000
00001000
00000000
00000000
00010000
00000000
00000000
00000000
00000000
00000000
00001000
00000000
00000000
00000100
00000000
00000000
00000001
00000000
00000000
00000000
00000000
00000000
,
00000100
00000000
00000000
00000000
00000000
00000000
00001000
00000000
00000000
00000000
00000000
00000000
00010000
00000000
00000000
00000000
00000000
00000000
00000000
00000000
00000000
00000000
00000000
00000000
00001000
00000000
00000000
00000000
00000000
00000000
00000010
00000000
00000000
00000000
00000000
00000000
00000001
00000000
00000000
00000000
00000000
00000000
00000000
00000000
00000000
00000000
00000000
00000000
00000010
00000000
00000000
00000000
00000000
00000000
00001000
00000000
00000000
00000000
00000000
00000000
00010000
00000000
00000000
00000000
00000000
00000000
00000000
00000000
00000000
00000000
00000000
00000000
00001000
00000000
00000000
00000000
00000000
00000000
00000000
00000000
00000200
00000300
00000000
00000000
00000001
00000000
00000000
00000000
00000000
00000000
00000010
00000000
00000000
00000000
00000000
00000000
,
00000100
00000000
00001000
00000000
00011000
00000000
00010000
00100000
01000000
00000000
00010000
00000000
10100000
00000000
00100000
10000000
,
01000000
00000000
00100000
00000000
00110000
00000000
00010000
01000000
00001000
00000000
00010000
00000000
00011000
00000000
00000100
00000010
,
00000001
00000000
00000100
00000000
00000110
00000000
00000001
00000010
00000100
00000000
00000010
00000000
00000110
00000000
00000100
00010000
,
00001000
00000000
00100000
00000000
00110000
00000000
00010000
00100000
01000000
00000000
00100000
00000000
00110000
00000000
10000000
01000000
,
00100000
00000000
00010000
00000000
10010000
00000000
00100000
10000000
01000000
00000000
00100000
00000000
00101000
00000000
00001000
00010000
,
00001000
00000000
00000100
00000000
00000101
00000000
00000001
00000010
00000100
00000000
00001000
00000000
00001100
00000000
00000010
00000001
,
00000100
00000000
00000010
00000000
00000110
00000000
00001000
00000100
00001000
00000000
00010000
00000000
00011000
00000000
00110000
00000000
,
10100000
00000000
11000000
00000000
10010000
00000000
10000000
01000000
00010000
00000000
01100000
00000000
10010000
00000000
00010000
01000000
,
10000000
00000000
01100000
00000000
10010000
00000000
00010000
00100000
10000000
00000000
01000000
00000000
01100000
00000000
10000000
00100000
,
00010000
00000000
01100000
00000000
00011000
00000000
00001100
00000000
00000101
00000000
00000001
00000000
00000011
00000000
00000010
00000100
,
00000010
00000000
00001001
00000000
00000010
00000100
00000010
00000000
00001001
00000000
00000100
00000000
00010000
00000000
00001000
00000000
,
00100000
00000000
01000000
00100000
00010000
00000000
10000000
01000000
00100000
00010000
10000000
00100000
01000000
00000000
00010000
00000000
,
00110000
00000000
00010000
00000000
10000000
00000000
00100000
00010000
00000000
00001000
00010000
00001000
00000010
00000000
00000001
00000000
,
00000011
00000000
00001000
00000000
00000001
00000000
00000100
00000010
00000000
00000001
00000010
00001000
00010000
01010000
00010000
00110000
,
00001000
00001100
00000100
00000010
00000001
00000010
00000100
00010000
00001000
01000000
00100000
10000000
00010000
00100000
01000000
00000000
,
10000000
00000000
10100000
00000000
10000000
00000000
00010000
00000000
00100000
10000000
00000000
00100000
00001000
00010000
00000010
00000000
,
00000100
00000000
00000110
00000000
00000001
00000000
00000010
00000000
00001000
00000010
00000000
00000100
00000001
00001000
00000001
00000100
,
00001000
00000100
00000010
00001000
00010000
01000000
00100000
10000000
01000000
00100000
00010000
01000000
00010000
00001000
00000010
00000001
,
00001000
00000100
00000001
00001000
00000010
00001000
00010000
01000000
10000000
00010000
00100000
10000000
00010000
10000000
01000000
00000000
,
00000000
01000000
10000000
00000000
01000000
00000000
00100000
00010000
00001000
00000000
00000000
00000000
00000100
00000000
00000000
00000100
,
00001000
00000000
00000000
00000000
00000000
00000000
00000000
00000000
00000000
00000000
00000000
00000000
00000100
00000000
00000000
00000000
00000000
00000000
00000000
00000000
00000000
00000000
00000000
00000000
00000010
00000000
00000000
00000000
00000000
00000000
00000001
00000000
00000000
00000000
00000000
00000000
00001000
00000000
00000000
00000000
00000000
00000000
00000000
00000000
00000200
00000300
00000000
00000000
00000011
00000000
00000000
00000000
00000000
00000000
00000100
00000000
00000000
00000000
00000000
00000000
00010010
00000000
00000000
00000000
00000000
00000000
00001000
00000000
00000000
00000000
00000000
00000000
00110000
00000000
00000000
00000000
00000000
00000000
01000000
00000000
00000000
00000000
00000000
00000000
10100000
00000000
00000000
00000000
00000000
00000000
00010000
00000000
00000000
00000000
00000000
00000000
,
01000000
00000000
00000000
00000000
00000000
00000000
10000000
00000000
00000000
00000000
00000000
00000000
01000000
00000000
00000000
00000000
00000000
00000000
00010000
00000000
00000000
00000000
00000000
00000000
00100000
00000000
00000000
00000000
00000000
00000000
10000000
00000000
00000000
00000000
00000000
00000000
00100000
00000000
00000000
00000000
00000000
00000000
00000000
00000000
00020000
00030000
00000000
00000000
10000000
00000000
00000000
00000000
00000000
00000000
00100000
00000000
00000000
00000000
00000000
00000000
10000000
00000000
00000000
00000000
00000000
00000000
00000000
00000000
00000000
00000000
00000000
00000000
10000000
00000000
00000000
00000000
00000000
00000000
01000000
00000000
00000000
00000000
00000000
00000000
00000000
00000000
00000000
00000000
00000000
00000000
01000000
00000000
00000000
00000000
00000000
00000000
,
00010000
00010000
00001000
00000000
00001000
00000010
00000001
00000000
00000001
00000100
00000000
00000100
00001000
00001000
00010000
00000000
,
00100000
10000000
00100000
00010000
00100000
10000000
01000000
00010000
00001000
00000010
00000001
00000010
00000100
00001000
00000100
00001000
,
00000001
00000100
00000220
00000000
00000000
00000000
00000000
00000000
00000000
00000000
00000000
00000000
00000000
00000000
00000000
00000000
,
00000000
00000330
00000000
00000000
;
