
//----- song ID: bura -----//
#TITLE:無頼ック自己ライザー;
#ARTIST:kradness;
#TITLETRANSLIT:Buraikku jikorizer;
#BANNER:Buraikku jikorizer.png;
#BACKGROUND:Buraikku jikorizer-bg.png;
#CDTITLE:./CDTitles/REFLEC BEAT VOLZZA.png;
#MUSIC:Buraikku jikorizer.ogg;
#SAMPLESTART:55.998;
#SAMPLELENGTH:15;
#BPMS:0=150;
#NOTES:
     dance-single:
     :
     Beginner:
     2:
     :
0000
0000
0000
0000
,
0000
0000
0000
0000
,
0000
0000
0000
0000
,
0000
0000
0000
0000
,
0000
0000
0000
0000
,
0010
0000
0000
0000
,
0010
0000
0000
0000
,
0100
0000
0000
0000
,
0100
0000
0000
0000
,
0010
0000
0000
0000
,
0100
0000
0000
0000
,
0010
0000
0000
0000
,
0100
0000
0000
0000
,
0001
0000
0001
0000
,
1000
0000
1000
0000
,
0001
0000
0001
0000
,
0000
0000
0000
0000
,
0000
0000
0000
0000
,
0000
0000
0000
0000
,
1000
0000
0000
0000
,
1000
0000
0000
0000
,
0010
0000
0000
0000
,
0010
0000
0000
0000
,
0001
0000
0000
0000
,
0001
0000
0000
0000
,
0010
0000
0000
0000
,
0010
0000
0000
0000
,
0100
0000
0000
0000
,
0100
0000
0000
0000
,
0010
0000
0000
0000
,
0010
0000
0000
0000
,
1000
0000
0000
0000
,
1000
0000
0000
0000
,
0001
0000
0000
0000
,
0001
0000
0000
0000
,
1001
0000
0000
0000
,
1001
0000
0000
0000
,
0001
0000
0000
0000
,
1000
0000
0000
0000
,
1001
0000
0000
0000
,
1001
0000
0000
0000
,
1000
0000
0000
0000
,
0001
0000
0000
0000
,
0100
0000
0000
0000
,
0100
0000
0000
0000
,
0010
0000
0000
0000
,
0010
0000
0000
0000
,
1000
0000
0000
0000
,
1000
0000
0000
0000
,
0001
0000
0000
0000
,
0001
0000
0000
0000
,
1001
0000
0000
0000
,
0000
0000
0000
0000
,
0010
0000
0010
0000
,
0010
0000
0000
0000
,
0100
0000
0100
0000
,
0100
0000
0000
0000
,
0010
0000
0010
0000
,
0010
0000
0000
0000
,
0100
0000
0100
0000
,
0100
0000
0000
0000
,
0001
0000
0001
0000
,
0001
0000
0000
0000
,
1000
0000
1000
0000
,
1000
0000
0000
0000
,
0001
0000
0001
0000
,
0001
0000
0000
0000
,
1000
0000
1000
0000
,
1000
0000
0000
0000
,
0010
0000
0000
0000
,
0100
0000
0000
0000
,
0010
0000
0000
0000
,
1000
0000
0000
0000
,
0001
0000
1001
0000
,
0000
0000
0000
0000
;
#NOTES:
     dance-single:
     :
     Easy:
     4:
     :
0000
0000
0000
0000
,
0000
0000
0000
0000
,
0000
0000
0000
0000
,
0000
0000
0000
0000
,
0000
0000
0000
0000
,
0010
0000
0010
0000
,
1000
1000
0100
0000
,
0010
0000
0010
0000
,
0001
0001
0100
0000
,
0001
0000
0001
0000
,
1000
0000
1000
0000
,
0010
0000
0010
0000
,
1000
0001
1000
0001
,
0010
0000
0010
0000
,
0100
0000
0100
0000
,
0010
0000
0200
0000
,
0000
0000
0000
0000
,
0000
0320
0000
0000
,
0000
0000
0030
1001
,
0010
0010
1000
0000
,
1000
1000
0100
0000
,
0010
0010
0001
0000
,
0001
0001
0100
0000
,
0010
1000
1000
0000
,
1000
0100
0100
0000
,
0010
0001
0001
0000
,
0001
0100
0200
0000
,
0310
0000
1001
0000
,
0100
0000
1001
0000
,
0010
0000
0110
0000
,
0100
0000
0110
0000
,
1000
1000
0100
0000
,
0001
0001
0100
0000
,
0100
0000
0200
0300
,
0020
0000
0000
0000
,
0130
0000
1001
0000
,
0010
0000
1001
0000
,
0010
0001
0100
1000
,
0010
0000
0010
0000
,
0100
0000
1001
0000
,
0010
0000
1001
0000
,
0100
1000
0010
0001
,
0100
0000
0110
0000
,
1001
0000
1001
0000
,
0110
0000
0110
0000
,
1000
0000
1000
0000
,
0001
0000
0001
0000
,
0110
0000
0110
0000
,
1001
0000
1001
0000
,
0010
0000
0010
0000
,
0100
0000
0100
0000
,
0020
0000
0100
0100
,
0130
0000
0000
0110
,
0100
0000
1001
0000
,
0010
0000
1001
0000
,
0010
0001
0100
1000
,
0010
0000
0010
0000
,
0100
0000
1001
0000
,
0010
0000
1001
0000
,
0100
1000
0010
0001
,
0100
0000
0110
0000
,
1001
0000
1001
0000
,
0110
0000
0110
0000
,
1000
0000
1000
0000
,
0001
0000
0001
0000
,
0110
0000
0110
0000
,
1001
0000
1001
0000
,
0010
0000
0010
0000
,
0100
0000
0100
0000
,
0020
0000
0100
0130
,
0010
0010
1000
0000
,
1000
1000
0100
0000
,
0010
0010
0001
0000
,
0001
0001
0100
1001
,
0000
0000
0000
0000
;
#NOTES:
     dance-single:
     :
     Medium:
     8:
     :
0000
0000
0000
0000
,
0000
0000
0000
0000
,
0000
0000
0000
0000
,
0000
0000
0000
0000
,
0000
0000
0000
0000
,
1000
0000
1000
0000
0001
1000
0100
0000
,
0001
0000
0001
0000
0010
1000
0100
0000
,
0001
0000
0001
0000
1000
0001
0100
0000
,
0010
0000
0010
0000
1000
0001
0100
0000
,
0010
1010
0010
0011
,
0100
1100
0100
0101
,
2000
0000
3002
0000
0000
0103
0001
1000
,
0010
0100
0110
1001
,
0010
0010
0100
0100
,
0010
0010
0100
0100
,
0010
0000
0000
0000
0010
0000
0000
0000
0100
0000
0000
0000
0100
0000
0000
0010
,
0000
0000
0100
0000
0000
0010
0000
0000
0100
0000
0000
0001
0000
0000
1000
0000
,
0000
0002
0000
0000
,
2003
0000
0000
3001
,
0010
0100
1100
0101
,
0100
0010
1010
0011
,
0001
0100
1010
1100
,
1000
0100
0011
0101
,
0010
0000
0100
0000
0001
1000
0100
0000
,
0010
0000
0100
0000
1000
0001
0100
0010
,
0000
1000
0000
0001
0000
1000
0000
0001
,
0100
0010
0100
0010
0100
0000
0010
0000
,
1000
0000
1000
0000
0001
0100
0000
0000
,
0001
0000
0001
0000
1000
0100
0000
0000
,
0010
0000
0010
0000
0100
0010
0000
0000
,
0100
0000
0100
0000
0010
0100
0000
0110
,
0000
1000
0000
0001
0000
0100
0000
0010
,
1000
0100
1000
0000
0001
0010
0001
0000
,
0110
0000
1001
0000
0010
0010
0010
0000
,
0210
0001
1000
0001
,
0310
1100
0110
1001
,
0010
0101
0110
1001
,
0010
1000
0010
1000
0100
0000
0010
0000
,
0011
1100
0101
1010
,
0100
0011
0110
1001
,
0100
1010
0110
1001
,
0100
0001
0100
0001
0010
0000
0100
0000
,
1100
0011
1010
0101
,
0010
1001
0100
1001
,
0001
0001
1000
1000
,
0010
1000
0100
0001
,
0010
1000
0100
0001
,
0100
1001
0010
1001
,
1000
0000
1000
0000
0001
0000
0001
1000
,
0100
0011
0010
1010
,
0100
0001
0010
0100
,
0020
0000
0100
0130
,
2002
0000
0000
3003
0000
0000
0110
0000
,
0010
1100
0110
1001
,
0010
0101
0110
1001
,
0010
1000
0001
0100
0010
0000
0100
0000
,
0110
1001
0110
1001
,
0100
0011
0110
1001
,
0100
1010
0110
1001
,
0100
0001
1000
0010
0100
0000
0010
0000
,
1100
0011
1010
0101
,
0010
1001
0100
1001
,
0001
0001
0001
0000
1000
1000
1000
0000
,
0010
1000
0100
0001
,
0011
1100
1010
0101
,
0100
1001
0010
1001
,
1000
1000
1000
0000
0001
0001
0001
1000
,
0100
0011
0100
1010
,
1100
0011
0101
1010
,
0200
0000
0010
0310
,
0100
0010
0011
1010
,
0010
0100
0101
1100
,
1000
0010
0001
0100
,
0110
1001
0110
1001
,
0000
0000
0000
0000
;
#NOTES:
     dance-single:
     :
     Hard:
     13:
     :
0000
0000
0000
0000
,
0000
0000
0000
0000
,
0000
0000
0000
0000
,
0000
0000
0000
0000
,
0000
0000
0000
0000
,
1000
0000
0000
1000
0100
0000
0010
0000
0001
0000
0000
0001
0100
0000
0010
0000
,
1000
0100
0001
0100
1000
0001
1000
0000
,
0001
0000
0000
0001
0010
0000
0100
0000
1000
0000
0000
1000
0010
0000
0100
0000
,
0001
0010
1000
0010
0001
1000
0001
0000
,
1000
0000
0000
1000
0000
0000
1100
0000
0001
0000
0000
0001
0000
0000
0101
0000
,
1000
0010
0100
0001
0010
0100
2000
0000
,
3200
0000
0010
0000
0310
0001
0100
0010
,
1000
0100
0001
0100
1000
0000
1001
0000
,
2000
3100
0002
0103
,
2000
3010
0002
0013
,
2000
0000
0000
0000
3001
0000
0000
0000
0002
0000
0000
0000
1003
0000
0000
0010
,
0000
0000
1100
0000
0000
0010
0000
0000
0101
0000
0000
0010
0000
0000
0001
1000
,
0000
0000
0000
0000
0220
0000
0000
0000
0330
0000
0000
1000
0001
0000
0100
0000
,
0010
0000
0000
0000
0000
0000
0220
0000
0000
0330
0000
0000
0110
0000
0000
0000
,
1001
0000
0100
1000
0100
0000
0010
0000
0001
0000
0100
0000
0010
0000
1000
0000
,
1001
0000
0100
0001
0100
0000
0010
0000
1000
0000
0100
0000
0010
0000
0001
0000
,
1000
0000
0000
0010
0000
0100
0001
0000
0010
0000
0100
0000
1000
0000
0010
0000
,
0001
0010
1000
0100
1100
0000
0011
0000
,
1001
0000
0010
0001
0010
0000
0100
0000
1000
0000
0010
0000
0100
0000
0001
0000
,
1001
0000
0010
1000
0010
0000
0100
0000
0001
0000
0010
0000
0100
0000
1000
0000
,
0010
1100
0000
0011
0000
1010
0000
0101
,
1000
0001
0100
0010
0011
0000
1100
0000
,
1000
0000
0010
0100
0010
0000
1000
0000
0100
0000
0010
0000
0000
0000
0001
0000
,
0100
0000
0010
0000
1000
0000
0010
0000
0001
0000
0000
0010
0000
1000
0001
1000
,
0001
0000
1000
0000
0010
0000
0100
0000
0001
0000
0100
0000
0000
0010
0000
0000
,
1000
0001
1000
0001
1100
0101
0000
1001
,
0000
1001
0010
0100
1000
0010
0100
0001
,
1000
0000
0001
1000
0000
0001
1000
0000
0010
0000
0110
0000
0110
0000
0000
0000
,
1000
1000
0001
0001
1100
0101
1100
0000
,
0220
0000
0000
0330
1000
0010
0100
0001
,
0011
0000
0000
0100
1000
0000
0010
0000
0001
0000
1000
0000
0100
0000
0000
0000
,
0101
0000
0000
0010
1000
0000
0100
0000
0001
0000
1000
0000
0010
0000
0000
0000
,
0010
0000
0001
0000
0010
0000
0001
0000
0011
0000
0000
0101
0000
0010
0001
0000
,
0100
0010
1000
0100
0001
0100
1000
0010
,
1010
0000
0000
0001
0100
0000
0010
0000
1000
0000
0100
0000
0001
0000
0000
0000
,
1100
0000
0000
0010
0001
0000
0010
0000
0001
0000
0100
0000
1000
0000
0000
0000
,
0001
0000
0010
0000
0100
0000
1000
0000
1100
0000
0000
0011
0000
0100
1000
0000
,
0010
0001
0010
1000
0200
0000
0320
0000
,
0031
0010
0001
0000
1000
0010
1000
0000
,
1000
0010
0001
0010
1000
0100
0001
0100
,
0000
1000
0100
0010
0001
0001
0010
0100
,
0110
1100
0101
0110
,
1000
0010
1000
0000
0001
0010
0001
0000
,
0001
0000
0010
0000
1000
0000
0010
0000
0001
0000
0100
0000
1000
0000
0100
0010
,
0100
0001
0100
0010
1000
0100
0010
0100
,
1100
0000
0010
0101
0000
0010
1000
0001
,
0200
0000
0010
0000
1000
0000
0301
0100
,
0010
0000
0000
0100
0000
0000
1001
0000
,
1010
0000
0100
0001
0000
0100
0001
0000
1000
0000
0001
0000
0100
0000
0000
0000
,
1100
0000
0001
0010
0000
0001
0010
0000
0001
0000
1000
0000
0100
0000
0000
0000
,
0010
0000
0001
0000
0010
0000
0001
0000
0011
0000
0000
1100
0000
0010
1000
0000
,
0100
0010
0001
0100
1000
0100
0001
0010
,
0011
0000
1000
0010
0000
1000
0010
0000
1000
0000
0001
0000
0100
0000
0000
0000
,
0101
0000
1000
0100
0000
1000
0100
0000
1000
0000
0001
0000
0100
0000
0000
0000
,
0001
0000
0010
0000
0100
0000
1000
0000
1010
0000
0000
0101
0000
0100
0001
0000
,
0010
1000
0010
0001
0200
0000
0320
0000
,
1030
0010
1000
1000
0001
0010
0001
0001
,
0011
1100
0101
1010
,
0000
0001
0010
1000
0010
0001
0010
0100
,
0110
0101
1010
0110
,
0001
0010
0001
0001
1000
0010
1000
1000
,
0001
0000
0010
0000
1000
0000
0010
0000
0001
0000
0100
0000
1000
0000
0100
0010
,
0100
0001
0200
0000
1300
0100
0001
0010
,
0101
0000
0010
1100
0000
0010
0001
1000
,
0000
0000
1000
0001
1000
0000
0010
0000
1010
0000
0000
0000
0011
0000
0000
0000
,
1001
0000
0100
0001
0100
0000
0001
0000
0100
0000
0010
0000
1000
0000
0100
0000
,
1001
0000
0100
1000
0100
0000
1000
0000
0100
0000
0010
0000
0001
0000
0100
0000
,
0110
0000
1000
0001
1000
0000
0010
0000
0100
0000
0001
0000
0010
0000
0100
0000
,
1000
0010
0100
0001
1100
0101
0010
0000
,
0000
0000
0000
0000
;
#NOTES:
     dance-single:
     :
     Challenge:
     15:
     :
0000
0000
0000
0000
,
0000
0000
0000
0000
,
0000
0000
0000
0000
,
0000
0000
0000
0000
,
0000
0000
0000
0000
,
0010
0000
1000
0100
0000
1000
0100
0000
0010
0000
0001
0100
0000
0001
0100
0000
,
0010
1000
0100
0001
0020
0100
0130
0000
,
0010
0000
0001
0100
0000
0001
0100
0000
0010
0000
1000
0100
0000
1000
0100
0000
,
0010
0001
0100
1000
0020
0100
0130
0000
,
0001
0000
0001
0010
0000
0001
0010
0100
1000
0000
0001
0000
0100
0000
0010
0000
,
1000
1100
0001
0101
2000
3100
0002
0103
,
0020
0000
0000
0000
0000
0000
0000
0000
0000
0000
0130
0001
0010
0000
0100
0000
,
1000
0100
0001
0100
1001
0000
0110
0000
,
1000
0100
0010
0001
0010
1000
0010
0001
,
0100
1000
0100
0001
0010
1000
0010
0100
,
0001
0000
0100
0000
1000
0000
0010
0000
0100
0000
0001
0000
0100
0000
0000
0010
,
1000
0000
1000
0100
0000
0100
0010
0000
0010
0001
0000
0001
0100
0000
0100
0010
,
0000
0000
0000
0000
,
0000
0000
0000
1001
,
0110
0000
1000
0100
1000
0000
1100
0000
0001
0000
0100
0000
0001
0000
0010
0000
,
0011
0000
0001
0010
0001
0000
0110
0000
1000
0000
0010
0000
0100
0000
0010
0100
,
1000
0000
0100
0010
0000
1000
0100
0000
0010
0000
0001
0000
0200
0000
0000
0000
,
0310
0110
1100
0101
0110
0000
1001
0000
,
1010
0000
1000
0100
1000
0000
1010
0000
0100
0000
0001
0000
0010
0000
0100
0000
,
0011
0000
0001
0010
0001
0000
0011
0000
0001
0000
0010
0000
0100
0000
1000
0100
,
1000
1100
0010
0101
0010
1100
0020
0000
,
1030
0100
0010
0100
1000
0100
0010
0100
1000
0000
0010
0100
0001
0000
0010
0000
,
0100
0000
1000
0100
1000
0000
0100
1000
0100
0000
1100
0000
0000
0000
1001
0000
,
0001
0100
0001
0000
0100
0001
0010
0100
1000
0100
0000
1000
0000
1000
0100
1000
,
0010
0100
0010
1000
0001
0100
0010
0100
0010
1000
0001
0100
0000
0010
1000
0001
,
0010
0100
1000
0100
0010
0001
0100
0010
1000
0001
0100
0000
0000
0000
1001
0000
,
0000
0010
0010
0110
1000
1000
0110
0000
,
1000
0000
0001
0100
0000
0001
0010
0000
1100
0000
0101
0000
0011
0000
1010
0000
,
0001
0000
0010
0001
1000
0010
1000
0000
1100
0000
0101
0000
1100
0000
0000
0000
,
0020
0000
0000
0000
,
1030
0000
0100
1000
0000
1000
0100
0000
0011
0000
0110
0000
1100
0000
0000
0000
,
0001
0000
0100
0001
0000
0001
0100
0000
1010
0000
0110
0000
0101
0000
0000
0000
,
0010
0000
0001
0000
1000
0000
0100
0000
0020
0000
0000
0031
0000
1000
0100
0010
,
0001
0010
1000
0010
0001
0100
1000
0100
,
0010
0000
0100
0010
0000
0010
0100
0000
0110
0000
1001
0000
0110
0000
0000
0000
,
0100
0000
0010
0100
0000
0100
0010
0000
0110
0000
1001
0000
0110
0000
0000
0000
,
0010
0000
1000
0000
0001
0000
0100
0000
0010
1000
0001
0100
0000
0010
0100
0001
,
1000
0000
0010
0000
0100
0000
0010
0000
0100
0001
0100
0010
1000
0100
0010
0001
,
1000
1100
0001
0101
,
0110
1000
0110
0001
0110
1000
0110
0001
,
0000
0110
0110
1001
0100
0010
1000
0001
,
0100
0001
0100
0001
1000
0010
1000
0010
0100
0000
0000
0000
0010
0000
1000
0010
,
1000
1010
0001
0011
,
1001
0000
0100
0000
1001
0000
0010
0000
1001
0000
0100
0000
1001
0000
0010
1000
,
0100
0000
0010
0000
0001
0000
0010
0000
1000
0000
0010
0001
0100
0010
1000
0100
,
0010
0010
0100
1001
0000
0010
1000
0100
,
0020
0000
0000
0000
,
0000
0000
0000
0130
,
0001
0000
0010
0001
0000
0001
0010
0000
1100
0000
0110
0000
0011
0000
0010
0100
,
1000
0000
0010
1000
0000
1000
0010
0000
0101
0000
0110
0000
1010
0000
0010
1000
,
0100
0000
1000
0000
0001
0000
0010
0000
0200
0000
0000
1300
0000
0001
0010
0100
,
1000
0000
0100
0000
0001
0000
0100
0000
1000
0100
1000
0000
0001
0010
0001
0000
,
0100
0000
0010
0100
0000
0100
0010
0000
0110
0000
1001
0000
0110
0000
0001
0100
,
0010
0000
0100
0010
0000
0010
0100
0000
0110
0000
1001
0000
0110
0000
1000
0010
,
0100
0000
0001
0000
1000
0000
0010
0000
0100
0001
1000
0010
0000
0100
0010
1000
,
0001
0100
0010
1000
0100
0010
0001
0010
0100
1000
0010
0100
0001
0010
0100
1000
,
0001
0011
1000
1010
,
0110
0001
0110
1000
0110
0001
0110
1000
,
0000
0110
0110
1001
0010
0100
0001
1000
,
0010
1000
0010
1000
0001
0100
0001
0100
0010
0000
0000
0000
0100
0000
1000
0100
,
0001
0101
1000
1100
,
1001
0000
0010
0000
1001
0000
0100
0000
1001
0000
0010
0000
1001
0000
0100
0001
,
0010
0000
0100
0000
1000
0000
0100
0000
0001
0000
0100
1000
0010
0100
0001
0010
,
0100
0100
0010
1001
0000
0100
0001
0010
,
0110
0000
0010
0001
0100
0000
0010
0000
1100
0000
0000
0000
0101
0000
0000
0000
,
0110
0000
1000
0100
1000
0000
1100
0000
0001
0000
0100
0000
0001
0000
0010
0000
,
0011
0000
0001
0010
0001
0000
0110
0000
1000
0000
0010
0000
0100
0000
0010
0000
,
0100
1010
0100
0011
0100
1010
0100
0010
,
0000
0110
1100
0101
0110
0000
1001
0000
,
0000
0000
0000
0000
;
#NOTES:
     dance-double:
     :
     Easy:
     5:
     :
00000000
00000000
00000000
00000000
,
00000000
00000000
00000000
00000000
,
00000000
00000000
00000000
00000000
,
00000000
00000000
00000000
00000000
,
00000000
00000000
00000000
00000000
,
00000001
00000000
00000001
00000000
,
00000100
00000100
00000010
00000000
,
00010000
00000000
00010000
00000000
,
00001000
00001000
00100000
00000000
,
00010000
00000000
00010000
00000000
,
01000000
00000000
01000000
00000000
,
00001000
00000000
00001000
00000000
,
00010000
00000100
00000110
00001001
,
00000010
00000000
00000100
00000000
,
00001000
00000000
00010000
00000000
,
00100000
00000000
02000000
00000000
,
00000000
00000000
00000000
00000000
,
00000000
03002000
00000000
00000000
,
00000000
00000000
00003000
00011000
,
00100000
00100000
00010000
00000000
,
10000000
10000000
01000000
00000000
,
00100000
00100000
00001000
00000000
,
00010000
00010000
00000100
00000000
,
00000010
00000001
00000001
00000000
,
00000100
00000010
00000010
00000000
,
00010000
00001000
00001000
00000000
,
00010000
01000000
02000000
00000000
,
03100000
00000000
10010000
00000000
,
00001000
00000000
00011000
00000000
,
00000100
00000000
00001001
00000000
,
00010000
00000000
00011000
00000000
,
00100000
00100000
00001000
00000000
,
00000100
00000100
00010000
00000000
,
00001000
00000000
00022000
00033000
,
00000200
00000000
00000000
00000000
,
00010300
00000000
00011000
00000000
,
00100000
00000000
10010000
00000000
,
00100000
10000000
00010000
01000000
,
00100000
00000000
01000000
00000000
,
00001000
00000000
00011000
00000000
,
00000010
00000000
00001001
00000000
,
00000010
00001000
00000001
00000100
,
00000010
00000000
00000110
00000000
,
00001001
00000000
00011000
00000000
,
10010000
00000000
00011000
00000000
,
00001000
00000000
00001000
00000000
,
00010000
00000000
00010000
00000000
,
01100000
00000000
00011000
00000000
,
00000110
00000000
00011000
00000000
,
00010000
00000000
00100000
00000000
,
00001000
00000000
00000010
00000000
,
00000200
00000000
00000010
00000010
,
00000310
00000000
00000000
00011000
,
00001000
00000000
00011000
00000000
,
00000010
00000000
00001001
00000000
,
00000010
00000001
00001000
00000100
,
00000010
00000000
00000100
00000000
,
00010000
00000000
00011000
00000000
,
00100000
00000000
10010000
00000000
,
00100000
00010000
10000000
01000000
,
00100000
00000000
01100000
00000000
,
10010000
00000000
00011000
00000000
,
00001001
00000000
00011000
00000000
,
00010000
00010000
00010000
00010000
,
00001000
00001000
00001000
00001000
,
00000110
00000000
00011000
00000000
,
01100000
00000000
00011000
00000000
,
00001000
00000000
00000010
00000000
,
00010000
00000000
00100000
00000000
,
02000000
00000000
00100000
03100000
,
01000000
01000000
00010000
00000000
,
10000000
10000000
00100000
00000000
,
01000000
01000000
00001000
00001000
,
00010000
00001000
00010000
00011000
,
00000000
00000000
00000000
00000000
;
#NOTES:
     dance-double:
     :
     Medium:
     9:
     :
00000000
00000000
00000000
00000000
,
00000000
00000000
00000000
00000000
,
00000000
00000000
00000000
00000000
,
00000000
00000000
00000000
00000000
,
00000000
00000000
00000000
00000000
,
00000010
00000000
00000010
00000000
00000100
00000010
00010000
00000000
,
00001000
00000000
00001000
00000000
01000000
00010000
00100000
00000000
,
01000000
00000000
01000000
00000000
10000000
01000000
00100000
00000000
,
00010000
00000000
00010000
00000000
01000000
00001000
00010000
00000000
,
00001000
00011000
00100000
00110000
,
00001000
00011000
00000010
00001010
,
00002000
00000000
00003200
00000000
00000000
00010300
01000000
00100000
,
01000000
00100000
01100000
10010000
,
00100000
10000000
01000000
00010000
,
00001000
00000010
00000001
00000100
,
00001000
00000000
00000000
00000000
00001000
00000000
00000000
00000000
00010000
00000000
00000000
00000000
00010000
00000000
00000000
00000100
,
00000000
00000000
00010000
00000000
00000000
00001000
00000000
00000000
00100000
00000000
00000000
00001000
00000000
00000000
00010000
00000000
,
00000000
00002000
00000000
00000000
,
00023000
00000000
00000000
00031000
,
00100000
01000000
11000000
01010000
,
00100000
01000000
00110000
00101000
,
00010000
00000100
00011000
00010100
,
00000010
00000100
00000011
00000101
,
00000001
00000000
00000100
00000000
00000001
00000100
00001000
00000000
,
00010000
00000000
00001000
00000000
00010000
01000000
10000000
00100000
,
00000000
01000000
00000000
00001000
00000000
00010000
00000000
00000100
,
00001000
00000010
00000100
00000001
00000010
00000000
00000010
00000000
,
00000001
00000000
00001001
00000000
00001000
00000100
00000000
00000000
,
00001000
00000000
00011000
00000000
10000000
01000000
00000000
00000000
,
00100000
00000000
01100000
00000000
00010000
00001000
00000000
00000000
,
00000010
00000000
00000110
00000000
00001000
00010000
00000000
00011000
,
00000000
00001000
00000000
00000100
00000000
00000001
00000000
00000010
,
00000100
00001000
00000010
00000000
00010000
00001000
00000100
00000000
,
00000110
00000000
00001001
00000000
00000100
00000100
00000100
00000000
,
00000200
00000001
00000010
00001300
,
00011000
00110000
00011000
00001010
,
00011000
00110000
00011000
00001010
,
00000100
00000001
00000100
00001000
00000100
00000000
00000010
00000000
,
00001000
00000100
00010000
00001000
,
00011000
01010000
00011000
00001100
,
00011000
01010000
00011000
00001100
,
00000100
00010000
00001000
00100000
00010000
00000000
00100000
00000000
,
00010000
01000000
00100000
10000000
,
00100000
00011000
00000010
00011000
,
00010000
00001000
00010000
00001000
,
00000100
00000001
00000010
00001000
,
00010000
01000000
10000000
00100000
,
01000000
00011000
00000100
00011000
,
00010000
00000000
00001000
00000000
00010000
00000000
00001000
00100000
,
00010000
00110000
00001000
00001100
,
00000100
00000001
00000010
00000100
,
00020000
00000000
00001000
00031000
,
00022000
00000000
00000000
00033000
00000000
00000000
00011000
00000000
,
00011000
00001100
00011000
01010000
,
00011000
00001100
00011000
01010000
,
00100000
10000000
00100000
00010000
00100000
00000000
01000000
00000000
,
00010000
00100000
00001000
00010000
,
00011000
00001010
00011000
00110000
,
00011000
00001010
00011000
00110000
,
00100000
00001000
00010000
00000100
00001000
00000000
00000100
00000000
,
00001000
00000010
00000100
00000001
,
00000100
00011000
01000000
00011000
,
00001000
00010000
00001000
00010000
,
00100000
10000000
01000000
00010000
,
00001000
00000010
00000001
00000100
,
00000010
00011000
00100000
00011000
,
00001000
00000000
00010000
00000000
00001000
00000000
00010000
00000100
,
00001000
00001100
00010000
00110000
,
00100000
10000000
01000000
00100000
,
00002000
00000000
00013000
00011000
,
00000100
00000010
00000011
00001010
,
00000100
00000010
00001100
00010100
,
00001000
00100000
00011000
00101000
,
00110000
11000000
01100000
10010000
,
00000000
00000000
00000000
00000000
;
#NOTES:
     dance-double:
     :
     Hard:
     13:
     :
00000000
00000000
00000000
00000000
,
00000000
00000000
00000000
00000000
,
00000000
00000000
00000000
00000000
,
00000000
00000000
00000000
00000000
,
00000000
00000000
00000000
00000000
,
00000001
00000000
00000000
00000001
00000100
00000000
00000010
00000000
00001000
00000000
00000000
00001000
00000100
00000000
00010000
00000000
,
00001000
00100000
01000000
00010000
01000000
10000000
01000000
00000000
,
10000000
00000000
00000000
10000000
00100000
00000000
01000000
00000000
00010000
00000000
00000000
00010000
00100000
00000000
00001000
00000000
,
00010000
00000100
00000010
00001000
00000010
00000001
00000010
00000000
,
00000010
00000000
00000000
00000100
00000000
00000000
00001100
00000000
00010000
00000000
00000000
00001000
00000000
00000000
00110000
00000000
,
10000000
00100000
01000000
00010000
00100000
00001000
00200000
00000000
,
00302000
00000000
00100000
00000000
00013000
00001000
00100000
10000000
,
00100000
00010000
00001000
00000100
00000001
00000000
00000110
00000000
,
00000002
00000103
00000020
00001030
,
00000200
00010300
00002000
00103000
,
00020000
00000000
00000000
00000000
10030000
00000000
00000000
00000000
00200000
00000000
00000000
00000000
01300000
00000000
00000000
00100000
,
00000000
00000000
10000000
00000000
00000000
00100000
00000000
00000000
00010000
00000000
00000000
00001000
00000000
00000000
00000100
00000010
,
00000000
00000000
00000000
00000000
00000220
00000000
00000000
00000000
00000330
00000000
00000000
00001000
00000100
00000000
00010000
00000000
,
00001000
00000000
00000000
00000000
00000000
00000000
00022000
00000000
00000000
00033000
00000000
00000000
00011000
00000000
00000000
00000000
,
00001000
00000000
00010000
00001000
00010000
00000000
00000010
00000000
00000100
00000000
00000001
00000000
00000010
00000000
00001000
00000000
,
00000010
00000000
00000001
00000100
00000001
00000000
00000010
00000000
00001000
00000000
00010000
00000000
01000000
00000000
10000000
00000000
,
00100000
00000000
00000000
01000000
00000000
00100000
10000000
00000000
00100000
00000000
01000000
00000000
10000000
00000000
01000000
00000000
,
00010000
00100000
10000000
00100000
00001000
00010000
00011000
00000000
,
00010000
00000000
00001000
00010000
00001000
00000000
01000000
00000000
00100000
00000000
10000000
00000000
01000000
00000000
00010000
00000000
,
01000000
00000000
10000000
00100000
10000000
00000000
01000000
00000000
00010000
00000000
00001000
00000000
00000010
00000000
00000001
00000000
,
00000100
00000110
00000000
00001100
00000000
00000011
00000000
00000110
,
00001000
00000010
00000001
00000100
00000011
00000000
00001001
00000000
,
00000001
00000000
00000100
00000010
00000100
00000000
00001000
00000000
00010000
00000000
01000000
00000000
00000000
00000000
00010000
00000000
,
01000000
00000000
10000000
00000000
00100000
00000000
00010000
00000000
00100000
00000000
00000000
01000000
00000000
00010000
00100000
00010000
,
00100000
00000000
00001000
00000000
00010000
00000000
00000100
00000000
00000010
00000000
00000100
00000000
00000000
00001000
00000000
00000000
,
00000100
00010000
00000100
00001000
00011000
01010000
00000000
10010000
,
00000000
01100000
00100000
10000000
00010000
00100000
00001000
00010000
,
00001000
00000000
00000100
00000010
00000000
00000100
00000010
00000000
00001000
00000000
00001100
00000000
00001100
00000000
00000000
00000000
,
00001000
00000100
00000010
00000001
00000011
00000110
00001100
00000000
,
00022000
00000000
00000000
00033000
00001000
00100000
00001000
00010000
,
00011000
00000000
00000000
01000000
00010000
00000000
01000000
00000000
00010000
00000000
10000000
00000000
01000000
00000000
00000000
00000000
,
00110000
00000000
00000000
00001000
00010000
00000000
00001000
00000000
00100000
00000000
00001000
00000000
00010000
00000000
00000000
00000000
,
00001000
00000000
00000100
00000000
00000001
00000000
00000010
00000000
00000011
00000000
00000000
00001100
00000000
00001000
00000100
00000000
,
00010000
00001000
00100000
10000000
00010000
01000000
10000000
00100000
,
10100000
00000000
00000000
00010000
01000000
00000000
00010000
00000000
00100000
00000000
00001000
00000000
00010000
00000000
00000000
00000000
,
00011000
00000000
00000000
00010000
00000010
00000000
00001000
00000000
00000001
00000000
00001000
00000000
00000100
00000000
00000000
00000000
,
00000001
00000000
00000100
00000000
00000010
00000000
00001000
00000000
00001010
00000000
00000000
00000101
00000000
00000001
00000100
00000000
,
00000010
00001000
00010000
01000000
00200000
00000000
02300000
00000000
,
03010000
00100000
10000000
00000000
10000000
00100000
00010000
00000000
,
10000000
00100000
00010000
00001000
00000100
00000001
00000010
00001000
,
00000000
00000010
00000001
00000100
00000010
00000010
00001000
00000100
,
00001100
00011000
00101000
01100000
,
00010000
01000000
10000000
00000000
10000000
01000000
00010000
00000000
,
10000000
00000000
01000000
00000000
00010000
00000000
00001000
00000000
00000100
00000000
00000001
00000000
00000010
00000000
00000100
00000010
,
00000100
00000001
00000100
00001000
00000010
00000100
00001000
00010000
,
00011000
00000000
00100000
01010000
00000000
00100000
00001000
00010000
,
00002000
00000000
00010000
00000000
00000010
00000000
00013000
00000100
,
00001000
00000000
00000000
00000100
00000000
00000000
00001001
00000000
,
00011000
00000000
00000000
00000010
00001000
00000000
00000100
00000000
00001000
00000000
00000001
00000000
00000010
00000000
00000000
00000000
,
00001100
00000000
00000000
00010000
00001000
00000000
00010000
00000000
00000100
00000000
00010000
00000000
00001000
00000000
00000000
00000000
,
00010000
00000000
00100000
00000000
10000000
00000000
01000000
00000000
11000000
00000000
00000000
00110000
00000000
00010000
00100000
00000000
,
00001000
00010000
00000100
00000001
00001000
00000010
00000001
00000100
,
00000101
00000000
00000000
00001000
00000010
00000000
00010000
00000000
00000100
00000000
00010000
00000000
00001000
00000000
00000000
00000000
,
00011000
00000000
00000000
00001000
01000000
00000000
00100000
00000000
10000000
00000000
00010000
00000000
00100000
00000000
00000000
00000000
,
10000000
00000000
00100000
00000000
01000000
00000000
00010000
00000000
01010000
00000000
00000000
10100000
00000000
10000000
00100000
00000000
,
01000000
00010000
00001000
00000010
00000200
00000000
00000320
00000000
,
00001030
00000100
00000001
00000000
00000001
00000100
00001000
00000000
,
00000001
00000100
00001000
00010000
00100000
10000000
01000000
00010000
,
00000000
01000000
10000000
00100000
01000000
01000000
00010000
00100000
,
00110000
00011000
00010100
00000110
,
00001000
00000010
00000001
00000000
00000001
00000010
00001000
00000000
,
00000001
00000000
00000010
00000000
00001000
00000000
00010000
00000000
00100000
00000000
10000000
00000000
01000000
00000000
00100000
01000000
,
00100000
10000000
00100000
00010000
01000000
00100000
00010000
00001000
,
00011000
00000000
00000100
00001010
00000000
00000100
00010000
00001000
,
00000000
00000000
00010000
00001000
00010000
00000000
00001000
00000000
00011000
00000000
00000000
00000000
00011000
00000000
00000000
00000000
,
00010000
00000000
00001000
00010000
00001000
00000000
01000000
00000000
00100000
00000000
10000000
00000000
01000000
00000000
00010000
00000000
,
01000000
00000000
10000000
00100000
10000000
00000000
01000000
00000000
00010000
00000000
00001000
00000000
00000010
00000000
00000001
00000000
,
00000100
00000000
00000001
00000010
00000001
00000000
00000100
00000000
00001000
00000000
00000100
00000000
00000001
00000000
00000010
00000000
,
00001000
00010000
01000000
00010000
00001000
00010000
00011000
00000000
,
00000000
00000000
00000000
00000000
;
#NOTES:
     dance-double:
     :
     Challenge:
     15:
     :
00000000
00000000
00000000
00000000
,
00000000
00000000
00000000
00000000
,
00000000
00000000
00000000
00000000
,
00000000
00000000
00000000
00000000
,
00000000
00000000
00000000
00000000
,
10000000
00000000
01000000
00100000
00000000
01000000
00100000
00000000
00001000
00000000
00010000
00001000
00000000
00010000
00001000
00000000
,
00000100
00000010
00000001
00000010
00000200
00000010
00000310
00000000
,
00000001
00000000
00000100
00000010
00000000
00000100
00000010
00000000
00010000
00000000
00001000
00010000
00000000
00001000
00010000
00000000
,
00100000
10000000
01000000
00010000
02000000
00100000
03100000
00000000
,
10010000
00000000
01000000
00001000
00000000
00001000
00100000
00000000
00011000
00000000
00001000
00010000
00000000
00010000
00000100
00000000
,
00001100
00001000
00000101
00000001
00002000
00003010
00000200
00000301
,
00000020
00000000
00000000
00000000
00000000
00000000
00000000
00000000
00000000
00000000
00000031
00001000
00000100
00000000
00010000
00000000
,
00001000
00100000
00001000
00010000
00011000
00000000
00101000
00000000
,
00100000
00010000
10000000
00100000
00010000
10000000
01000000
00010000
,
00001000
00000010
00001000
00000001
00000100
00001000
00010000
00100000
,
10000000
00000000
00010000
00000000
00100000
00000000
00001000
00000000
00000010
00000000
00000100
00000000
00001000
00000000
00000000
00000010
,
00000100
00000000
00000001
00000010
00000000
00000100
00001000
00000000
00010000
00100000
00000000
00010000
01000000
00000000
00100000
10000000
,
00000000
00000000
00000000
00000000
,
00000000
00000000
00000000
01100000
,
00011000
00000000
00001000
00000100
00000010
00000000
00000110
00000000
00000010
00000000
00001000
00000000
00000100
00000000
00000010
00000000
,
00000011
00000000
00000010
00000001
00000010
00000000
00000110
00000000
00000010
00000000
00000001
00000000
00000100
00000000
00000010
00000100
,
00001000
00000000
00010000
00100000
00000000
01000000
00100000
00000000
10000000
00000000
01000000
00000000
00200000
00000000
00000000
00000000
,
01300000
01100000
11000000
01010000
01100000
00000000
00011000
00000000
,
00011000
00000000
00010000
00100000
01000000
00000000
01100000
00000000
01000000
00000000
00010000
00000000
00100000
00000000
01000000
00000000
,
11000000
00000000
01000000
10000000
01000000
00000000
01100000
00000000
01000000
00000000
10000000
00000000
00100000
00000000
01000000
00100000
,
00010000
00001000
00000100
00000010
00000100
00001000
00000200
00000000
,
00000310
00001000
00000010
00001000
00000010
00001000
00000100
00010000
00001000
00000000
00010000
00001000
00010000
00000000
00001000
00000000
,
00000100
00000000
00000010
00000100
00000010
00000000
00001000
00000100
00001000
00000000
00001100
00000000
00000000
00000000
00011000
00000000
,
00010000
00001000
00010000
00000000
00001000
00100000
00010000
01000000
00010000
10000000
00000000
01000000
00000000
10000000
01000000
10000000
,
00010000
01000000
00010000
01000000
00001000
00000000
00010000
00001000
00010000
00000100
00001000
00000001
00000000
00000001
00001000
00000001
,
00000010
00000100
00000010
00000001
00000100
00000010
00001000
00000001
00000010
00000001
00001000
00000000
00000000
00000000
00000110
00000000
,
00000000
00010000
00001000
00011000
00010000
00001000
00011000
00000000
,
00001000
00000000
01000000
00010000
00000000
00010000
00100000
00000000
01100000
00000000
00110000
00000000
00011000
00000000
00010000
00000000
,
00001000
00000100
00001000
00000000
00010000
00100000
00010000
00000000
00100000
00000000
01000000
00000000
01100000
00000000
00000000
00000000
,
00200000
00000000
00000000
00000000
,
10300000
00000000
01000000
10000000
00000000
10000000
01000000
00000000
00110000
00000000
01010000
00000000
00011000
00000000
00000000
00000000
,
00001000
00000000
00010000
00001000
00000000
00001000
00010000
00000000
00001100
00000000
00001010
00000000
00001001
00000000
00000000
00000000
,
00000010
00000000
00000001
00000000
00000100
00000000
00001000
00000000
00020000
00000000
00000000
00031000
00000000
00010000
00100000
01000000
,
00010000
00100000
10000000
00100000
00010000
00001000
00000100
00000010
,
00000110
00000000
00000010
00000001
00000000
00000001
00000010
00000000
00001100
00000000
00001010
00000000
00011000
00000000
00000000
00000000
,
00010000
00000000
00001000
00010000
00000000
00010000
00001000
00000000
00110000
00000000
01010000
00000000
10010000
00000000
00000000
00000000
,
01000000
00000000
10000000
00000000
00100000
00000000
00010000
00000000
00002000
00000000
00000000
00013000
00000000
00001000
00000100
00000010
,
00001000
00000100
00000001
00000100
00001000
00000100
00010000
00001000
,
00100000
00110000
01000000
11000000
,
01100000
10000000
01100000
00010000
01100000
10000000
01100000
00010000
,
00000000
00100000
00001000
00010000
00000100
00001000
00000010
00000001
,
00000010
00001000
00000010
00001000
00000100
00010000
00000100
00010000
00001000
00000000
00100000
00000000
00010000
00000000
00100000
00000000
,
01000000
01100000
00100000
00101000
,
00011000
00000000
01000000
00000000
00011000
00000000
00100000
00000000
00011000
00000000
00000100
00000000
00011000
00000000
00000010
00001000
,
00000100
00000000
00000010
00000000
00000001
00000000
00000010
00000000
00000100
00000000
00001000
00000100
00010000
00001000
00100000
00010000
,
01000000
00000000
00100000
01100000
00000000
00100000
10000000
01000000
,
00020000
00000000
00000000
00000000
,
00000000
00000000
00000000
00031000
,
00000001
00000000
00000100
00000001
00000000
00000001
00000100
00000000
00001010
00000000
00001100
00000000
00011000
00000000
00010000
00000010
,
00010000
00000000
00001000
00010000
00000000
00010000
00001000
00000000
01010000
00000000
00110000
00000000
10010000
00000000
00010000
01000000
,
00100000
00000000
10000000
00000000
01000000
00000000
00010000
00000000
00002000
00000000
00000000
00013000
00000000
00001000
00000010
00000100
,
00001000
00000010
00000001
00000010
00001000
00010000
01000000
00100000
,
01100000
00000000
00100000
10000000
00000000
10000000
00100000
00000000
01010000
00000000
00110000
00000000
00011000
00000000
00001000
01000000
,
00001000
00000000
00010000
00001000
00000000
00001000
00010000
00000000
00001010
00000000
00001100
00000000
00001001
00000000
00001000
00000100
,
00000010
00000000
00000001
00000000
00000010
00000000
00001000
00000000
00020000
00000000
00000000
00031000
00000000
00010000
01000000
00100000
,
00010000
01000000
10000000
01000000
00010000
01000000
00001000
00010000
,
00000010
00001010
00000100
00000101
,
00000110
00000000
00000001
00000100
00000010
00000000
00001000
00000010
00010000
00000000
00001000
01000000
00010000
00000000
10000000
00000000
,
00000000
00010000
00100000
00010000
01000000
00010000
00100000
10000000
,
00100000
00010000
00100000
00010000
01000000
00001000
01000000
00001000
00010000
00000000
00000010
00000000
00001000
00000000
00000010
00000000
,
00000100
00000110
00000010
00010010
,
00011000
00000000
00010000
00001000
00000010
00000000
00000010
00001000
00010000
00000000
00010000
01000000
00100000
00000000
00100000
00010000
,
01000000
00000000
00100000
00000000
10000000
00000000
00100000
00000000
01000000
00000000
00010000
01000000
00001000
00010000
00000010
00001000
,
00000100
00000000
00000010
00001001
00000000
00000100
00001000
00000010
,
00000110
00000000
00000010
00010000
00001000
00000000
01000000
00000000
01010000
00000000
00000000
00000000
01010000
00000000
00000000
00000000
,
00011000
00000000
00001000
00000010
00000100
00000000
00000110
00000000
00000100
00000000
00001000
00000000
00000010
00000000
00000100
00000000
,
00000101
00000000
00000100
00000001
00000100
00000000
00000110
00000000
00000100
00000000
00000001
00000000
00000010
00000000
00000100
00000000
,
00001000
00011000
01000000
01010000
01000000
00010000
00100000
01000000
,
10000000
00100000
00010000
00100000
10000000
00000000
01100000
00000000
,
00000000
00000000
00000000
00000000
;
