
//----- song ID: belv -----//
#TITLE:Believe;
#ARTIST:Chaos Featuring CeCe Peniston;
#BANNER:Believe.png;
#BACKGROUND:Believe-bg.png;
#CDTITLE:./CDTitles/DDR A.png;
#MUSIC:Believe.ogg;
#SAMPLESTART:61.04;
#SAMPLELENGTH:15;
#BPMS:0=128;
#NOTES:
     dance-single:
     :
     Beginner:
     2:
     :
0000
0000
0000
0000
,
0000
0000
0000
0000
,
0000
0000
0000
0000
,
0000
0000
0000
0000
,
0000
0000
0000
0000
,
1000
0000
1000
0000
,
0001
0000
0001
0000
,
0010
0000
0010
0000
,
0100
0000
0100
0000
,
0001
0000
0001
0000
,
1000
0000
1000
0000
,
0010
0000
0010
0000
,
0100
0000
0100
0000
,
1000
0000
1000
0000
,
0001
0000
0001
0000
,
0010
0000
0010
0000
,
0000
0000
0000
0000
,
1000
0000
0000
0000
,
0001
0000
0001
0000
,
0010
0010
0010
0000
,
0000
0000
0000
0000
,
1000
0000
1000
0000
,
0010
0000
0010
0000
,
0001
0001
0001
0000
,
0000
0000
0000
0000
,
0010
0000
0001
0000
,
0010
0010
0010
0000
,
0100
0100
0100
0000
,
0000
0000
0000
0000
,
1000
0000
1000
0000
,
0001
0000
0001
0000
,
0010
0010
0010
0000
,
0000
0000
0000
0000
,
0001
0000
1000
0000
,
0010
0010
0010
0000
,
0010
0000
1001
0000
,
0010
0000
0000
0000
,
0010
0010
0010
0000
,
0100
0000
0100
0000
,
0001
0000
0001
0000
,
0010
0000
0000
0000
,
0020
0000
0000
0030
,
0010
0000
0001
0000
,
1000
0000
1000
0000
,
0010
0010
0000
0000
,
0020
0000
0000
0030
,
0010
0000
0100
0000
,
0001
0000
0001
0000
,
0010
0010
0000
0000
,
0001
0000
0010
0000
,
1000
0000
1000
0000
,
0001
0000
1000
0000
,
0100
0000
0100
0000
,
2000
0000
3000
0000
,
0002
0000
0003
0000
,
0200
0000
0300
0000
,
0020
0000
0030
0000
,
0000
0000
0000
0000
;
#NOTES:
     dance-single:
     :
     Easy:
     4:
     :
0000
0000
0000
0000
,
0000
0000
0000
0000
,
0000
0000
0000
0000
,
0000
0000
0000
0000
,
0000
0000
0000
0000
,
1000
0100
1000
0000
,
0001
0100
0001
0000
,
1000
0010
1000
0000
,
0001
0010
0001
0000
,
1000
0100
0010
0000
,
1000
0100
0010
0000
,
0001
1000
0100
0000
,
0001
1000
0100
0000
,
1000
0010
0100
0000
,
1000
0010
0100
0000
,
0001
0100
1000
0000
,
0000
0000
0000
0000
,
1001
0000
0000
0000
,
0001
1000
0001
1000
,
0010
0000
0001
0000
,
1000
0000
1000
0000
,
0100
0000
0010
0010
,
0100
0000
0001
1000
,
0001
0010
0010
0000
,
1000
0000
0000
0000
,
0010
0000
1000
0100
,
1000
0100
1000
0000
,
0010
0001
0010
0000
,
0001
0000
0001
0000
,
0100
0000
0010
1000
,
0010
0000
1000
1000
,
0001
1000
0100
0000
,
2000
0000
0000
3001
,
1000
0001
0100
0000
,
0001
0000
0010
0000
,
0001
1000
1001
0000
,
0001
0000
1000
0000
,
0010
0100
0010
0000
,
0001
0010
0100
0000
,
2000
0000
0000
3010
,
0002
0000
0000
0103
,
0001
0000
0000
1000
,
0100
0000
0010
0010
,
0002
1003
2000
3001
,
0001
0000
0010
0100
,
0010
0000
0000
0001
,
0100
0000
0010
0010
,
2000
3001
0002
1003
,
1000
0020
0000
0030
,
0001
0001
0100
0100
,
0001
0001
1000
1000
,
0010
0010
1000
1000
,
0001
0001
0010
0010
,
0000
0001
0000
1000
,
0000
0100
0000
1000
,
0000
0010
0000
0100
,
0000
0001
0000
1000
,
0000
0000
0000
0000
;
#NOTES:
     dance-single:
     :
     Medium:
     9:
     :
0000
0000
0000
0000
,
0000
0000
0000
0000
,
0000
0000
0000
0000
,
0000
0000
0000
0000
,
0000
0000
0000
0000
0000
0000
0001
1000
,
0000
0000
0010
0000
1000
0000
0001
0100
,
0000
0000
0001
0000
1000
0000
0100
0010
,
0000
0000
0001
0000
1000
0000
0001
0010
,
0000
0000
0100
0000
1000
0000
0001
1000
,
0010
0000
0100
0000
0001
0000
0010
0001
,
0100
0000
0010
0000
1000
0000
0001
0100
,
0010
0000
1000
0000
0010
0000
0100
0001
,
0010
0000
0100
0000
1000
0000
0001
0010
,
0001
0000
1000
0000
0010
0000
1000
0001
,
0010
0000
0001
0000
0100
0000
0010
0100
,
0001
0000
1000
0000
0100
0000
1000
0001
,
0000
0000
0000
0000
,
0110
0000
0000
0000
0001
0100
0001
0000
,
0100
0010
1000
0000
0100
0000
0100
0000
,
1000
0010
0100
0010
0100
0000
0001
0000
,
1000
0100
0001
0100
,
1000
0000
0000
0000
0010
0100
0001
0000
,
0100
0001
0010
0000
0100
0000
0100
0000
,
0001
1000
0100
1000
0100
0000
1000
0000
,
0001
0100
1000
0100
,
0001
0000
0000
0000
1000
0100
1000
0000
,
0100
1000
0010
0000
0100
0000
0100
0000
,
1000
0001
0100
0001
0100
0000
0001
0000
,
0010
0100
1000
0010
,
0100
0000
0000
0000
0001
0100
0001
0000
,
0100
0001
0010
0000
0110
0000
0110
0000
,
0001
1000
0100
1000
0100
0000
0010
0000
,
0001
0100
0010
0100
,
0001
0000
0010
0001
1000
0000
0100
0000
,
1000
0001
0100
0000
1000
0001
0100
0000
,
0010
1010
0101
1100
,
0001
1000
0100
0000
0001
1000
0100
0000
,
1000
0000
0010
1000
0001
0000
0100
0000
,
0001
0010
0100
0000
0001
0010
0100
0000
,
2000
0000
3010
0000
0010
1000
0100
0010
,
0002
0000
0100
0103
,
0002
0000
0000
0000
0000
0000
0103
0010
,
1000
0000
0100
0000
0010
0001
0010
0001
,
0010
0000
0100
0000
1000
0100
1000
0000
,
0001
0000
0100
0000
0010
0000
1000
0100
,
2000
0000
0000
0000
0000
0000
3100
0010
,
0001
0000
0100
0000
0010
1000
0010
0100
,
0010
0000
1000
0000
0100
0000
1000
0001
,
0100
0010
0200
0000
0000
0000
0300
0000
,
0001
0101
1000
1100
,
0001
0000
0011
0000
0100
0001
0010
0001
,
0100
0101
1000
1100
,
0010
0000
1010
0000
0100
0000
0001
0100
,
0000
0000
0000
0000
0000
0000
1000
0100
,
0000
0000
0000
0000
0000
0000
0001
0010
,
0000
0000
0000
0000
0000
0000
1000
0010
,
0000
0000
0000
0000
0000
0000
0001
0100
,
0000
0000
0000
0000
;
#NOTES:
     dance-single:
     :
     Hard:
     11:
     :
0000
0000
0000
0000
,
0000
0000
0000
0000
,
0000
0000
0000
0000
,
0000
0000
0000
0000
,
0000
0000
0000
0000
0000
0000
0001
0200
,
0000
0000
0301
0000
1000
0100
1000
0200
,
0000
0000
0310
0000
0001
0100
0001
0200
,
0000
0000
0310
0000
1000
0001
1000
0200
,
0000
0000
1300
0000
0010
1000
0010
0200
,
0000
0000
0301
0010
0001
1000
0100
1000
,
0010
0000
0100
0010
1000
0010
0001
0010
,
0100
0000
0001
0010
0100
1000
0001
0010
,
0100
0000
1000
0001
0100
0010
1000
0010
,
0100
0000
0001
0010
0001
1000
0100
0010
,
1000
0000
0010
0001
0010
0100
1000
0010
,
0100
0000
1000
0100
0001
0010
0001
0100
,
0000
0000
0000
0000
0000
0000
0000
0110
,
1001
0000
0000
0000
0001
0010
0001
0010
,
0100
1000
0100
0010
0100
1000
0010
0100
,
1000
0100
0010
0100
0001
0000
1100
0000
,
0011
0000
0100
0000
1000
0000
0010
0100
,
0001
0000
1000
0000
0100
1000
0100
0010
,
0100
1000
0001
0010
0100
0010
0100
1000
,
0100
0010
0001
0100
0010
0000
1010
0000
,
0101
0000
1000
0000
0100
0000
0010
0001
,
0010
0000
1001
0000
1000
0100
1000
0010
,
0100
0010
0001
0010
1000
0100
1000
0001
,
0010
0100
0110
0000
1001
0000
0110
0100
,
0002
0000
0100
0000
1000
0000
0103
0010
,
1000
0000
1001
0000
0001
0100
0001
0010
,
0100
1000
0001
0010
0100
0010
0001
0100
,
0010
1000
1010
0000
0101
0000
1100
0100
,
1000
0000
0001
0000
0100
0010
0000
0010
,
1000
0000
0001
0100
0001
1000
0100
0000
,
1000
0100
0010
0100
0001
0100
0010
0100
,
1000
0001
0000
1010
0000
1001
0100
0010
,
1000
0001
0100
0001
0010
0100
1000
0001
,
0100
0000
0010
1000
0001
1000
0100
1000
,
0001
0100
0001
1000
0010
1000
0001
0100
,
0002
0000
0010
0000
0103
0010
0100
0001
,
1000
0000
0100
0000
0010
0100
1000
0001
,
2000
0000
0001
0000
3010
0000
0010
0100
,
0001
0100
0000
1001
0100
0010
0100
0010
,
0001
0000
1010
0100
0001
0010
0100
1000
,
0100
0010
0001
0100
1000
0100
1000
0100
,
0002
0000
1000
0000
0103
0000
1000
0100
,
0010
0001
0000
0011
0001
0100
0001
1000
,
0100
0000
0011
0100
1000
0100
0010
0001
,
0100
0010
2000
0000
0000
0000
3000
0000
,
0101
0000
1100
0000
1000
0100
1000
0010
,
1000
0000
1100
0100
0010
0100
1000
0001
,
0100
0000
1010
0000
0100
0010
1000
0001
,
0100
0000
0101
0100
0001
0010
0100
1000
,
0000
0000
0010
0000
1000
0010
1000
0200
,
0000
0000
0310
0000
0001
0010
0001
0200
,
0000
0000
0310
0000
1000
0001
0010
0200
,
0000
0000
1300
0000
0001
1000
0010
0200
,
0000
0300
0000
0000
,
0000
0000
0000
0000
;
#NOTES:
     dance-double:
     :
     Easy:
     5:
     :
00000000
00000000
00000000
00000000
,
00000000
00000000
00000000
00000000
,
00000000
00000000
00000000
00000000
,
00000000
00000000
00000000
00000000
,
00000000
00000000
00000000
00000000
,
00000001
00000100
00001000
00000000
,
00001000
00010000
00100000
00000000
,
00100000
10000000
01000000
00000000
,
01000000
00010000
00001000
00000000
,
00001000
00000100
00000001
00000000
,
00000001
00000010
00001000
00000000
,
00001000
00010000
01000000
00000000
,
01000000
10000000
00100000
00000000
,
00100000
00010000
00001000
00000000
,
00001000
00000010
00000001
00000000
,
00000001
00000100
00001000
00010000
,
00000000
00000000
00000000
00000000
,
00011000
00000000
00000000
00000000
,
00010000
00001000
00000010
00001000
,
00010000
00001000
01000000
00000000
,
00100000
00000000
00010000
00000000
,
00001000
00000000
00100000
00100000
,
01000000
00000000
00010000
00001000
,
00000100
00000001
00000001
00000000
,
00000100
00000000
00001000
00000000
,
00010000
00000000
00001000
00010000
,
00001000
01000000
00100000
00100000
,
10000000
01000000
00010000
00000000
,
00001000
00000000
00010000
00000000
,
00001000
00000000
00000010
00000001
,
00000010
00000000
00001000
00001000
,
00010000
00001000
00000100
00000000
,
00000001
00000000
00000000
00001000
,
00000010
00000100
00001000
00000000
,
00010000
00010000
00001000
00000000
,
00010000
01000000
10010000
00000000
,
00100000
00100000
00010000
00000000
,
00001000
00010000
00001000
00000000
,
00000010
00001000
00010000
00000000
,
00002000
00000000
00000000
00003100
,
00000002
00000000
00000000
00000013
,
00001000
00000000
00000000
00010000
,
00001000
00000000
00000100
00000100
,
00002000
00013000
00020000
01030000
,
10000000
10000000
00100000
00010000
,
00001000
00000000
00000000
00010000
,
00001000
00000000
00000010
00000010
,
00002000
00013000
00020000
00130000
,
10000000
02000000
00000000
03000000
,
00010000
00010000
00001000
00001000
,
00000010
00000001
00000100
00001000
,
00010000
00010000
00001000
00001000
,
00010000
00100000
00010000
00001000
,
00000000
00010000
00000000
01000000
,
00000000
10000000
00000000
00100000
,
00000000
00010000
00000000
00001000
,
00000000
00000100
00000000
00000001
,
00000000
00000000
00000000
00000000
;
#NOTES:
     dance-double:
     :
     Medium:
     9:
     :
00000000
00000000
00000000
00000000
,
00000000
00000000
00000000
00000000
,
00000000
00000000
00000000
00000000
,
00000000
00000000
00000000
00000000
,
00000000
00000000
00000000
00000000
00000000
00000000
00010000
00001000
,
00000000
00000000
00000010
00000000
00000001
00000000
00000100
00000010
,
00000000
00000000
00000100
00000000
00001000
00000000
00010000
00001000
,
00000000
00000000
00010000
00000000
00100000
00000000
10000000
00100000
,
00000000
00000000
00010000
00000000
00001000
00000000
00010000
00001000
,
00010000
00000000
00001000
00000000
00000010
00000000
00000001
00000010
,
00000100
00000000
00001000
00000000
00000010
00000000
00000100
00001000
,
00010000
00000000
00001000
00000000
00010000
00000000
00100000
01000000
,
00100000
00000000
00010000
00000000
00001000
00000000
00010000
00001000
,
00010000
00000000
00000100
00000000
00000010
00000000
00001000
00010000
,
00001000
00000000
00010000
00000000
01000000
00000000
00100000
00010000
,
01000000
00000000
00100000
00000000
00010000
00000000
00001000
00010000
,
00000000
00000000
00000000
00000000
,
00001000
00000000
00000000
00000000
00010000
00001000
00010000
00000000
,
00000010
00010000
00001000
00000000
00000100
00000000
00000001
00000000
,
00000100
00000010
00000100
00001000
00010000
00000000
00010000
00000000
,
01000000
10000000
00100000
00010000
,
00001000
00000000
00000000
00000000
00100000
00001000
00010000
00000000
,
00100000
00010000
01000000
00000000
00100000
00000000
00010000
00000000
,
00001000
00010000
01000000
00010000
00001000
00000000
00001000
00000000
,
00000100
00000001
00000010
00001000
,
00010000
00000000
00000000
00000000
00001000
00010000
00001000
00000000
,
00000100
00000010
00000100
00000000
00000001
00000000
00000001
00000000
,
00000010
00000100
00000010
00001000
00010000
00000000
00001000
00000000
,
00010000
00100000
10000000
01000000
,
00010000
00000000
00000000
00000000
00010000
00001000
00010000
00000000
,
00100000
00001000
00010000
00000000
00011000
00000000
00001100
00000000
,
00000010
00000001
00000010
00000100
00000010
00000000
00001000
00000000
,
00010000
00001000
00000100
00000001
,
00000100
00000000
00001000
00010000
00001000
00000000
01000000
00000000
,
00100000
00010000
00001000
00000000
00100000
00010000
00001000
00000000
,
00000010
00000011
00001100
00011000
,
00000010
00010000
00001000
00000000
00000010
00010000
00001000
00000000
,
00010000
00000000
00100000
10000000
00010000
00000000
00100000
00000000
,
00001000
00010000
01000000
00000000
00001000
00010000
01000000
00000000
,
00020000
00000000
00031000
00000000
00001000
00000100
00000001
00000010
,
00002000
00000000
00010000
00013000
,
00002000
00000000
00000000
00000000
00003000
00000000
00000010
00001000
,
00010000
00000000
00001000
00000000
00100000
00010000
00100000
01000000
,
10000000
00000000
00100000
00000000
00010000
00001000
00010000
00000000
,
00001000
00000000
00000100
00000000
00000010
00000000
00000100
00000001
,
00000020
00000000
00000000
00000000
00000000
00000000
00000031
00000100
,
00001000
00000000
00010000
00000000
00000010
00000100
00001000
00010000
,
00001000
00000000
00010000
00000000
00100000
00000000
10000000
00010000
,
00100000
01000000
00020000
00000000
00000000
00000000
00030000
00000000
,
00001000
00010100
00000010
00001010
,
00001000
00000000
00011000
00000000
01000000
00100000
00010000
00100000
,
01000000
01010000
10000000
11000000
,
00100000
00000000
00101000
00000000
00010000
00000000
00001000
00010000
,
00000000
00000000
00000000
00000000
00000000
00000000
00000010
00000100
,
00000000
00000000
00000000
00000000
00000000
00000000
00001000
00010000
,
00000000
00000000
00000000
00000000
00000000
00000000
01000000
00100000
,
00000000
00000000
00000000
00000000
00000000
00000000
00010000
00001000
,
00000000
00000000
00000000
00000000
;
#NOTES:
     dance-double:
     :
     Hard:
     11:
     :
00000000
00000000
00000000
00000000
,
00000000
00000000
00000000
00000000
,
00000000
00000000
00000000
00000000
,
00000000
00000000
00000000
00000000
,
00000000
00000000
00000000
00000000
00000000
00000000
10000000
02000000
,
00000000
00000000
03010000
00000000
00001000
00010000
00001000
00020000
,
00000000
00000000
00130000
00000000
00010000
00001000
00010000
00000200
,
00000000
00000000
00000310
00000000
00000001
00001000
00000001
00000200
,
00000000
00000000
00001300
00000000
00010000
00001000
00100000
02000000
,
00000000
00000000
13000000
00100000
00010000
00001000
00010000
00001000
,
00100000
00000000
01000000
00100000
00001000
00010000
00001000
00000100
,
00000010
00000000
00000001
00000010
00001000
00000100
00001000
00000100
,
00010000
00000000
00001000
00010000
01000000
00100000
00010000
00100000
,
01000000
00000000
10000000
01000000
00010000
00001000
00010000
00001000
,
00000100
00000000
00000001
00000100
00001000
00000100
00000010
00000100
,
00001000
00000000
00010000
00001000
00010000
00100000
00010000
00001000
,
00000000
00000000
00000000
00000000
,
10010000
00000000
00000000
00000000
10000000
00100000
00010000
00100000
,
00010000
00001000
00000010
00001000
00000010
00000001
00001000
00000100
,
00000010
00001000
00010000
01000000
00010000
00000000
00011000
00000000
,
00110000
00000000
10000000
00000000
01000000
00000000
00010000
00001000
,
00010000
00000000
00000100
00000000
00000010
00000001
00000100
00000010
,
00000100
00001000
00010000
00001000
00010000
01000000
10000000
00100000
,
01000000
00100000
00010000
00001000
00100000
00000000
00011000
00000000
,
00010100
00000000
00000010
00000000
00000001
00000000
00000100
00001000
,
00010000
00000000
00101000
00000000
00010000
01000000
00100000
00010000
,
00001000
00010000
00001000
00000100
00000010
00000100
00001000
00010000
,
00001000
00100000
01000000
00000000
00110000
00000000
00011000
00001000
,
00020000
00000000
00001000
00000000
01000000
00000000
00031000
00010000
,
00000010
00000000
00000120
00000000
00000031
00000010
00001000
00000100
,
00000010
00001000
00010000
00100000
10000000
00100000
00010000
00001000
,
00000010
00001000
00010000
00000000
00001100
00000000
00000011
00000100
,
00001000
00000000
00011000
00000000
01000000
00100000
00000000
00100000
,
00010000
00000000
00001000
00010000
00000100
00010000
00001000
00000000
,
00000010
00000001
00000010
00001000
00010000
01000000
10000000
01000000
,
00010000
00001000
00000000
00010010
00000000
00001000
00100000
00010000
,
01000000
00010000
00100000
01000000
00010000
00001000
00010000
01000000
,
00100000
00000000
00010000
00001000
00000010
00001000
00010000
00001000
,
00000100
00000010
00000100
00001000
00010000
00100000
00010000
00001000
,
00020000
00000000
00100000
00000000
00031000
00100000
01000000
10000000
,
01000000
00000000
00010000
00000000
00001000
00010000
01000000
00010000
,
00002000
00000000
00000100
00000000
00013000
00000000
00000100
00000010
,
00001000
00010000
00000000
00010000
00001000
00001000
00000100
00000001
,
00001000
00000000
00000110
00000001
00000100
00001000
00010000
00100000
,
01000000
00010000
00100000
01000000
10000000
01000000
00010000
00001000
,
00020000
00000000
01000000
00000000
01030000
00000000
00010000
00001000
,
00000010
00001000
00000000
00001000
00010000
00010000
00100000
01000000
,
00010000
00000000
10100000
10000000
00010000
01000000
00100000
00010000
,
00001000
00010000
00002000
00000000
00000000
00000000
00003000
00000000
,
00010100
00000000
00001100
00000000
00000010
00001000
00010000
00100000
,
01000000
00000000
00100000
00100000
10000000
01000000
00010000
00001000
,
00010000
00000000
01001000
00000000
00100000
00010000
00001000
00010000
,
00000100
00000000
00000010
00000010
00000001
00000100
00001000
00010000
,
00000000
00000000
00100000
00000000
10000000
01000000
00010000
00002000
,
00000000
00000000
00013000
00000000
00001000
00000100
00000001
00000020
,
00000000
00000000
00001030
00000000
00010000
00100000
10000000
00200000
,
00000000
00000000
00310000
00000000
00001000
00000010
00000001
00000020
,
00000000
00000030
00000000
00000000
,
00000000
00000000
00000000
00000000
;
