
//----- song ID: beah -----//
#TITLE:Be a Hero!;
#ARTIST:中島由貴;
#ARTISTTRANSLIT:Yuki Nakashima;
#BANNER:Be a Hero!.png;
#BACKGROUND:Be a Hero!-bg.png;
#CDTITLE:./CDTitles/DDR A.png;
#MUSIC:Be a Hero!.ogg;
#SAMPLESTART:70.125;
#SAMPLELENGTH:15;
#BPMS:0=190;
#NOTES:
     dance-single:
     :
     Beginner:
     7:
     :
0000
0000
0000
0000
,
0000
0000
0000
0000
,
0000
0000
0000
0000
,
0000
0000
0000
0000
,
0000
0000
0000
0000
,
0000
0000
0000
0000
,
1000
0100
0001
0010
,
0100
0100
0100
0000
,
0001
0001
1000
1000
,
0010
0100
0001
0000
,
0001
0100
1000
0010
,
0100
0100
0100
0000
,
1000
1000
0001
0001
,
0010
0100
0010
0100
,
0000
1000
0100
0010
,
0002
1003
2000
3001
,
0010
0100
0020
0000
,
0030
0000
0000
0000
,
0000
0001
1000
0010
,
0100
0010
1000
0001
,
0020
0100
0130
0010
,
0002
0000
1003
0000
,
0000
1000
0001
0100
,
0020
1030
0002
0013
,
0100
0010
0002
0000
,
0003
0000
0000
0000
,
0000
0001
1000
0001
,
0100
0010
0100
0000
,
0001
0001
1000
1000
,
0010
0010
0100
0100
,
2002
0000
0000
0000
,
3003
0000
0000
0000
,
0000
0000
0000
0000
0000
0000
0000
0010
,
0000
0000
0100
0000
0000
0010
0000
0000
,
1001
0000
0000
0000
,
0000
0000
0000
0000
,
0000
0000
0000
0000
0000
0000
0000
0100
,
0000
0000
0010
0000
0000
0100
0000
0000
,
1001
0000
0000
0000
,
1000
0100
0020
0031
,
0001
0100
0020
1030
,
1000
0000
0001
1000
,
0020
0000
0100
0130
,
0001
0001
0010
0000
,
0100
0100
1000
0000
,
1001
1001
1001
0000
,
0110
0110
0110
0000
,
0001
1000
0010
0100
,
0010
1000
0001
0100
,
0001
0000
1000
1000
,
0100
0010
0100
0000
,
1001
0000
0110
0000
,
1001
0000
0110
0000
,
1000
0001
1000
0001
,
0010
0100
0010
0200
,
0000
0000
0310
0000
,
1000
0100
1000
0100
,
0010
0001
0010
0001
,
0100
0010
0100
0010
,
1000
0001
1000
0000
,
0000
0001
0001
0010
,
0100
1000
0001
1000
,
0100
0100
0010
0010
,
0001
0001
1001
0000
,
1000
0100
1000
0100
,
0010
0001
0010
0001
,
0100
0010
0100
0010
,
1000
0001
2000
0000
,
3002
0000
0023
0000
,
0230
0000
2300
0000
,
3002
0000
0203
0000
,
0320
0000
1030
1000
,
2002
0000
0000
0000
,
3003
0000
0000
0000
,
1000
0100
0001
0010
,
0100
1000
0010
0001
,
1000
0001
1000
0000
,
0110
0110
1001
0000
,
0002
1003
2000
3001
,
0020
0130
0200
0310
,
0001
1000
0001
1000
,
0100
0010
0100
0010
,
0000
0000
0000
0000
,
1000
0100
1000
0100
,
0010
0001
0010
0001
,
0100
0010
0100
0010
,
1000
0001
2000
0000
,
3002
0000
0023
0000
,
0230
0000
2300
0000
,
3002
0000
0203
0000
,
0320
0000
1030
1000
,
2002
0000
0000
0000
,
3003
0000
0000
0000
,
0001
0001
1000
1000
,
0010
0100
0010
1000
,
1001
0000
0000
0000
,
0110
0000
0000
0000
,
1001
0000
0000
0000
,
0110
0000
0000
0110
,
1001
0000
0000
0000
,
0000
0000
0000
0000
;
#NOTES:
     dance-single:
     :
     Easy:
     9:
     :
0000
0000
0000
0000
,
0000
0000
0000
0000
,
0000
0000
0000
0000
,
0000
0000
0000
0000
,
0000
0000
0000
0000
,
0000
0000
0000
0000
,
1000
0100
0010
0000
0001
0000
1000
0000
,
0001
0100
0001
0000
1000
0000
0010
0000
,
2000
3100
0002
0103
,
0010
0010
0100
0100
,
1000
0001
0100
0000
0001
0000
1000
0000
,
0010
1000
0100
0000
0010
0000
0001
0000
,
0200
1000
0010
0301
,
2000
0100
0001
3010
,
0000
0000
0010
0000
1000
0001
0100
0000
,
0010
0000
1000
0000
0001
1000
0100
0000
,
0010
0001
1000
0100
,
1000
0100
0010
0000
0002
0000
1003
0000
,
0000
0000
0001
0000
0100
0010
1000
0000
,
0010
0000
0100
0000
0010
1000
0001
0000
,
1000
0001
0010
0100
,
0110
0110
1001
1001
,
0000
0000
1000
0000
0100
0010
0001
0000
,
1000
0001
0100
0000
0010
0000
0010
0000
,
1000
0000
0001
0000
0010
0001
1000
0000
,
0001
0100
0010
1000
,
0000
0000
0001
0000
0010
0100
1000
0000
,
0100
0010
0001
0000
1000
0001
1000
0000
,
1100
1100
0011
0011
,
0110
0110
1001
0110
,
2002
0000
0000
0000
0000
0000
0000
3003
,
0000
0000
0000
1000
0000
0100
0010
0001
,
1000
0000
0000
0000
0000
0000
0000
0001
,
0000
1000
0000
0000
0001
0000
0000
1000
0000
0000
0001
0000
0100
0000
0010
0000
,
1000
0000
0000
0000
,
0000
0000
0000
0001
0000
0100
0010
1000
,
0001
0000
0000
0000
0000
0000
0000
1000
,
0000
0001
0000
0000
1000
0000
0000
0001
0000
0000
1000
0000
0100
0000
0010
0000
,
0001
0000
0001
0001
,
1000
0000
0100
0000
0010
0001
0010
0000
,
0100
0000
1000
0000
0001
0100
0001
0000
,
1000
1000
0001
0001
,
0010
0100
0010
0000
0100
0000
0100
0000
,
2000
0000
0000
3001
0000
0000
0010
0000
,
0200
0000
0000
1300
0000
0000
0100
0000
,
0010
0000
0001
0000
1000
0001
1000
0000
,
0010
0100
0010
0000
1000
0000
0001
0000
,
1000
0000
0100
0000
0010
0001
0010
0000
,
0100
0000
1000
0000
0001
0100
0001
0000
,
0010
0010
0100
0100
,
1000
0100
0010
0001
0010
0000
0010
0000
,
0001
0010
0001
0010
0000
0100
0100
0100
,
0000
1000
1000
1000
0000
0000
0001
0000
,
1000
1000
0010
0010
,
0100
0100
0001
2002
,
0000
3003
0000
0000
,
1000
0100
1000
0000
0100
0000
0010
0000
,
0001
0100
0001
0000
1000
0000
0010
0000
,
1000
0001
1000
0000
0001
0000
0010
0000
,
0001
1000
0001
0000
0100
0000
0010
0000
,
1000
0000
1000
0000
0100
0010
0001
0000
,
0100
0001
1000
0000
0010
1000
0001
0000
,
0200
0301
0002
1003
,
2000
3010
0100
0110
,
0001
0100
0001
0000
0100
0000
0010
0000
,
1000
0100
1000
0000
0001
0000
0010
0000
,
0001
1000
0001
0000
1000
0000
0010
0000
,
1000
0001
1000
0000
0100
0000
0010
0000
,
0002
0000
0000
2003
0000
0000
0000
3020
,
0000
0000
0000
0230
0000
0000
0310
0000
,
1000
1000
0000
0001
0000
0001
0000
0100
,
0000
0010
0000
0000
1000
0000
0010
0000
,
2002
0000
3003
0000
,
0000
0000
0000
0000
,
1000
0100
0010
0000
0100
0010
0001
0000
,
1000
0001
0100
0010
,
1000
0010
0100
0000
0001
0000
0100
0000
,
0001
1000
0001
1000
0001
0000
1001
0000
,
0001
0001
0100
0100
,
1000
1000
0010
0010
,
0001
0001
1000
1000
,
0110
1001
0110
1001
,
0000
0000
0000
0000
,
1000
0010
1000
0000
0010
0000
0100
0000
,
0001
0010
0001
0000
1000
0000
0100
0000
,
1000
0001
1000
0000
0001
0000
0100
0000
,
0001
1000
0001
0000
0010
0000
0100
0000
,
2000
0000
0000
3002
0000
0000
0000
0023
,
0000
0000
0000
0230
0000
0000
0310
0000
,
0001
0001
0000
1000
0000
1000
0000
0100
,
0000
0010
0000
0000
0001
0000
0010
0000
,
2002
0000
0000
0000
,
3003
0000
0000
0000
,
0001
0100
0001
0000
1000
0010
1000
0000
,
0001
0000
0100
0000
0010
1000
0001
0000
,
0110
0000
0000
0000
0000
1000
0000
0001
,
0000
0000
0000
0000
0000
0010
0000
0100
,
0000
0000
0000
0000
0000
1000
0000
0001
,
0000
0000
0000
0010
0000
0100
0000
1001
,
0000
0000
0000
0000
;
#NOTES:
     dance-single:
     :
     Medium:
     13:
     :
0000
0000
0000
0000
,
0000
0000
0000
0000
,
0000
0000
0000
0000
,
0000
0000
0000
0000
,
0000
0000
0000
0000
,
0000
0000
0000
0000
,
1000
0100
0010
0001
1000
0010
0100
0001
,
0020
0100
0130
0010
0100
0000
1000
0000
,
0001
1000
0010
0100
0001
1000
0100
0000
,
0010
0001
1000
0001
0100
0010
1000
0010
,
0100
0001
0010
0001
1000
0001
0100
0010
,
0200
0010
0310
0100
0010
0000
1000
0000
,
0001
0100
0010
0100
0001
1000
0010
1000
,
0001
0010
0100
1000
0001
0100
0010
0000
,
0110
0000
1000
0100
0010
0001
0100
0000
,
0010
1000
0001
0010
0100
1000
0001
0000
,
0100
0001
1000
0000
0010
0100
0001
0000
,
0010
0100
1000
0100
0010
0001
1000
0000
,
1001
0000
0001
0100
0010
1000
0010
0000
,
0100
0010
1000
0001
0000
0010
0100
1000
,
0100
0010
0001
1000
0000
0010
0100
0000
,
0001
1000
0010
0100
0001
1000
0010
0000
,
0110
0000
1000
0001
0010
0100
1000
0000
,
0010
0100
0001
1000
0000
0001
0010
0100
,
1000
0001
1000
0100
0000
0010
0001
0000
,
1000
0010
0100
0001
1000
0100
0010
0000
,
1001
0000
0001
0010
0100
1000
0001
0000
,
0100
0010
1000
0001
0000
0010
0100
1000
,
0001
0100
0010
1000
0001
0010
0100
1000
,
0001
0100
0010
1000
0100
0010
0001
0100
,
0020
0000
0000
0000
0000
0000
0000
0030
,
0000
0000
0000
0010
0000
1000
0001
0100
,
0110
0000
0000
0000
0000
0000
0000
0101
,
0000
1100
0000
0000
0110
0000
0000
1100
0000
0000
0001
0000
1000
0000
0010
0000
,
0110
0000
0000
0000
,
0000
0000
0000
0010
0000
1000
0100
0010
,
0011
0000
0000
0000
0000
0000
0000
1100
,
0000
0101
0000
0000
0110
0000
0000
0101
0000
0000
1000
0000
0100
0000
0010
0000
,
0011
0000
0000
0000
0010
0010
0010
0000
,
0001
1000
0010
0100
0001
1000
0100
0010
,
0001
0010
0100
1000
0000
0001
0100
0010
,
1000
1000
0001
0000
0010
0010
0100
0000
,
1000
0100
0010
0001
0000
1000
0010
0100
,
0001
0000
0000
1000
0000
0000
0100
0000
0000
0000
0010
0000
0001
0000
0000
0000
,
1000
0000
0000
0010
0000
0000
0100
0000
0000
0000
0001
0000
0100
0000
0000
0000
,
0110
0000
0000
0000
0110
0000
0000
0000
0110
0000
0000
1001
0000
0000
0110
0000
,
0000
0001
1000
0000
0100
0010
0100
0000
,
0010
0001
1000
0000
0001
0100
0010
0000
,
1000
0010
0100
0001
0000
1000
0001
0010
,
0100
0100
0001
0000
0100
0100
1000
0000
,
0010
1000
0100
0010
0001
0000
1001
0000
,
0001
0001
0001
0100
0000
0100
0100
0010
,
0000
0010
0010
1000
0000
0000
1001
0000
,
0001
1000
0010
0100
0001
1000
0100
0010
,
0001
0100
0010
1000
0001
0010
0200
0000
,
0000
0000
1000
0000
1300
0000
0000
0000
0100
0000
0000
0010
0000
0000
0001
0000
,
1000
0100
0001
0100
1000
0100
0010
0001
,
0100
1000
0100
0001
0010
0100
1000
0001
,
0200
0000
0010
0320
0000
1000
1030
0000
,
0010
1000
0001
0100
0000
0001
1000
0000
,
0100
0100
0010
0010
0001
0001
1000
0001
,
0100
0100
0010
0010
1000
1000
0001
1000
,
0100
0001
0100
1000
0001
0100
1000
0100
,
0001
0010
1000
0010
0001
0000
1001
0000
,
0001
0100
1000
0100
0001
0100
0010
1000
,
0100
0001
0100
1000
0010
0100
0001
1000
,
0200
0000
0010
0320
0000
0001
0031
0000
,
1000
0010
0100
0001
0010
0100
1000
0000
,
0001
0010
0100
0020
0000
0130
1000
0002
,
0000
0103
0010
2000
0000
0000
3001
0000
,
0001
0001
0001
1000
0000
1000
1000
0100
,
0000
0000
0100
0000
0100
0000
0000
0000
0010
0000
0000
0100
0000
0000
0010
0000
,
0001
0100
0010
1000
0001
0010
0100
1000
,
0010
0100
0001
1000
0100
0010
0001
0010
,
1000
0010
0001
0010
0100
0001
0100
1000
,
0001
0100
0010
1000
0001
0010
0100
1000
,
0001
0100
0010
2000
0000
3001
1000
0010
,
0100
0100
0001
0001
1000
0100
0000
0000
,
1000
0001
0100
0001
1000
0100
0010
0100
,
1000
0010
0100
0010
1000
0001
0010
0001
,
1000
0100
0010
0001
1000
0010
0100
0001
,
0100
0010
1000
0001
0010
0100
1000
0001
,
0000
0000
0000
0000
,
1000
0010
0001
0010
1000
0010
0100
0001
,
0010
1000
0010
0001
0100
0010
1000
0001
,
0020
0000
0100
0230
0000
1000
1300
0000
,
0001
0100
0010
1000
0100
0010
0001
0000
,
1000
0100
0010
0200
0000
0310
0001
2000
,
0000
3010
0100
0002
0000
0000
1003
0000
,
1000
1000
1000
0001
0000
0001
0001
0010
,
0000
0000
0010
0000
0010
0000
0000
0000
0100
0000
0000
0010
0000
0000
0100
0000
,
2002
0000
0000
0000
,
3003
0000
0000
0000
,
0001
0010
0100
1000
0001
0100
0010
1000
,
0001
0100
1000
0100
0001
0010
1000
0010
,
0001
0000
0000
0000
0000
0011
0000
0110
,
0000
0000
0000
0000
0000
0110
0000
1100
,
0000
0000
0000
0000
0000
1100
0000
1001
,
0000
0000
0000
1001
0000
0110
0000
1001
,
0000
0000
0000
0000
;
#NOTES:
     dance-single:
     :
     Hard:
     17:
     :
0000
0000
0000
0000
,
0000
0000
0000
0000
,
0000
0000
0000
0000
,
0000
0000
0000
0000
,
0000
0000
0000
0000
,
0000
0000
0000
0000
,
1000
0100
0010
0000
0001
0000
1000
0000
0010
0100
0010
0000
1000
0000
0001
0000
,
0010
0100
0010
0100
0010
0000
0001
1000
0000
0000
0010
0000
0100
0000
0001
0000
,
1000
0000
0100
0010
0001
0000
0100
0010
1000
0000
0001
0010
0100
0000
1000
0000
,
0100
0010
0000
0001
0010
0000
0011
0000
0100
1000
0000
0001
0010
0000
0011
0000
,
0100
1000
0100
0000
0010
0000
0001
0000
1000
0010
0100
0000
0001
0000
0010
0000
,
0100
1000
0100
1000
0100
0000
0010
0001
0000
0000
0100
0000
0010
0000
1000
0000
,
0001
0000
1000
0001
1000
0000
0010
0100
0010
0000
1000
0010
1000
0001
0100
0000
,
0010
0100
0000
0001
0100
0000
0110
0000
1000
0010
1000
0000
0001
0000
0010
0000
,
0110
0000
0000
0000
2000
0000
0000
0000
3002
0000
0000
0203
0000
0000
0310
0000
,
2000
0000
0000
3200
0000
0000
0320
0000
0000
0000
0031
0000
0100
0000
0010
0000
,
2000
0000
0000
3002
0000
0000
0103
0000
0000
0000
0010
1000
0010
0000
0100
0000
,
0001
0010
0000
0100
1000
0000
0110
0000
0001
1000
0000
0100
0010
0000
0001
0000
,
0011
0000
0000
0000
0002
0000
0000
0000
0203
0000
0000
0320
0000
0000
1030
0000
,
0200
0000
0000
0320
0000
0000
0032
0000
0000
0000
1003
0000
0010
0000
0100
0000
,
0002
0000
0000
0023
0000
0000
0130
0000
0000
0000
1000
0001
1000
0000
0100
0000
,
0110
0000
0000
0011
0000
0000
0110
0000
0000
1100
0000
0000
1010
0000
1002
0000
,
0103
0000
0000
0000
0002
0000
0000
0000
0203
0000
0000
0320
0000
0000
1030
0000
,
0002
0000
0000
0023
0000
0000
0230
0000
0000
0000
1300
0000
0100
0000
0010
0000
,
0002
0000
0000
2003
0000
0000
3001
0000
0000
0000
1000
0010
1000
0000
0001
0000
,
0100
0010
0000
1000
0001
0000
0011
0000
0100
1000
0000
0001
0010
0000
0100
0000
,
1100
0000
0000
0000
2000
0000
0000
0000
3200
0000
0000
0320
0000
0000
0031
0000
,
0200
0000
0000
0320
0000
0000
0032
0000
0000
0000
0013
0000
1000
0000
0100
0000
,
0010
0001
0000
0010
0001
0000
0100
0000
0010
1000
0000
0010
1000
0000
0100
0000
,
0010
0001
0000
0010
0001
0000
1000
0000
0010
0100
0000
0010
0100
0000
0001
0000
,
0020
0000
0000
0000
0000
0000
0000
0030
,
0000
0000
0000
0110
0000
0001
1000
0100
,
0011
0000
0000
0000
0000
0000
0000
0011
,
0000
0110
0000
0000
1100
0000
0000
0110
0000
0000
0011
0000
0110
0000
1001
0000
,
1010
0000
0000
0000
,
0000
0000
0000
0110
0000
0001
1000
0001
,
0110
0000
0000
0000
0000
0000
0000
1001
,
0000
0110
0000
0000
1010
0000
0000
0101
0000
0000
0011
0000
0110
0000
1001
0000
,
0110
0000
0000
0000
0000
0000
1000
0001
1000
0000
0000
0010
0000
0000
0100
0000
,
0001
0000
0010
0000
0001
0010
0100
0000
1000
0000
0010
0000
1000
0001
0100
0000
,
0010
1000
0000
0001
0010
0000
0200
0000
0000
0000
0310
0000
0001
0000
1000
0000
,
0001
0000
0100
0000
0001
0100
0010
0000
1000
0000
0001
0000
1000
0100
0010
0000
,
0001
0100
1000
0001
0010
1000
0001
0010
,
0100
1000
0100
1000
0100
0000
0010
0000
0000
0000
0001
0100
0001
0000
1000
0000
,
0010
0100
0010
0100
0010
0000
1000
0000
0000
0000
0001
0000
1000
0000
0001
0000
,
0011
0000
0000
0000
1100
0000
0000
0000
0011
0000
0000
0110
0000
0000
1001
0000
,
0000
0000
1010
0000
1010
0000
0000
0000
1001
0000
0000
0110
0000
0000
1001
0000
,
0000
0000
0001
0000
0010
0100
1000
0000
0010
0000
0100
0000
0001
0100
0010
0000
,
1000
0010
0000
0100
0001
0000
2000
0000
0000
0000
3100
0000
0010
0000
0001
0000
,
1000
0100
1000
0000
0001
0010
0001
0000
0100
0010
0100
0000
0001
1000
0001
0000
,
0010
0100
1000
0100
0110
0000
0011
0000
,
0011
0011
0011
0110
0000
0110
0110
1100
,
0000
1100
1100
1001
0000
1001
1001
0000
,
0001
0100
0001
0100
0001
0000
0100
0000
0010
1000
0010
1000
0010
0000
1000
0000
,
0100
0010
0100
0010
0100
0000
0010
0000
0001
1000
0001
1000
0002
0000
0000
0000
,
0000
0000
0103
0010
0100
0000
0000
0000
0110
0000
0000
0101
0000
0000
1001
0000
,
1000
0000
0100
0000
1000
0100
0010
0000
0001
0000
0010
0000
0001
0010
0100
0000
,
1000
0000
0001
0000
1000
0001
0100
0000
0010
0000
1000
0000
0001
0100
0001
0000
,
0010
0000
0100
0010
0000
0100
0010
0000
0001
0000
1000
0000
0010
0000
0100
0000
,
0001
0000
1000
0001
0000
1000
0001
0000
0010
0000
0100
0000
1000
0000
1000
0000
,
0100
0000
0100
0010
0001
0000
0001
0000
1000
0000
1000
0010
0100
0000
0100
0000
,
0001
0000
1000
0001
0010
0000
0100
1000
0001
0000
0100
0010
1000
0001
1000
0000
,
0001
0010
0100
0010
0001
0010
0100
0000
1000
0100
0010
0100
1000
0100
0010
0000
,
0001
1000
0010
1000
0001
1000
0010
0000
0100
0001
1000
0001
0100
0001
1000
0000
,
0001
0000
0100
0000
0001
0100
0010
0000
1000
0000
0010
0000
1000
0010
0100
0000
,
0001
0000
1000
0000
0001
1000
0100
0000
0010
0000
0001
0000
1000
0100
1000
0000
,
0010
0000
0100
0010
0000
0100
0010
0000
1000
0000
0001
0000
0010
0000
0100
0000
,
1000
0000
0001
1000
0000
0001
1000
0000
0010
0000
0100
0000
0001
0000
1000
0000
,
0200
0000
0310
0001
0010
0000
0200
0000
0000
0000
1300
0001
1000
0000
0020
0000
,
0000
0000
0130
0001
1000
0001
2000
0000
0000
0000
0000
0000
3200
0000
0000
0000
,
0320
0001
0031
0200
0000
0010
0310
2000
,
0000
0000
0001
0000
3001
0000
0000
0000
0110
0000
0000
1001
0000
0000
0110
0000
,
0001
0010
0100
0000
1000
0000
0100
0000
0010
0001
0010
0000
0100
0000
1000
0000
,
0001
0100
0010
1000
0001
0100
0010
0000
1000
0000
0100
0000
0010
0000
0001
0000
,
1000
0100
1000
0100
0010
0000
0001
0010
0001
0010
0100
0000
1000
0001
1000
0000
,
0010
0100
0000
0010
0100
0000
0001
0000
1000
0100
0000
1000
0100
0000
0010
0000
,
0001
0010
0100
1000
0100
0000
0010
0001
0000
0010
0100
0000
1000
0000
0001
0000
,
0100
0010
0100
0010
0100
0010
0100
0000
0001
0000
1000
0000
0100
0010
0100
0000
,
1100
0000
0000
0110
0000
0000
1100
0000
0011
0000
0000
1001
0000
0000
0011
0000
,
0110
0000
0000
0011
0000
0000
0110
0000
1001
0000
0000
0110
0000
0000
1001
0000
,
0001
0100
0001
1000
0010
0100
0001
1000
0100
0010
0100
1000
0001
0010
0100
1000
,
0001
0100
0001
1000
0010
0100
0001
1000
0001
0010
0100
1000
0100
0010
0001
1000
,
0000
0000
0000
0000
,
1000
0000
0010
0000
1000
0010
0100
0000
0001
0000
0100
0000
0001
0100
0010
0000
,
1000
0000
0001
0000
1000
0001
0010
0000
0100
0000
1000
0000
0001
0010
0001
0000
,
0100
0000
0010
0100
0000
0010
0100
0000
0001
0000
1000
0000
0100
0000
0010
0000
,
0001
0000
1000
0001
0000
1000
0001
0000
0100
0000
0010
0000
1000
0000
0001
0000
,
0020
0000
0130
1000
0100
0000
0020
0000
0000
0000
0031
1000
0001
0000
0200
0000
,
0000
0000
0310
1000
0001
1000
0002
0000
0000
0000
0000
0000
0023
0000
0000
0000
,
0230
1000
1300
0020
0000
0100
0130
0002
,
0000
0000
1000
0000
1003
0000
0010
0000
0110
0000
0000
1001
0000
0000
0110
0000
,
2002
0000
0000
0000
,
3003
0000
0000
0000
,
0001
0000
1000
0001
1000
0000
0010
0100
0010
0000
1000
0010
1000
0001
0100
0000
,
0010
0100
0000
0001
0100
0000
0110
0000
1000
0010
1000
0000
0001
0000
0010
0000
,
1001
0000
0001
0100
0010
1000
0010
0100
0001
0000
0110
0000
0000
0000
1001
0000
,
0000
0000
1000
0100
0010
0001
1000
0001
0100
0000
0110
0000
0000
0000
1001
0000
,
0000
0000
0001
1000
0010
0100
0001
1000
0100
0000
0110
0000
0000
0000
1001
0000
,
0000
0000
0100
0010
0100
0000
1001
0000
0000
0000
0110
0000
0000
0000
1001
0000
,
0000
0000
0000
0000
;
#NOTES:
     dance-double:
     :
     Easy:
     10:
     :
00000000
00000000
00000000
00000000
,
00000000
00000000
00000000
00000000
,
00000000
00000000
00000000
00000000
,
00000000
00000000
00000000
00000000
,
00000000
00000000
00000000
00000000
,
00000000
00000000
00000000
00000000
,
10000000
01000000
00010000
00000000
00001000
00000000
00010000
00000000
,
00001000
00010000
00001000
00000000
00000100
00000000
00000001
00000000
,
00002000
00003100
00000002
00000103
,
00000010
00000010
00000100
00000100
,
00001000
00000001
00000100
00000000
00001000
00000000
00010000
00000000
,
00001000
00010000
00001000
00000000
00010000
00000000
00100000
00000000
,
02000000
10000000
00100000
03010000
,
10000000
00000000
01000000
00000000
00100000
00010000
00100000
00000000
,
00000000
00000000
00100000
00000000
00010000
10000000
01000000
00000000
,
00100000
00010000
00001000
00010000
,
00001000
00000000
00000100
00000000
00000010
00000001
00001000
00000000
,
00000001
00000100
00000010
00000000
00002000
00000000
00003001
00000000
,
00000000
00000000
00000001
00000000
00000100
00001000
00010000
00000000
,
00001000
00010000
00100000
10000000
,
00010000
10000000
00010000
00000000
01000000
00000000
01000000
00000000
,
01100000
01100000
10010000
10010000
,
00000000
00000000
10000000
00000000
01000000
00100000
00010000
00000000
,
00100000
00001000
00010000
00000000
00001000
00000000
00001000
00000000
,
00010000
00000000
00001000
00000000
00000010
00000001
00001000
00000000
,
00000001
00000100
00000010
00001000
,
00000000
00000000
00000001
00000000
00000010
00001000
00010000
00000000
,
00001000
00010000
00100000
00000000
10000000
00010000
10000000
00000000
,
11000000
11000000
00110000
00110000
,
01100000
01100000
10010000
01100000
,
20020000
00000000
00000000
00000000
00000000
00000000
00000000
30030000
,
00000000
00000000
00000000
10000000
00000000
01000000
00010000
00001000
,
00010000
00000000
00000000
00000000
00000000
00000000
00000000
00010000
,
00000000
00001000
00000000
00000000
00010000
00000000
00000000
00001000
00000000
00000000
00010000
00000000
00001000
00000000
00000010
00000000
,
00000001
00000000
00000000
00000000
,
00000000
00000000
00000000
00000001
00000000
00000100
00001000
00010000
,
00001000
00000000
00000000
00000000
00000000
00000000
00000000
00001000
,
00000000
00010000
00000000
00000000
00001000
00000000
00000000
00010000
00000000
00000000
00001000
00000000
00010000
00000000
00100000
00000000
,
10000000
00000000
00010000
00010000
,
10000000
00000000
01000000
00000000
00010000
00001000
00010000
00000000
,
00001000
00000000
00000010
00000000
00000001
00000100
00000001
00000000
,
00001000
00001000
00000001
00000001
,
00000010
00000100
00000010
00000000
00001000
00000000
00001000
00000000
,
00020000
00000000
00000000
00031000
00000000
00000000
00000010
00000000
,
00002000
00000000
00000000
00013000
00000000
00000000
00001000
00000000
,
00010000
00000000
00100000
00000000
10000000
00010000
10000000
00000000
,
01000000
00100000
01000000
00000000
10000000
00000000
00010000
00000000
,
10000000
00000000
00100000
00000000
00010000
00001000
00010000
00000000
,
00001000
00000000
00000100
00000000
00000001
00001000
00000001
00000000
,
00000010
00000010
00000100
00000100
,
00001000
00000100
00000010
00000001
00000010
00000000
00000010
00000000
,
00000001
00000000
00000100
00000100
00000000
00001000
00000000
00001000
,
00000000
00010000
00000000
00010000
00000000
00000000
00001000
00000000
,
00010000
00010000
00100000
00100000
,
10000000
10000000
00010000
10010000
,
00000000
00000000
00000000
00000000
,
10000000
01000000
10000000
00000000
01000000
00000000
00010000
00000000
,
00001000
00010000
00001000
00000000
00000100
00000000
00000001
00000000
,
00001000
00000001
00001000
00000000
00000001
00000000
00000010
00000000
,
00001000
00010000
00001000
00000000
00010000
00000000
00100000
00000000
,
00000000
00000000
10000000
00000000
00010000
01000000
10000000
00000000
,
01000000
00000000
00010000
00000000
10000000
01000000
00010000
00000000
,
02000000
03010000
00002000
00013000
,
00002000
00003010
00000002
00000013
,
00000001
00000100
00000001
00000000
00000100
00000000
00001000
00000000
,
00010000
00001000
00010000
00000000
01000000
00000000
10000000
00000000
,
00010000
10000000
00010000
00000000
10000000
00000000
00100000
00000000
,
00010000
00001000
00010000
00000000
00001000
00000000
00000010
00000000
,
00000002
00000000
00000000
00002003
00000000
00000000
00000000
00003020
,
00000000
00000000
00000000
00000230
00000000
00000000
00000000
00000300
,
00001000
00001000
00010000
00010000
,
00001000
00010000
00100000
01000000
,
20020000
00000000
30030000
00000000
,
00000000
00000000
00000000
00000000
,
10000000
01000000
00100000
00000000
01000000
00100000
00010000
00000000
,
10000000
01000000
00010000
00001000
,
00010000
00001000
00010000
00000000
00001000
00000000
00000010
00000000
,
00000001
00001000
00000001
00001000
00000001
00000000
00001001
00000000
,
00000001
00000001
00000100
00000100
,
00001000
00001000
00010000
00010000
,
00100000
00100000
10000000
10000000
,
10100000
01010000
01100000
10010000
,
00000000
00000000
00000000
00000000
,
10000000
01000000
10000000
00000000
01000000
00000000
00010000
00000000
,
00001000
00010000
00001000
00000000
00000100
00000000
00000001
00000000
,
00001000
00000001
00001000
00000000
00000001
00000000
00000010
00000000
,
00001000
00010000
00001000
00000000
00010000
00000000
00100000
00000000
,
20000000
00000000
00000000
30020000
00000000
00000000
00000000
00230000
,
00000000
00000000
00000000
02300000
00000000
00000000
00000000
00000000
,
03010000
00010000
00001000
00001000
,
00010000
00001000
00000010
00000100
,
00002002
00000000
00000000
00000000
,
00003003
00000000
00000000
00000000
,
00000001
00000100
00000001
00000000
00000100
00001000
00000100
00000000
,
00001000
00000000
00010000
00000000
00100000
10000000
00010000
00000000
,
01100000
00000000
00000000
00000000
00000000
10000000
00000000
00010000
,
00000000
00000000
00000000
00000000
00000000
00100000
00000000
00001000
,
00000000
00000000
00000000
00000000
00000000
00010000
00000000
00000100
,
00000000
00000000
00000000
00000010
00000000
00000100
00000000
00001001
,
00000000
00000000
00000000
00000000
;
#NOTES:
     dance-double:
     :
     Medium:
     14:
     :
00000000
00000000
00000000
00000000
,
00000000
00000000
00000000
00000000
,
00000000
00000000
00000000
00000000
,
00000000
00000000
00000000
00000000
,
00000000
00000000
00000000
00000000
,
00000000
00000000
00000000
00000000
,
10000000
01000000
00010000
00001000
00100000
00010000
00001000
00000100
,
00000010
00000001
00000010
00001000
00000010
00000000
00000100
00000000
,
00001000
00000001
00000100
00000010
00001000
00000001
00000010
00000000
,
00001000
00010000
00001000
00000100
00000001
00001000
00000010
00000100
,
00000001
00000100
00001000
00010000
00000010
00001000
00010000
01000000
,
00100000
10000000
00100000
00010000
00100000
00000000
01000000
00000000
,
00010000
10000000
00100000
01000000
00001000
00010000
01000000
00100000
,
00010000
10000000
00010000
01000000
00100000
10000000
00010000
00000000
,
01100000
00000000
10000000
01000000
00010000
00001000
00010000
00000000
,
00001000
00000100
00000001
00001000
00000001
00000010
00001000
00000000
,
00010000
00001000
00000100
00000000
00000001
00000100
00000010
00000000
,
00001000
00000010
00001000
00000010
00000100
00000001
00000100
00000000
,
00001001
00000000
00000001
00000010
00001000
00010000
00001000
00000000
,
00010000
00100000
10000000
00010000
00000000
00100000
01000000
10000000
,
01000000
00010000
00001000
00010000
00000000
01000000
10000000
00000000
,
00010000
10000000
01000000
10000000
00010000
01000000
00100000
00000000
,
01010000
00000000
10000000
00100000
01000000
00001000
00010000
00000000
,
00001000
00000100
00000001
00001000
00000000
00000001
00000010
00001000
,
00010000
00001000
00000100
00000010
00000000
00000001
00000010
00000000
,
00001000
00000010
00000100
00000010
00001000
00000100
00000010
00000000
,
00001001
00000000
00000001
00000010
00001000
00010000
00001000
00000000
,
00010000
00100000
10000000
00010000
00000000
00100000
01000000
10000000
,
00010000
00100000
00001000
00010000
01000000
10000000
00010000
01000000
,
00100000
10000000
00010000
01000000
00010000
00100000
01000000
00010000
,
00002000
00000000
00000000
00000000
00000000
00000000
00000000
00003000
,
00000000
00000000
00000000
00000010
00000000
00000001
00001000
00000001
,
00001001
00000000
00000000
00000000
00000000
00000000
00000000
00000101
,
00000000
00001100
00000000
00000000
00000101
00000000
00000000
00001100
00000000
00000000
00000001
00000000
00000100
00000000
00001000
00000000
,
00011000
00000000
00000000
00000000
,
00000000
00000000
00000000
00100000
00000000
10000000
00010000
10000000
,
10010000
00000000
00000000
00000000
00000000
00000000
00000000
11000000
,
00000000
01010000
00000000
00000000
11000000
00000000
00000000
01010000
00000000
00000000
10000000
00000000
01000000
00000000
00010000
00000000
,
00011000
00000000
00000000
00000000
00000010
00000010
00000010
00000000
,
00000001
00001000
00000010
00000100
00000001
00001000
00000100
00000010
,
00000001
00000010
00001000
00010000
00000000
00001000
00010000
00100000
,
10000000
10000000
00010000
00000000
00100000
00100000
01000000
00000000
,
10000000
01000000
00100000
00010000
00000000
10000000
01000000
00010000
,
00001000
00000000
00000000
00000010
00000000
00000000
00000001
00000000
00000000
00000000
00000010
00000000
00000100
00000000
00000000
00000000
,
00001000
00000000
00000000
00000001
00000000
00000000
00000100
00000000
00000000
00000000
00000001
00000000
00001000
00000000
00000000
00000000
,
00000110
00000000
00000000
00000000
00000110
00000000
00000000
00000000
00000110
00000000
00000000
00001001
00000000
00000000
00000110
00000000
,
00000000
00000001
00000100
00000000
00001000
00010000
00001000
00000000
,
00010000
00100000
10000000
00000000
00010000
01000000
10000000
00000000
,
01000000
00100000
01000000
00010000
00000000
10000000
01000000
00010000
,
01000000
01000000
00010000
00000000
00001000
00001000
00010000
00000000
,
00001000
00000010
00000100
00000010
00000001
00000000
00001001
00000000
,
00000001
00000001
00000001
00000100
00000000
00000100
00000100
00001000
,
00000000
00010000
00010000
00001000
00000000
00000000
00011000
00000000
,
00100000
10000000
00010000
01000000
00001000
00010000
01000000
10000000
,
00010000
01000000
00100000
10000000
00010000
00100000
02000000
00000000
,
00000000
00000000
10000000
00000000
13000000
00000000
00000000
00000000
01000000
00000000
00000000
00100000
00000000
00000000
00010000
00000000
,
10000000
01000000
00010000
01000000
10000000
00100000
00010000
00001000
,
00000100
00000001
00000100
00001000
00000100
00000001
00000010
00001000
,
00020000
00000000
00001000
00032000
00000000
00010000
00013000
00000000
,
00100000
10000000
01000000
00010000
00000000
00001000
00000010
00000000
,
00000001
00000001
00000100
00000100
00001000
00001000
00010000
00001000
,
00010000
00010000
00100000
00100000
10000000
10000000
00010000
10000000
,
01000000
00010000
01000000
10000000
01000000
00010000
00001000
00010000
,
00001000
00000010
00001000
00010000
00001000
00000010
00000001
00000000
,
00000001
00000100
00001000
00000100
00000001
00000010
00001000
00010000
,
01000000
10000000
01000000
00010000
01000000
10000000
00100000
00010000
,
00002000
00000000
00010000
00023000
00000000
00001000
00031000
00000000
,
00000010
00000001
00000100
00001000
00010000
00100000
10000000
00000000
,
00010000
00100000
00001000
00200000
00000000
00310000
00001000
00020000
,
00000000
00031000
00000100
00002000
00000000
00003010
00000100
00000000
,
00000001
00000001
00000001
00000010
00000000
00000010
00000010
00001000
,
00000000
00000000
00001000
00000000
00001000
00000000
00000000
00000000
00010000
00000000
00000000
00001000
00000000
00000000
00010000
00000000
,
00100000
10000000
00010000
01000000
00100000
10000000
00010000
01000000
,
00100000
10000000
01000000
00100000
00010000
10000000
01000000
00100000
,
00010000
00100000
00001000
00010000
00000100
00001000
00000010
00000100
,
00000001
00000100
00001000
00000100
00000001
00000010
00001000
00000010
,
00000001
00000100
00001000
00020000
00000000
00031000
00010000
00100000
,
01000000
01000000
10000000
10000000
01000000
00010000
00000000
00000000
,
00010000
10000000
01000000
00010000
00001000
00010000
01000000
00010000
,
00001000
00100000
00010000
00001000
00000100
00001000
00010000
00001000
,
00000100
00000001
00000100
00001000
00000001
00000100
00001000
00000100
,
00000001
00000010
00001000
00000010
00000001
00000100
00000010
00001000
,
00000000
00000000
00000000
00000000
,
00000001
00000010
00001000
00000010
00000001
00000100
00001000
00010000
,
00100000
10000000
00100000
00010000
00100000
10000000
01000000
00010000
,
00002000
00000000
00010000
00023000
00000000
00001000
00031000
00000000
,
00000100
00000001
00000010
00001000
00010000
01000000
10000000
00000000
,
00010000
01000000
00001000
02000000
00000000
03010000
00001000
00020000
,
00000000
00031000
00000010
00002000
00000000
00003100
00000010
00000000
,
00000001
00000001
00000001
00000100
00000000
00000100
00000100
00001000
,
00000000
00000000
00001000
00000000
00001000
00000000
00000000
00000000
00010000
00000000
00000000
00001000
00000000
00000000
00010000
00000000
,
00022000
00000000
00000000
00000000
,
00033000
00000000
00000000
00000000
,
00010000
00100000
10000000
00100000
01000000
10000000
01000000
00010000
,
10000000
01000000
00010000
00001000
00010000
00001000
00000010
00000001
,
00001001
00000000
00000000
00000000
00000000
00000011
00000000
00000110
,
00000000
00000000
00000000
00000000
00000000
00010100
00000000
00011000
,
00000000
00000000
00000000
00000000
00000000
00110000
00000000
01100000
,
00000000
00000000
00000000
10010000
00000000
01100000
00000000
10010000
,
00000000
00000000
00000000
00000000
;
#NOTES:
     dance-double:
     :
     Hard:
     17:
     :
00000000
00000000
00000000
00000000
,
00000000
00000000
00000000
00000000
,
00000000
00000000
00000000
00000000
,
00000000
00000000
00000000
00000000
,
00000000
00000000
00000000
00000000
,
00000000
00000000
00000000
00000000
,
10000000
01000000
00100000
00000000
00010000
00000000
00100000
00000000
00001000
00010000
00001000
00000000
00000100
00000000
00000001
00000000
,
00000010
00000100
00000010
00000100
00000010
00000000
00000001
00001000
00000000
00000000
00000010
00000000
00000100
00000000
00001000
00000000
,
00010000
00000000
00001000
00100000
00010000
00000000
10000000
00100000
01000000
00000000
00010000
00100000
01000000
00000000
10000000
00000000
,
01000000
00100000
00000000
00010000
00100000
00000000
00010000
00000000
00001000
00010000
00000000
00001000
00000100
00000000
00000001
00000000
,
00000100
00000010
00000100
00000000
00001000
00000000
00000001
00000000
00000100
00000010
00000100
00000000
00001000
00000000
00010000
00000000
,
00100000
01000000
00100000
01000000
00100000
00000000
10000000
00010000
00000000
00000000
10000000
00000000
01000000
00000000
00010000
00000000
,
00001000
00000000
00010000
00001000
00010000
00000000
00001000
00000010
00001000
00000000
00000010
00000001
00001000
00000001
00000100
00000000
,
00000010
00001000
00000000
00000001
00000100
00000000
00000010
00000000
00000100
00000001
00001000
00000000
00000100
00000000
00000010
00000000
,
00000011
00000000
00000000
00000000
00000002
00000000
00000000
00000000
00000203
00000000
00000000
00002300
00000000
00000000
00013000
00000000
,
00200000
00000000
00000000
20300000
00000000
00000000
32000000
00000000
00000000
00000000
03010000
00000000
01000000
00000000
00100000
00000000
,
00020000
00000000
00000000
20030000
00000000
00000000
31000000
00000000
00000000
00000000
00010000
00001000
00010000
00000000
00000010
00000000
,
00000100
00000001
00000000
00001000
00000100
00000000
00010000
00000000
00001000
00010000
00000000
01000000
10000000
00000000
00010000
00000000
,
10010000
00000000
00000000
00000000
00020000
00000000
00000000
00000000
02030000
00000000
00000000
03200000
00000000
00000000
10300000
00000000
,
02000000
00000000
00000000
03020000
00000000
00000000
00032000
00000000
00000000
00000000
00013000
00000000
00001000
00000000
00000100
00000000
,
00000002
00000000
00000000
00000023
00000000
00000000
00001030
00000000
00000000
00000000
00010000
00001000
00010000
00000000
00100000
00000000
,
01100000
00000000
00000000
10100000
00000000
00000000
01100000
00000000
00000000
01010000
00000000
00000000
10100000
00000000
10020000
00000000
,
01030000
00000000
00000000
00000000
00020000
00000000
00000000
00000000
00230000
00000000
00000000
02300000
00000000
00000000
13000000
00000000
,
00200000
00000000
00000000
02300000
00000000
00000000
03020000
00000000
00000000
00000000
10030000
00000000
01000000
00000000
00010000
00000000
,
00002000
00000000
00000000
00023000
00000000
00000000
00031000
00000000
00000000
00000000
00000010
00000001
00000010
00000000
00000100
00000000
,
00000010
00000001
00000000
00001000
00000100
00000000
00010000
00000000
00001000
01000000
00000000
00100000
10000000
00000000
00010000
00000000
,
01010000
00000000
00000000
00000000
20000000
00000000
00000000
00000000
32000000
00000000
00000000
03020000
00000000
00000000
00031000
00000000
,
00200000
00000000
00000000
00320000
00000000
00000000
00032000
00000000
00000000
00000000
00003100
00000000
00000010
00000000
00000001
00000000
,
00001000
00000100
00000000
00001000
00000100
00000000
00000010
00000000
00000001
00000100
00000000
00000001
00000100
00000000
00001000
00000000
,
00010000
00001000
00000000
00010000
00001000
00000000
00100000
00000000
01000000
10000000
00000000
01000000
10000000
00000000
00100000
00000000
,
00020000
00000000
00000000
00000000
00000000
00000000
00000000
00030000
,
00000000
00000000
00000000
00011000
00000000
00001000
00000100
00000001
,
00000110
00000000
00000000
00000000
00000000
00000000
00000000
00000011
,
00000000
00000110
00000000
00000000
00001100
00000000
00000000
00000110
00000000
00000000
00000011
00000000
00000110
00000000
00001001
00000000
,
00001010
00000000
00000000
00000000
,
00000000
00000000
00000000
00011000
00000000
00010000
00100000
10000000
,
01100000
00000000
00000000
00000000
00000000
00000000
00000000
10010000
,
00000000
01100000
00000000
00000000
10100000
00000000
00000000
01010000
00000000
00000000
00110000
00000000
01100000
00000000
10010000
00000000
,
01100000
00000000
00000000
00000000
00000000
00000000
10000000
01000000
10000000
00000000
00000000
01000000
00000000
00000000
00010000
00000000
,
00001000
00000000
00000010
00000000
00000001
00000010
00000100
00000000
00001000
00000000
00000100
00000000
00010000
00000010
00001000
00000000
,
00010000
01000000
00000000
00100000
10000000
00000000
00020000
00000000
00000000
00000000
00130000
00000000
01000000
00000000
10000000
00000000
,
00010000
00000000
01000000
00000000
00010000
10000000
01000000
00000000
00010000
00000000
00001000
00000000
00100000
00001000
00010000
00000000
,
00001000
00000100
00000001
00000010
00001000
00000001
00000100
00001000
,
00000001
00000100
00000001
00000100
00000001
00000000
00000100
00000000
00000000
00000000
00001000
00010000
00001000
00000000
00100000
00000000
,
01000000
10000000
01000000
10000000
01000000
00000000
00100000
00000000
00000000
00000000
00010000
00000000
10000000
00000000
00010000
00000000
,
00110000
00000000
00000000
00000000
11000000
00000000
00000000
00000000
00110000
00000000
00000000
01100000
00000000
00000000
10010000
00000000
,
00000000
00000000
11000000
00000000
11000000
00000000
00000000
00000000
01010000
00000000
00000000
00011000
00000000
00000000
00001010
00000000
,
00000000
00000000
00000001
00000000
00000010
00000100
00001000
00000000
00000001
00000000
00000100
00000000
00001000
00010000
00001000
00000000
,
00010000
00100000
00000000
10000000
00100000
00000000
02000000
00000000
00000000
00000000
03010000
00000000
10000000
00000000
00100000
00000000
,
10000000
01000000
10000000
00000000
01000000
00010000
01000000
00000000
00010000
00001000
00010000
00000000
00001000
00000010
00001000
00000000
,
00000010
00000001
00001000
00000001
00000110
00000000
00001001
00000000
,
00000101
00000101
00000101
00001100
00000000
00001100
00001100
00011000
,
00000000
00011000
00011000
00110000
00000000
01100000
10010000
00000000
,
10000000
01000000
10000000
01000000
10000000
00000000
01000000
00000000
00010000
00001000
00010000
00001000
00010000
00000000
00001000
00000000
,
00000010
00000001
00000010
00000001
00000010
00000000
00000100
00000000
00001000
00000001
00001000
00000001
00002000
00000000
00000000
00000000
,
00000000
00000000
00003010
00000100
00000010
00000000
00000000
00000000
00000110
00000000
00000000
00000101
00000000
00000000
00001001
00000000
,
00000001
00000000
00000100
00000000
00000001
00000100
00001000
00000000
00010000
00000000
00001000
00000000
00010000
00001000
00100000
00000000
,
01000000
00000000
10000000
00000000
00010000
01000000
00100000
00000000
10000000
00000000
00010000
00000000
00100000
01000000
00100000
00000000
,
01000000
00000000
10000000
01000000
00000000
00010000
01000000
00000000
00010000
00000000
00001000
00000000
00000010
00000000
00000001
00000000
,
00001000
00000000
00000001
00000100
00000000
00001000
00000100
00000000
00000001
00000000
00000010
00000000
00001000
00000000
00010000
00000000
,
00100000
00100000
10000000
10000000
01000000
01000000
00010000
00010000
,
00001000
00000000
00100000
00001000
00010000
00000000
00001000
00010000
00000100
00000000
00001000
00000001
00000100
00000000
00000010
00000000
,
00001000
00000010
00001000
00000010
00001000
00000010
00000100
00000000
00000001
00000100
00000001
00000100
00000001
00000100
00001000
00000000
,
00010000
00001000
00010000
00001000
00010000
00001000
00100000
00000000
01000000
10000000
01000000
10000000
01000000
10000000
00010000
00000000
,
10000000
00000000
01000000
00000000
10000000
01000000
00010000
00000000
00001000
00000000
00010000
00000000
00001000
00010000
00000010
00000000
,
00000100
00000000
00000001
00000000
00001000
00000100
00000010
00000000
00000001
00000000
00001000
00000000
00000010
00000100
00000010
00000000
,
00000100
00000000
00000001
00000100
00000000
00001000
00000100
00000000
00001000
00000000
00010000
00000000
00100000
00000000
10000000
00000000
,
00010000
00000000
10000000
01000000
00000000
00010000
01000000
00000000
10000000
00000000
00100000
00000000
00010000
00000000
00001000
00000000
,
00000200
00000000
00000301
00001000
00000001
00000000
00000020
00000000
00000000
00000000
00001030
00010000
00001000
00000000
00200000
00000000
,
00000000
00000000
00310000
10000000
00010000
00000000
02000000
00000000
00000000
00000000
00000000
00000000
03200000
00000000
00000000
00000000
,
00320000
00001000
00031000
00000200
00000000
00000010
00000310
00002000
,
00000000
00000000
00000001
00000000
00003001
00000000
00000000
00000000
00000110
00000000
00000000
00001001
00000000
00000000
00000110
00000000
,
00000001
00000010
00000100
00000000
00001000
00000000
00000001
00000000
00000100
00001000
00000100
00000000
00001000
00000000
00010000
00000000
,
00100000
01000000
00010000
10000000
00100000
00000000
01000000
00000000
00100000
00000000
10000000
00000000
01000000
00000000
00010000
00000000
,
00001000
00010000
00001000
00000000
00100000
00000000
00001000
00010000
00001000
00000000
00000100
00000000
00000001
00001000
00000001
00000000
,
00000010
00000100
00000000
00001000
00000100
00000000
00010000
00000000
00001000
00010000
00000000
00100000
01000000
00000000
00010000
00000000
,
10000000
00100000
01000000
00010000
10000000
00000000
00010000
01000000
00000000
00100000
10000000
00000000
01000000
00000000
00100000
00000000
,
00001000
00010000
00001000
00010000
00001000
00010000
00001000
00000000
00000100
00000000
00000001
00000000
00001000
00000000
00000001
00000000
,
00001001
00000000
00000000
00001100
00000000
00000000
00000011
00000000
00000110
00000000
00000000
00001100
00000000
00000000
00010100
00000000
,
00011000
00000000
00000000
00101000
00000000
00000000
00110000
00000000
01010000
00000000
00000000
01100000
00000000
00000000
10010000
00000000
,
10000000
00100000
10000000
00010000
00100000
01000000
10000000
00000000
01000000
00100000
00010000
01000000
00001000
00010000
00001000
00000000
,
00100000
00010000
00100000
00001000
00010000
00001000
00000100
00000010
00001000
00000010
00000100
00000001
00001000
00000100
00000010
00000001
,
00000000
00000000
00000000
00000000
,
00000001
00000000
00000010
00000000
00000001
00000010
00001000
00000000
00010000
00000000
00001000
00000000
00010000
00001000
01000000
00000000
,
00100000
00000000
10000000
00000000
00010000
00100000
01000000
00000000
10000000
00000000
00010000
00000000
01000000
00100000
01000000
00000000
,
00100000
00000000
10000000
00100000
00000000
00010000
00100000
00000000
00010000
00000000
00001000
00000000
00000100
00000000
00000001
00000000
,
00001000
00000000
00000001
00000010
00000000
00001000
00000010
00000000
00000001
00000000
00000100
00000000
00001000
00000000
00010000
00000000
,
00200000
00000000
10300000
00010000
10000000
00000000
02000000
00000000
00000000
00000000
03010000
00001000
00010000
00000000
00000200
00000000
,
00000000
00000000
00001300
00000001
00001000
00000000
00000020
00000000
00000000
00000000
00000000
00000000
00000230
00000000
00000000
00000000
,
00002300
00010000
00013000
00200000
00000000
01000000
01300000
00020000
,
00000000
00000000
10000000
00000000
10030000
00000000
00000000
00000000
01100000
00000000
00000000
10010000
00000000
00000000
01100000
00000000
,
20020000
00000000
00000000
00000000
,
30030000
00000000
00000000
00000000
,
10000000
00000000
01000000
00010000
01000000
00000000
00010000
00001000
00010000
00000000
00001000
00000010
00001000
00000010
00000001
00000000
,
00001000
00000100
00000000
00000010
00000100
00000000
00000110
00000000
00001000
00000001
00001000
00000000
00000001
00000000
00000100
00000000
,
00000011
00000000
00000001
00000100
00000001
00000100
00000001
00000100
00000001
00000000
00000101
00000000
00000000
00000000
00001100
00000000
,
00000000
00000000
00001000
00010000
00001000
00010000
00001000
00010000
00001000
00000000
00011000
00000000
00000000
00000000
00110000
00000000
,
00000000
00000000
00100000
01000000
00100000
01000000
00100000
01000000
00100000
00000000
01100000
00000000
00000000
00000000
10010000
00000000
,
00000000
00000000
01000000
00100000
01000000
00000000
10010000
00000000
00000000
00000000
01100000
00000000
00000000
00000000
10010000
00000000
,
00000000
00000000
00000000
00000000
;
