
//----- song ID: bass -----//
#TITLE:ベィスドロップ・フリークス;
#ARTIST:かめりあ feat. ななひら;
#TITLETRANSLIT:Bassdrop freaks;
#ARTISTTRANSLIT:Camellia feat. Nanahira;
#BANNER:Bassdrop freaks.png;
#BACKGROUND:Bassdrop freaks-bg.png;
#CDTITLE:./CDTitles/bm IIDX 22 PENDUAL.png;
#MUSIC:Bassdrop freaks.ogg;
#SAMPLESTART:57.33;
#SAMPLELENGTH:15;
#BPMS:0=179;
#NOTES:
     dance-single:
     :
     Beginner:
     3:
     :
0000
0000
0000
0000
,
0000
0000
0000
0000
,
0000
0000
0000
0000
,
0000
0000
0000
0000
,
0000
0000
0000
0000
,
0000
0000
0000
0000
,
0000
0000
0000
0000
,
1000
0000
1000
0000
,
0001
0000
0001
0000
,
0020
0000
0000
0000
,
0030
0000
0000
0000
,
1000
0000
0001
0000
,
1000
0000
0001
0000
,
0010
0000
0000
0000
,
0100
0000
0000
0000
,
1001
0000
0000
0000
,
0001
0000
0001
0000
,
1000
0000
1000
0000
,
1001
0000
0000
0000
,
1000
0000
1000
0000
,
0010
0000
0100
0100
,
0100
0000
0000
0000
,
0000
0000
0010
0010
,
0010
0000
0000
0000
,
0001
0000
0001
0000
,
1000
0000
1000
0000
,
1001
0000
0000
0000
,
1000
0000
0001
0000
,
1000
0000
0001
0000
,
1000
0000
0001
0000
,
1000
0000
0001
0001
,
0001
0000
0000
0000
,
0001
0000
1000
0000
,
0100
0000
0100
0100
,
0100
0000
0000
0000
,
0001
0000
1000
0000
,
0001
0000
1000
0000
,
0001
0000
1000
0000
,
0001
0000
1000
1000
,
1000
0000
0000
0000
,
1000
0000
0001
0000
,
1000
0000
0100
0000
,
0020
0000
0030
0000
,
0001
0000
0001
0000
,
1000
0000
1000
0000
,
0010
0000
0010
0000
,
0100
0000
0000
0000
,
1000
0000
1000
0000
,
0001
0000
0001
0000
,
0010
0010
0000
0000
,
0100
0100
0000
0000
,
1000
0000
0001
0000
,
1000
0000
0001
0000
,
0010
0000
0010
0000
,
0100
0000
0000
0000
,
1000
0000
0000
0000
,
1001
0000
0000
0000
,
0001
0001
0000
0000
,
1000
1000
0000
0000
,
1000
0000
0001
0000
,
0010
0000
0010
0000
,
0100
0000
0010
0000
,
0001
0001
0001
0000
,
0000
0000
0001
0000
,
0010
0000
0010
0000
,
0100
0000
0200
0000
,
0300
0000
0000
0000
,
0002
0000
0003
0000
,
0010
0000
0100
0000
,
1000
0000
0001
0000
,
1000
1000
1000
0000
,
0000
0000
1000
0000
,
0010
0000
0100
0000
,
0001
0001
0000
0000
,
1000
1000
0000
0000
,
1000
0000
0001
0000
,
1000
0000
0001
0000
,
1000
0000
0001
0000
,
0010
0000
0100
0000
,
0001
0000
1000
0000
,
0001
0000
1000
0000
,
2000
0000
3000
0000
,
0002
0000
0003
0000
,
1001
0000
0000
0000
,
0110
0000
0000
0000
,
2002
0000
0000
0000
,
3003
0000
0000
0000
,
0000
0000
0000
0000
;
#NOTES:
     dance-single:
     :
     Easy:
     7:
     :
0000
0000
0000
0000
,
0000
0000
0000
0000
,
0000
0000
0000
0000
,
0000
0000
0000
0000
,
0000
0000
0000
0000
,
0000
0000
0000
0000
,
0000
0000
0000
0000
,
0000
0000
0000
0000
,
0000
0000
0000
0000
,
1000
0100
0001
0100
,
1000
0001
1000
0000
,
0002
0000
0013
0000
,
2000
0000
3100
0000
,
0002
0000
0103
0000
,
0100
0010
0100
0000
,
0002
0000
1003
0000
,
2000
0000
3001
0000
,
0010
0000
0100
0000
,
1000
0001
1000
0000
,
1000
1000
0001
0001
,
1000
0100
0002
0003
,
0100
1000
0100
1000
,
0001
1000
0001
0000
,
0001
0001
1000
1000
,
0001
0100
2000
3000
,
0100
0001
0100
0001
,
1001
0000
0000
0000
,
0000
1001
0000
0110
,
0000
1001
0000
0110
,
0000
1001
0000
0110
,
0000
1001
0010
0100
,
0000
1100
0000
0110
,
0000
0011
0000
0110
,
1000
0100
0010
0001
,
0100
0010
0100
0000
,
0000
1001
0000
0110
,
0000
1001
0000
0110
,
0000
1001
0000
0110
,
0000
1001
0010
0100
,
1000
0000
0000
0011
,
0000
0110
0000
1100
,
0001
0100
0010
1000
,
0100
0010
0110
0000
,
2000
0000
3010
0000
,
0002
0000
0103
0000
,
2000
0000
3010
0010
,
0100
0000
0001
0000
,
0020
0000
0130
0000
,
2000
0000
3001
0000
,
1000
0010
1000
0000
,
0001
0100
0001
0000
,
2000
0001
3001
0000
,
0002
1000
1003
0000
,
0001
0100
1000
0100
,
0001
0100
1000
0000
,
0100
0010
0100
0000
,
0001
1000
0001
0000
,
2000
0000
3002
0000
,
1003
0001
1000
0000
,
1001
0000
0100
0000
,
0001
0010
0001
0000
,
0110
0100
0010
0000
,
0001
1000
0001
0000
,
2000
0000
3100
0000
,
0002
0000
0103
0000
,
0010
0000
0200
0000
,
0310
0000
0110
0000
,
2002
0000
3003
0000
,
1000
0100
1000
0000
,
0001
0010
0001
0000
,
0010
0010
0010
0010
,
0100
0000
1000
0000
,
0100
0000
0001
0000
,
0100
1000
0100
1000
,
0001
1000
0001
0000
,
0001
0100
1000
0000
,
1000
0100
0001
0000
,
1000
0100
0001
0000
,
0001
0100
1000
0100
,
1000
0010
0001
0000
,
0001
0010
1000
0000
,
1000
1000
0001
0001
,
1000
0000
0001
0000
,
2001
0000
0000
0000
,
3100
0000
0010
0000
,
2002
0000
0000
0000
,
3003
0000
0000
0000
,
0000
0000
0000
0000
;
#NOTES:
     dance-single:
     :
     Medium:
     10:
     :
0000
0000
0000
0000
,
0000
0000
0000
0000
,
0000
0000
0000
0000
,
0000
0000
0000
0000
,
0000
0000
0000
0000
,
0000
0000
0000
0000
,
0000
0000
0000
0001
,
1001
0000
0000
0000
1000
0001
0000
0100
,
0000
0010
0000
0100
0000
0001
0000
0000
,
1000
0000
0000
1001
0000
0000
0001
0000
,
1000
0100
0010
0000
,
1001
0000
0000
0000
1000
0001
0000
1000
,
0000
0010
0000
0100
0000
0001
0000
0000
,
1001
0000
0000
1000
0000
0000
0100
0010
,
0000
0001
0000
0010
0000
0000
0001
0000
,
1001
0000
0000
0001
0000
0000
0010
0000
,
0110
0000
0000
0100
0000
0000
1000
0000
,
1010
0000
0000
2002
0000
0000
0000
0000
,
0000
0000
3003
0000
,
1000
0011
0010
0100
,
1000
0000
0010
0000
1000
0100
1000
0000
,
1000
0001
0010
0000
0100
0000
1000
0000
,
0010
0100
0110
0110
,
0001
1000
0010
0100
,
0001
0000
0010
0000
0001
0100
0001
0000
,
1000
0100
0010
0000
0001
0010
0001
0000
,
0010
0100
0110
0000
,
0010
1001
0100
1001
,
0010
1001
0100
0110
,
0010
1001
0010
1001
,
0100
0000
1001
0000
0010
0100
0010
0100
,
0000
1001
0100
1001
,
0010
1001
0100
1001
,
0100
0000
0100
1000
0100
0000
0010
0000
,
0001
0010
0001
0000
0100
0000
0000
0000
,
0010
1001
0100
1001
,
0010
1001
0100
0110
,
0010
1001
0010
1001
,
0100
0000
1001
0000
1000
0001
1000
0001
,
1000
0000
0100
1001
,
0010
1001
0100
1001
,
0100
0010
0100
0000
0100
0000
0000
0000
,
0001
1000
0001
1001
0000
0000
,
0001
0000
1000
0000
0010
0100
0000
0001
,
0000
0010
0000
0100
0000
1000
0000
0000
,
1000
0000
0000
0001
0000
0000
0100
0010
,
0000
0010
0000
1000
0000
0000
0001
0010
,
0001
0000
0100
0000
0010
1000
0000
1000
,
0000
0010
0000
0100
0000
0001
0000
0000
,
1000
0100
1000
0000
0001
0010
0001
0000
,
1000
0100
0001
0100
,
1000
0000
0001
0000
1000
0100
0000
1000
,
0000
0010
0000
0100
0000
0001
0000
0000
,
1001
0000
0000
1000
0000
0000
0100
0010
,
0000
0010
0000
0001
0000
0000
1000
0100
,
1000
0000
0000
0001
0000
0000
0010
0100
,
1000
0000
0000
0001
0000
0000
0100
0000
,
1100
0000
0000
2002
0000
0000
0000
0000
,
3003
0000
0000
0000
,
0001
0000
1000
0100
0000
1000
0100
1000
,
0000
0010
0100
0010
0100
0000
0001
0000
,
1001
0000
0100
0010
0100
0000
0010
0000
,
0101
1100
0101
0101
,
1000
0000
0001
0100
0000
0001
0010
0001
,
0000
0010
0100
0010
0100
0000
1000
0000
,
0001
0000
0000
1000
0000
0000
0100
0000
0010
0000
0001
0000
,
1000
0000
0001
0100
0000
0010
1000
0000
,
1002
0000
0000
0000
0013
0100
0010
0100
,
0000
1000
0010
1000
0010
0000
0100
0000
,
0001
0100
1000
0100
,
0001
0000
0000
0001
0000
0000
1000
0000
0010
0000
0100
0000
,
0001
0000
0010
0001
0000
0010
0001
0010
,
0000
0001
1000
0001
0100
0000
0100
0000
,
1000
0100
0001
0100
,
0001
0000
0000
1000
0000
0000
0001
0000
1000
0000
0000
0000
0000
0000
0000
0000
,
1000
0100
1000
0001
,
0100
0000
0001
0000
0010
0100
1000
0000
,
0001
0100
0001
1000
,
0100
1000
1100
0000
,
0001
0100
0001
1000
,
0100
0000
1000
0000
0010
0100
0001
0000
,
1000
0100
1000
0001
,
0010
0000
0001
0100
0000
1001
0000
0000
,
0110
0010
0100
0010
,
1000
0000
0000
1100
0000
0000
0000
0000
,
2002
0000
0000
0000
,
3003
0000
0000
0000
,
0000
0000
0000
0000
;
#NOTES:
     dance-single:
     :
     Hard:
     13:
     :
0000
0000
0000
0000
,
0000
0000
0000
0000
,
0000
0000
0000
0000
,
0000
0000
0000
0000
,
0000
0000
0000
0000
,
0000
0000
0000
0000
,
0000
0000
0000
0000
0000
0000
0001
0100
,
0001
0000
0010
0000
0001
1000
0100
0020
,
0000
0032
0000
2003
0000
3010
0000
0000
,
0110
0000
0000
1001
0000
0000
1000
0000
,
1000
0000
0000
0100
0000
0000
0001
0000
0000
0010
0000
0000
0000
0000
0000
0000
,
0100
0010
0100
0000
0001
1000
0000
0200
,
0000
0320
0000
0032
0000
1003
0000
0000
,
0102
0000
0000
0013
0000
0000
0010
0100
,
0000
0110
0000
1100
0000
0000
1000
0100
,
1000
0000
0000
1010
0000
0000
1000
0010
,
0100
0000
0000
1001
0000
0000
0001
0100
,
0010
0000
0000
0101
0000
0000
1000
0001
,
0100
0010
1000
0001
1001
0000
0000
0000
,
1000
0000
0100
0010
0001
0100
0010
1000
,
0000
0001
0010
0001
0100
0010
0100
0001
,
0000
0001
0010
0000
0100
1000
0000
0010
,
0000
0000
0000
0100
0000
0000
0001
0000
0000
1000
0000
0000
0100
0000
0000
0000
0000
0000
0010
0000
0100
0000
0010
0000
,
0001
0000
0100
0010
1000
0100
0010
0001
,
0000
1000
0010
1000
0001
0010
0100
1000
,
0100
0000
0010
0000
0100
0000
1000
0000
0001
0000
0000
0100
0000
0000
0010
0000
,
0100
0000
0000
0000
0000
0100
0010
0000
,
1002
0000
0000
0013
0100
0010
0000
0001
,
1000
0010
1000
0100
0001
0100
1000
0010
,
0100
0000
0000
0000
0000
0000
0001
0100
0001
0000
0000
0000
0101
0000
0000
0000
,
1000
0100
0010
0100
1000
0010
1000
0000
,
0210
0000
0000
0301
0010
0001
0000
1000
,
0001
0010
1000
0010
0001
0100
1000
0100
,
0010
0000
0000
0000
0000
0000
1000
0010
1000
0000
0000
0000
0000
0000
0000
0000
,
1000
0000
0000
0001
0000
0000
0100
0000
0001
0000
1000
0000
0000
0000
0000
0000
,
2100
0000
0000
3100
0010
0100
0000
0001
,
1000
0010
0100
0001
0100
0001
1000
0100
,
0010
0000
0000
0000
0000
0000
0010
0100
0010
0000
0000
0000
0010
0000
0000
0000
,
0001
0010
0100
0010
0001
0100
1000
0000
,
1002
0000
0000
0013
0100
0010
0000
0001
,
1000
0010
0001
0010
1000
0001
1000
0100
,
0010
0000
0000
0000
0000
0000
0010
0100
0010
0000
0000
0000
0100
0000
0000
0000
,
0011
0000
0000
0000
1100
0000
0000
0000
0110
0000
0000
0000
1001
0000
0000
0000
0000
0000
0001
0000
0000
0010
0000
0000
,
0001
0000
1000
0000
0100
0010
0000
0002
,
0000
0023
0000
0230
0000
1300
0000
0000
,
0001
0100
0001
0000
0100
1000
0100
0010
,
0000
0010
0000
0100
0000
0000
1000
0001
,
1000
0100
1000
0000
0010
0200
0000
2300
,
0000
3200
0000
0302
0000
0013
0000
0000
,
1000
1010
0011
1100
,
0101
0000
1001
0000
1000
0100
1000
0000
,
0001
0000
1000
0000
0010
0100
0001
0100
,
0000
0100
0001
0010
0001
1000
0100
0000
,
0001
1000
0100
0010
0001
0000
0010
1000
,
0000
0110
0000
0011
0000
0000
1000
0010
,
1000
0000
1000
0100
0000
0100
1000
0010
,
0100
0000
0100
0001
0000
0001
0010
0001
,
1000
1100
0101
1010
,
0001
0010
0100
1000
0001
0010
0001
0000
,
0001
0000
0001
0010
0000
0100
1000
0010
,
0000
0100
0001
0010
0001
1000
0010
0100
,
0001
0000
0000
0000
0010
0100
0010
0000
0001
0000
0010
0000
0000
0000
0100
0000
,
0000
0000
0000
1000
0000
0000
0010
0000
0000
1000
0000
0000
0001
0000
0000
0000
0010
0000
0000
0000
0100
0000
0000
0000
,
1000
0000
1000
0010
0000
0100
0001
0010
,
0000
0100
1000
0010
0100
0001
0010
0100
,
1000
0000
0000
0100
0000
0000
1000
0000
0000
0000
0000
0000
0100
0000
0000
0000
0000
0000
0010
0000
0000
0000
0000
0000
0100
0000
0000
0000
0000
0000
0000
0000
0010
0000
0000
0000
0000
0000
0000
0000
0001
0000
0000
0000
0000
0000
0000
0000
,
0100
0000
1001
1000
0000
0001
0100
0001
,
2000
0000
0000
0000
3010
0001
0010
0100
,
0000
0010
1000
0010
1000
0001
0010
0000
,
0110
0000
0100
0010
0001
0100
0010
1000
,
0000
0000
0000
0000
0000
0000
1000
0000
0000
0010
0000
0000
1000
0000
0000
0000
0000
0000
0100
0000
0000
0000
0000
0000
1000
0000
0000
0000
0000
0000
0000
0000
0010
0000
0000
0000
0000
0000
0000
0000
0100
0000
0000
0000
0000
0000
0000
0000
,
0001
0000
1000
0010
0000
0100
0010
0100
,
0000
0001
1000
0010
1000
0001
0010
0001
,
1000
0100
0010
0001
0100
0001
0010
0100
,
1000
0000
0000
0001
0000
0000
1000
0000
1001
0000
0000
0000
0000
0000
0000
0000
,
1000
0000
0100
1000
0010
0100
0001
0100
,
0010
0100
0001
0010
1000
0010
0001
1000
,
0001
0000
0100
0001
0100
0000
0110
0000
,
1000
0000
0000
0000
0001
0010
0001
0000
0010
0000
0001
0000
1000
0000
0100
0000
,
1000
0000
1000
0001
0010
0001
0100
0001
,
1000
0000
0010
0000
0100
0000
0001
0000
0010
0000
0100
0000
1000
0000
0100
0010
,
0100
0000
0000
0000
1000
0000
0010
0000
0100
0000
0010
0000
1000
0000
0001
0010
,
0001
1000
0010
0100
0000
0001
0000
0000
,
0001
0010
0100
1000
0010
1000
0100
0010
,
0100
0000
1100
1000
0000
0011
0001
0000
,
2002
0000
0000
0000
,
3003
0000
0000
0000
,
0000
0000
0000
0000
;
#NOTES:
     dance-double:
     :
     Easy:
     7:
     :
00000000
00000000
00000000
00000000
,
00000000
00000000
00000000
00000000
,
00000000
00000000
00000000
00000000
,
00000000
00000000
00000000
00000000
,
00000000
00000000
00000000
00000000
,
00000000
00000000
00000000
00000000
,
00000000
00000000
00000000
00000000
,
00011000
00000000
00001000
00000000
,
00000010
00000000
00000001
00000000
,
00001000
00001000
00000001
00000100
,
00001000
00000000
00010000
00000000
,
00011000
00000000
00010000
00000000
,
00100000
00000000
10000000
00000000
,
01000000
00000000
01000000
00000000
,
00100000
01000000
00010000
00000000
,
00011000
00000000
00000100
00000000
,
00000001
00000000
00000010
00000000
,
00001000
00010000
00001000
00010000
,
00100000
00000000
00000000
00000000
,
10000000
00100000
01000000
00010000
,
00100000
00000000
00002000
00000000
,
00013000
00000100
00001000
00000010
,
00000100
00000000
00000002
00000003
,
00000001
00000010
00000100
00001000
,
00000100
00000000
00010000
00001000
,
00010000
00000000
00001000
00000000
,
00011000
00000000
00000000
00000000
,
00000000
00101000
00000000
01100000
,
00000000
11000000
00000000
10100000
,
00000000
01100000
00000000
01001000
,
00000000
00011000
00001000
00010000
,
00000000
00001010
00000000
00000110
,
00000000
00000101
00000000
00000011
,
00000000
00000001
00000100
00000000
,
00001000
00000000
00011000
00000000
,
00000000
00002000
00000000
00203000
,
00000000
02300000
00000000
13000000
,
00100000
02000000
00000000
03010000
,
00000000
00100000
00001000
00010000
,
00001000
00000100
00000001
00000020
,
00000000
00000130
00001000
00000001
,
00000100
00001000
00010000
00000000
,
00010000
00001000
00011000
00000000
,
00010000
00000000
00100000
00000000
,
10000000
00100000
01000000
00000000
,
00010000
00000000
00100000
00000000
,
01000000
10000000
01000000
00010000
,
00001000
00000000
00010000
00000000
,
00001000
00000010
00000001
00000000
,
00001000
00000100
00000001
00000100
,
00001000
00000100
00010000
00000000
,
00001000
00010000
00100000
00000000
,
00010000
00100000
01000000
00000000
,
00100000
00000000
10000000
00000000
,
01000000
00010000
00001000
00010000
,
00002000
00000000
00003200
00000000
,
00000302
00000000
00000013
00000000
,
00000001
00000100
00001000
00010000
,
01000000
00010000
00001000
00000000
,
00001000
00000000
00000100
00000000
,
00000010
00000000
00001000
00000000
,
00000100
00000010
00000010
00000000
,
00000001
00000000
00001000
00000000
,
00010000
00000000
10000000
00000000
,
00100000
00000000
10000000
00000000
,
01000000
00000000
10000000
10000000
,
10000000
01000000
00010000
00000000
,
00002000
00000000
00013000
00000000
,
00001000
00000000
00000010
00000000
,
00000001
00000000
00001000
00000000
,
00000001
00000100
00001000
00010000
,
00001000
00000000
00010000
00000000
,
01000000
10000000
01000000
00000000
,
10000000
01000000
00010000
00001000
,
00010000
00001000
00000010
00000000
,
00002000
00010000
00000000
00013000
,
00100000
01000000
00010000
00000000
,
10000000
01000000
00010000
00001000
,
00000100
00000010
00000100
00000000
,
00000002
00000100
00000000
00000103
,
00000010
00000100
00001000
00000000
,
00010000
01000000
10000000
00100000
,
00010000
00000000
00001000
00000000
,
00000010
00000000
00001000
00000000
,
00010000
00001000
00010000
00001000
,
00022000
00000000
00000000
00000000
,
00033000
00000000
00000000
00000000
,
00000000
00000000
00000000
00000000
;
#NOTES:
     dance-double:
     :
     Medium:
     10:
     :
00000000
00000000
00000000
00000000
,
00000000
00000000
00000000
00000000
,
00000000
00000000
00000000
00000000
,
00000000
00000000
00000000
00000000
,
00000000
00000000
00000000
00000000
,
00000000
00000000
00000000
00000000
,
00000000
00000000
00000000
00010000
,
00001000
00000000
00000000
00000000
00000100
00000001
00000000
00000010
,
00000000
00000100
00000000
00001000
00000000
00000001
00000000
00000000
,
00000100
00000000
00000000
00001000
00000000
00000000
00010000
00000000
,
01000000
10000000
01000000
00010000
,
00010000
00000000
00000000
00000000
01000000
10000000
00000000
00100000
,
00000000
01000000
00000000
00010000
00000000
10000000
00000000
00000000
,
00100000
00000000
00000000
01000000
00000000
00000000
00010000
10000000
,
00000000
10000000
00000000
01000000
00000000
00000000
00010000
00000000
,
00002000
00000000
00000000
00003100
00000000
00000000
00000001
00000000
,
00000200
00000000
00000000
00000310
00000000
00000000
00010000
00000000
,
00001000
00000000
00000000
00011000
00000000
00000000
00000000
00000000
,
00001000
00010000
00001000
00000000
,
00010000
01000000
10000000
00100000
,
01000000
00000000
00100000
00000000
00010000
00001000
00010000
00000000
,
00001000
00000100
00000001
00000010
,
00001000
00010000
00011000
00011000
,
00001000
00000100
00000001
00000010
,
00000100
00000000
00000010
00000000
00001000
00010000
00001000
00000000
,
00010000
01000000
10000000
00100000
,
01100000
00000000
00000000
00000000
,
00100000
10010000
00100000
10010000
,
00100000
00110000
00001000
00011000
,
00010000
00010100
00000010
00001001
,
00000010
00000000
00001001
00000000
00000001
00000100
00001000
00010000
,
00000000
00011000
00010000
01010000
,
01000000
11000000
10000000
10100000
,
10000000
00000000
01000000
00010000
00001000
00000000
00000000
00000000
,
00000100
00000010
00001000
00000000
00000100
00000000
00000010
00000000
,
00000100
00001001
00000100
00001001
,
00000010
00001010
00010000
00011000
,
00001000
00101000
00100000
10010000
,
00100000
00000000
10010000
00000000
10000000
01000000
00010000
00001000
,
00000000
00001000
00001000
00001100
,
00000100
00000101
00000001
00000011
,
00000001
00000000
00000100
00001000
00010000
00000000
00000000
00000000
,
00010000
00001000
00010000
00011000
00000000
00000000
,
00010000
00000000
01000000
00000000
10000000
00100000
00000000
01000000
,
00000000
01000000
00000000
00010000
00000000
00010000
00000000
00000000
,
00100000
00000000
00000000
01000000
00000000
00000000
00010000
00001000
,
00000000
00000100
00000000
00000010
00000000
00000000
00000001
00000100
,
00001000
00000000
00010000
00000000
01000000
00100000
00000000
01000000
,
00000000
01000000
00000000
00010000
00000000
00010000
00000000
00000000
,
00002000
00000000
00000000
00003100
00000000
00000000
00000001
00000000
,
00000100
00000000
00000001
00000000
00000010
00001000
00010000
00000000
,
00010000
00000000
01000000
00000000
10000000
00100000
10000000
01000000
,
00000000
01000000
00000000
00010000
00000000
00010000
00000000
00000000
,
00002000
00000000
00000000
00013000
00000000
00000000
00001000
00000100
,
00000000
00000010
00000000
00001000
00000000
00000000
00000001
00000010
,
00001000
00000000
00000000
00010000
00000000
00000000
00010000
01000000
,
10000000
00000000
00000000
00100000
00000000
00000000
01000000
00000000
,
00001000
00000000
00000000
00011000
00000000
00000000
00000000
00000000
,
00001000
00000100
00000020
00000130
,
00000001
00000000
00000100
00000000
00000000
00001000
00010000
00001000
,
00000000
00100000
01000000
00100000
01000000
00000000
10000000
00000000
,
01000000
00000000
00100000
01000000
00100000
00000000
00010000
00000000
,
01000000
00001000
00010000
00000010
,
00000100
00000000
00000001
00000100
00000000
00001000
00010000
00001000
,
00000000
00100000
01000000
00100000
01000000
00000000
10010000
00000000
,
20000000
00000000
00000000
31000000
00100000
00010000
,
10000000
00000000
00100000
00010000
00000000
00001000
00010000
00000000
,
00002000
00000000
00000000
00000000
00003010
00000001
00000010
00000100
,
00000000
00001000
00000001
00000100
00001000
00000000
00010000
00000000
,
00100000
00000000
10000000
00000000
10000000
01000000
10000000
01000000
,
00010000
00000000
00000000
00001000
00000000
00000000
00000100
00000000
00000010
00000000
00000100
00000000
,
00000001
00000010
00000001
00000100
,
00000001
00000010
00001000
00010000
,
00001000
00010000
00001000
00010000
00001000
00000010
00001000
00010000
,
00001000
00010000
00011000
00000000
,
00010000
00000000
01000000
00000000
10000000
01000000
10000000
00000000
,
01000000
00000000
00100000
00000000
00001000
00010000
00001000
00000000
,
00001000
00000000
00000100
00000000
00000001
00001000
00000010
00000000
,
00001000
00000000
00000100
00000000
00010000
00001000
00010000
00000000
,
00001000
00000000
00000100
00000000
00000001
00000100
00000001
00000000
,
00000010
00000000
00000100
00000000
00010000
00001000
00010000
00000000
,
00010000
00000000
01000000
00000000
10000000
00010000
00100000
00000000
,
00001000
00000000
00010000
00001000
00000000
00000100
00000000
00000000
,
00000101
00000001
00000100
00001000
,
00010000
00000000
00000000
01000000
00000000
00000000
00000000
00000000
,
20020000
00000000
00000000
00000000
,
30030000
00000000
00000000
00000000
,
00000000
00000000
00000000
00000000
;
#NOTES:
     dance-double:
     :
     Hard:
     13:
     :
00000000
00000000
00000000
00000000
,
00000000
00000000
00000000
00000000
,
00000000
00000000
00000000
00000000
,
00000000
00000000
00000000
00000000
,
00000000
00000000
00000000
00000000
,
00000000
00000000
00000000
00000000
,
00000000
00000000
00000000
00000000
00000000
00000000
00010000
00001000
,
00010000
00000000
00001000
00000000
00000100
00001000
00000100
00000020
,
00000000
00002030
00000000
00003200
00000000
00000310
00000000
00000000
,
00000011
00000000
00000000
00001010
00000000
00000000
00011000
00000000
,
01000000
00000000
00000000
10000000
00000000
00000000
00100000
00000000
00000000
00010000
00000000
00000000
00000000
00000000
00000000
00000000
,
00001000
00000100
00000010
00000000
00001000
00000001
00000010
00000200
,
00000000
00000320
00000000
00000032
00000000
00001003
00000000
00000000
,
00000001
00000100
00001000
00010000
00000000
00000000
00100000
01000000
,
00000000
01010000
00000000
11000000
00000000
00000000
10000000
01000000
,
10000000
00000000
00000000
01100000
00000000
00000000
00001000
00010000
,
00001000
00000000
00000000
00000110
00000000
00000000
00000001
00000100
,
00000010
00001000
00000010
00001000
00000100
00010000
00000100
00010000
,
00001000
00100000
00001000
00100000
01000000
10000000
01000000
00000000
,
10000000
00000000
01000000
00100000
00010000
01000000
00100000
10000000
,
00000000
01000000
00100000
00001000
00010000
00010000
00010000
00000000
,
00000100
00001000
00000010
00001000
00000100
00000010
00000001
00000010
,
00000000
00000000
00000000
00000001
00000000
00000000
00001000
00000000
00000000
00000001
00000000
00000000
00000100
00000000
00000000
00000000
00000000
00000000
00000010
00000000
00000100
00000000
00000010
00000000
,
00000100
00000000
00001000
00010000
00100000
01000000
00010000
10000000
,
01000000
00010000
00001000
00100000
00001000
00000100
00000001
00000010
,
00000000
00000000
00000001
00000000
00000100
00000000
00001000
00000000
00010000
00000000
00000000
00100000
00000000
00000000
10000000
00000000
,
10010000
00000000
00000000
00000000
00000000
01000000
00100000
00000000
,
10020000
00000000
00000000
00130000
01000000
00100000
00000000
00010000
,
10000000
00100000
10000000
01000000
00010000
00001000
00000100
00000010
,
00000100
00000000
00000000
00000000
00000000
00000000
00000001
00000010
00000001
00000000
00000000
00000000
00000100
00000000
00000000
00000000
,
00000001
00000010
00001000
00010000
01000000
00100000
00010000
00000000
,
20010000
00000000
00000000
30100000
01000000
00100000
00000000
10000000
,
00010000
00100000
01000000
00100000
00001000
00010000
00001000
00000100
,
00000001
00000000
00000000
00000000
00000000
00000000
00000010
00000100
00000010
00000000
00000000
00000000
00000000
00000000
00000010
00000000
,
00000001
00000000
00000000
00001000
00000000
00000000
00000010
00000000
00000100
00000000
00000010
00000000
00000100
00000000
00000000
00000000
,
00002000
00000000
00000000
00013000
00100000
10000000
00000000
10000000
,
00010000
00100000
01000000
10000000
01000000
00010000
00001000
00000010
,
00000100
00000000
00000000
00000000
00000000
00000000
00000010
00000100
00000010
00000000
00000000
00000000
00000001
00000000
00000000
00000000
,
00000100
00000010
00000100
00000001
00000100
00001000
00010000
00000000
,
00021000
00000000
00000000
00130000
01000000
00100000
00000000
10000000
,
00010000
00100000
10000000
00100000
00001000
00010000
01000000
00010000
,
00000100
00000000
00000000
00000000
00000000
00000000
00000010
00000100
00000010
00000000
00000000
00000000
00000001
00000000
00000000
00000000
,
00000011
00000000
00000000
00000000
00000110
00000000
00000000
00000000
00001100
00000000
00000000
00000000
00001001
00000000
00000000
00000000
00000000
00000000
00000001
00000000
00000000
00000100
00000000
00000000
,
00001000
00000000
00010000
00000000
00100000
10000000
01000000
00200000
,
00000000
00302000
00000000
02003000
00000000
03010000
00000000
00000000
,
00100000
00000000
00000000
00001000
00010000
00001000
00000100
00000020
,
00000000
00002030
00000000
00003001
00000000
00000000
00000001
00001000
,
00000001
00000010
00000001
00000000
00000100
00001000
00010000
00002000
,
00000000
00023000
00000000
00230000
00000000
10300000
00000000
00000000
,
10000000
11000000
01010000
00011000
,
00001100
00000000
00000110
00000000
00001001
00000000
00000001
00000010
,
00001000
00000000
00010000
00000000
01000000
10000000
01000000
00200000
,
00000000
00320000
00000000
20030000
00000000
31000000
00010000
00000000
,
00001000
00000000
00000100
00000000
00000010
00001000
00000010
00000100
,
00000000
00000001
00000000
00000010
00000000
00000100
00010000
00001000
,
00010000
00000000
00100000
10000000
00000000
01000000
10000000
01000000
,
00010000
00000000
00001000
00010000
00000000
00000100
00000010
00000001
,
00001000
00000000
00000001
00001000
00000000
00000010
00000100
00001000
,
00010000
00100000
10000000
01000000
00100000
00010000
01010000
00000000
,
00010000
00000000
10000000
00100000
00000000
01000000
00010000
00100000
,
00000000
00001000
00010000
00000100
00000010
00000001
00000100
00000001
,
00001000
00000000
00000000
00000000
00000010
00001000
00000010
00000000
00000100
00000000
00000001
00000000
00000000
00000000
00000010
00000000
,
00000000
00000000
00000000
00000100
00000000
00000000
00001000
00000000
00000000
00000001
00000000
00000000
00000100
00000000
00000000
00000000
00001000
00000000
00000000
00000000
00010000
00000000
00000000
00000000
,
00001000
00000000
01000000
00010000
00000000
00100000
01000000
10000000
,
00000000
00100000
01000000
00010000
00100000
00010000
01000000
00100000
,
10000000
00000000
00000000
00100000
00000000
00000000
10000000
00000000
00000000
00000000
00000000
00000000
00010000
00000000
00000000
00000000
00000000
00000000
01000000
00000000
00000000
00000000
00000000
00000000
00100000
00000000
00000000
00000000
00000000
00000000
00000000
00000000
00010000
00000000
00000000
00000000
00000000
00000000
00000000
00000000
00001000
00000000
00000000
00000000
00000000
00000000
00000000
00000000
,
00010000
00000000
00001000
00000010
00000000
00000001
00000100
00000001
,
00000020
00000000
00000000
00000000
00001030
00010000
00000000
01000000
,
00000000
10000000
01000000
00010000
00001000
00100000
00001000
00000000
,
00000010
00000000
00000001
00001000
00000010
00000100
00000001
00000010
,
00000000
00000000
00000000
00000001
00000000
00000000
00000100
00000000
00000000
00001000
00000000
00000000
00000100
00000000
00000000
00000000
00000001
00000000
00000000
00000000
00000100
00000000
00000000
00000000
,
00001000
00000000
00010000
00001000
00000000
00100000
01000000
10000000
,
00000000
01000000
00010000
00001000
00010000
00000100
00001000
00000010
,
00000100
00000010
00001000
00000100
00000010
00000001
00000100
00001000
,
00010000
00000000
00000000
00001000
00000000
00000000
00010000
00000000
01000000
00000000
00000000
00000000
00000000
00000000
00000000
00000000
,
01000000
00000000
10000000
01000000
10000000
00100000
10000000
01000000
,
00100000
00001000
00010000
00001000
00000100
00000001
00000010
00000100
,
00000010
00000000
00001000
00010000
00001000
00000000
00000100
00000000
,
00001000
00000000
00010000
00000000
00001000
00000000
00100000
00000000
01000000
10000000
01000000
00000000
00100000
00000000
00001000
00000000
,
00010000
00000000
00010000
01000000
10000000
00100000
10000000
01000000
,
00100000
00000000
00001000
00000000
00010000
00000000
00001000
00000000
00000100
00000000
00000001
00000000
00001000
00000010
00001000
00000000
,
00000001
00000000
00000100
00000010
00000100
00001000
00010000
00001000
,
00100000
00001000
00010000
01000000
00000000
01100000
00000000
00000000
,
10000000
01000000
00100000
00010000
01000000
00001000
00010000
00000100
,
00010100
00000000
00000000
00000110
00000000
00000001
00000100
00000000
,
00002002
00000000
00000000
00000000
,
00003003
00000000
00000000
00000000
,
00000000
00000000
00000000
00000000
;
