
//----- song ID: bada -----//
#TITLE:Bad Apple!! feat. nomico;
#ARTIST:Alstroemeria Records;
#BANNER:Bad Apple!! feat. nomico.png;
#BACKGROUND:Bad Apple!! feat. nomico-bg.png;
#CDTITLE:./CDTitles/DDR A.png;
#MUSIC:Bad Apple!! feat. nomico.ogg;
#SAMPLESTART:77.785;
#SAMPLELENGTH:15;
#DISPLAYBPM:138;
#BPMS:0=137.75,4=138;
#NOTES:
     dance-single:
     :
     Beginner:
     3:
     :
0000
0000
0000
0000
,
0000
0000
0000
0000
,
0000
0000
0000
0000
,
0000
0000
0000
0000
,
0000
0000
0000
0000
,
0100
0000
0000
0000
,
0001
0000
0000
0000
,
0100
0000
0000
0000
,
1000
0000
0000
0000
,
0000
0010
0000
0010
,
0000
0010
0000
0001
,
0000
0010
0000
0010
,
0000
0010
0000
1000
,
0000
0100
0000
0100
,
0000
0100
0000
0001
,
0000
0100
0000
0100
,
0000
0100
0000
1000
,
0000
0000
0001
0000
,
0000
0000
1000
0000
,
0000
0000
0010
0000
,
0000
0000
0100
0000
,
0000
0000
1000
0000
,
0000
0000
0001
0000
,
0000
0000
0100
0000
,
0000
0000
0010
0000
,
0002
0000
0003
0000
,
2000
0000
3000
0000
,
0020
0000
0030
0000
,
0200
0000
0300
0000
,
2000
0000
3000
0000
,
0002
0000
0003
0000
,
0200
0000
0300
0000
,
0020
0000
0030
0000
,
0001
0000
0001
0000
,
1000
0000
1000
0000
,
0010
0000
0010
0000
,
0100
0000
0100
0000
,
1000
0000
1000
0000
,
0001
0000
0001
0000
,
0100
0000
0100
0000
,
0010
0000
0010
0000
,
0001
0001
0001
0000
,
1000
1000
1000
0000
,
0010
0010
0010
0000
,
0100
0100
0100
0000
,
1000
1000
1000
0000
,
0001
0001
0001
0000
,
0100
0100
0100
0000
,
0010
0010
0010
0000
,
0002
0000
0003
0000
,
0020
0000
0030
0000
,
0200
0000
0300
0000
,
2000
0000
3000
0000
,
0020
0000
0030
0000
,
0002
0000
0003
0000
,
2000
0000
3000
0000
,
0002
0000
0003
0000
,
2000
0000
3001
0000
,
0002
0000
1003
0000
,
0020
0000
0130
0000
,
0200
0000
0310
0000
,
2000
0000
3001
0000
,
0002
0000
1003
0000
,
0200
0000
0310
0000
,
0020
0000
0030
1001
,
0000
0000
0000
0010
,
0000
0000
0000
0001
,
0000
0000
0000
0010
,
0000
0000
0000
1000
,
0000
0000
0000
0000
;
#NOTES:
     dance-single:
     :
     Easy:
     5:
     :
0000
0000
0000
0000
,
0000
0000
0000
0000
,
0000
0000
0000
0000
,
0000
0000
0000
0000
,
0000
0000
0000
0000
,
0001
0010
0100
0000
,
1000
0010
0100
0000
,
0001
1000
0001
0000
,
1000
0001
1000
1001
,
0000
0100
0000
0100
,
0000
0100
0010
0010
,
0000
1000
0000
1000
,
0000
1000
0001
0001
,
0000
0010
0000
0010
,
0000
0010
0001
0001
,
0000
1000
0000
1000
,
0000
1000
0100
0100
,
0010
0001
0010
0000
,
0100
1000
0100
0000
,
1000
0010
1000
0000
,
0001
1000
0001
1000
,
0010
0100
0010
0000
,
1000
0001
1000
0000
,
0010
1000
0010
0000
,
0100
0010
0100
0010
,
1000
0001
0010
0000
,
0100
0010
0001
1000
,
0010
1000
0001
0000
,
0010
0010
0100
0100
,
0010
0001
0100
0000
,
0010
1000
0100
0010
,
0001
0100
0010
0000
,
0100
0100
0010
0010
,
1000
0010
0100
0000
,
0001
1000
0010
0000
,
0100
0001
0100
0000
,
0001
1000
0100
0000
,
1000
0010
0100
0000
,
0001
1000
0010
0000
,
1000
0100
1000
0000
,
0001
0100
0001
0000
,
0010
0100
1001
0000
,
0001
1000
0110
0000
,
0010
1000
1001
0000
,
0001
0100
0110
0000
,
1000
0010
1001
0000
,
0001
0100
0110
0000
,
0010
0010
1001
0000
,
0100
0100
1001
0000
,
0002
0000
0010
0003
,
0200
0000
1000
0300
,
0020
0000
0100
0030
,
0002
0000
1000
0003
,
2000
0000
0001
3000
,
0020
0000
0100
0030
,
2000
0000
0010
3000
,
0200
0000
0001
0300
,
0002
0100
0000
0103
,
0020
1000
0000
1030
,
0200
0010
0000
0310
,
0002
1000
0000
1003
,
2000
0010
0000
3010
,
0200
0001
0000
0301
,
0020
0100
0000
0130
,
0000
0000
1001
0110
,
0000
0001
0000
0001
,
0000
0001
0100
0100
,
0000
1000
0000
1000
,
0000
1000
0010
0010
,
0100
0000
0000
0000
,
0000
0000
0000
0000
;
#NOTES:
     dance-single:
     :
     Medium:
     8:
     :
0000
0000
0000
0000
,
0000
0000
0000
0000
,
0000
0000
0000
0000
,
0000
0000
0000
0000
,
0000
0000
0000
0000
,
0010
0000
0100
0000
0010
0000
1000
0001
,
0010
0100
1000
0001
,
0100
0000
0010
0000
0100
0000
0001
1000
,
0100
0010
0001
1000
,
0002
0000
0000
0013
0000
0100
0000
0000
2000
0000
0000
3010
0000
0100
0000
0000
,
0002
0000
0000
0013
0000
0100
0000
0000
1000
0000
0010
0000
1000
0000
0000
0000
,
0002
0000
0000
0013
0000
0100
0000
0000
2000
0000
0000
3010
0000
0100
0000
0000
,
0002
0000
0000
0013
0000
0100
0000
0000
1000
0000
0001
0000
1000
0000
0000
0000
,
0020
0000
0000
0130
0000
0001
0000
0000
0020
0000
0000
0130
0000
1000
0000
0000
,
0020
0000
0000
0130
0000
0001
0000
0000
1000
0000
0100
0000
1000
0000
0000
0000
,
0020
0000
0000
0130
0000
0001
0000
0000
0020
0000
0000
0130
0000
1000
0000
0000
,
0020
0000
0000
0130
0000
0001
0000
0000
0020
0000
0000
0000
0032
0000
0000
0000
,
1003
0000
0100
0000
0010
0000
0001
0010
,
0001
0000
0100
0000
0010
0000
1000
0001
,
1000
0100
0010
0100
,
0011
1000
1100
0001
,
1000
0000
0100
0000
0010
0000
0001
0010
,
0001
0000
0100
0000
0010
0000
1000
0001
,
1000
0100
0010
0100
,
2000
3002
0023
0230
,
1300
0000
0100
0000
0010
0000
0001
0100
,
0010
0000
1000
0000
0001
0000
1000
0010
,
1000
0100
0010
0100
,
1000
0100
1000
0000
0001
0010
0001
0000
,
0100
0000
0001
0000
1000
0000
0010
1000
,
0001
0000
0100
0000
0001
0000
0010
0001
,
0100
0001
0010
0001
,
1100
0011
1001
0110
,
0001
0000
0010
0100
1000
0000
0001
0000
,
1000
0000
0100
0010
0001
0000
1000
0000
,
0010
0000
1000
0001
0100
0000
0001
0000
,
0010
0000
0001
1000
0100
0000
1000
0000
,
0010
1000
0010
1000
0010
0000
0100
0000
,
0001
0010
0001
0010
0001
0000
1000
0000
,
0100
1000
0100
1000
0100
0000
0010
0000
,
0001
0100
0001
0100
0001
0000
0010
0000
,
1100
1001
1010
0000
,
0101
1001
0011
0000
,
1100
1001
0101
0000
,
0011
1001
1010
0000
,
1100
0011
1001
0000
,
0101
1010
0110
0000
,
1001
0110
1001
0110
,
1000
0001
0020
0230
,
2300
0010
0000
3010
,
0200
0001
0000
0301
,
0020
0100
0000
0130
,
2000
0001
0000
3001
,
0002
0010
0000
0013
,
0200
1000
0000
1300
,
0020
0100
0000
0130
,
0002
1000
0000
1003
,
2000
3010
0002
0013
,
2000
3100
0002
0103
,
0020
0031
0200
1300
,
0020
0031
0200
1300
,
0002
0013
2000
3010
,
0002
0103
2000
3100
,
0020
1030
0200
0301
,
0020
0000
0130
1001
,
0002
0000
0000
0013
0000
0100
0000
0000
2000
0000
0000
3010
0000
0100
0000
0000
,
0002
0000
0000
0013
0000
0100
0000
0000
1000
0000
0010
0000
1000
0000
0000
0000
,
0002
0000
0000
0013
0000
0100
0000
0000
2000
0000
0000
3010
0000
0100
0000
0000
,
0002
0000
0000
0013
0000
0100
0000
0000
1000
0000
0001
0000
1000
0000
0000
0000
,
0001
0000
0000
0000
,
0000
0000
0000
0000
;
#NOTES:
     dance-single:
     :
     Hard:
     12:
     :
0000
0000
0000
0000
,
0000
0000
0000
0000
,
0000
0000
0000
0000
,
0000
0000
0000
0000
,
0000
0000
0000
0000
,
0010
0000
0000
0000
1000
0000
0000
0000
0010
0000
0000
0000
0100
0001
0100
0001
,
0100
0000
0010
0000
1000
0000
0100
1000
,
0001
0000
0000
0000
0100
0000
0000
0000
0001
0000
0000
0000
1000
0010
1000
0010
,
1000
0010
1000
0101
,
0002
0000
0000
0013
0000
0100
1000
0000
0002
0000
0000
0013
0000
0100
1000
0000
,
0002
0000
0000
0013
0000
0100
1000
0000
0010
0000
0100
0000
0001
0000
1000
0000
,
0020
0000
0000
1030
0000
0001
0100
0000
0020
0000
0000
1030
0000
0001
0100
0000
,
0020
0000
0000
1030
0000
0001
0100
0000
0010
0000
1000
0000
0001
0000
0000
0000
,
2000
0000
0000
3100
0000
0010
0001
0000
2000
0000
0000
3100
0000
0010
0001
0000
,
2000
0000
0000
3100
0000
0010
0001
0000
0100
0000
0010
0000
1000
0000
0001
0000
,
0200
0000
0000
0301
0000
1000
0010
0000
0200
0000
0000
0301
0000
1000
0010
0000
,
0200
0000
0000
0000
0000
0000
0000
0000
0000
0301
0000
0000
0000
0000
0000
1000
0000
0000
0010
0000
0000
0000
0000
0000
0100
0000
0000
0000
0001
0000
0000
0000
0100
0000
0000
0000
0001
0000
0000
0000
0100
0000
0000
0000
0001
0000
0000
0000
,
1000
0100
0010
0001
1000
0000
0010
1000
,
0101
0000
1100
0000
0001
0010
0100
1000
,
0001
0100
0010
1000
0001
0000
0010
0001
,
1000
0100
0001
0010
1000
0100
0001
0010
,
1000
0100
0010
0001
1000
0000
0010
1000
,
0101
0000
0011
0000
0001
0010
0100
1000
,
0001
0100
0010
1000
0001
0000
0010
0001
,
0101
0000
0000
1010
0000
0000
0010
1000
0010
1000
0010
1000
,
0001
0100
0010
1000
0001
0000
0010
0001
,
1100
0000
0101
0000
1000
0010
0100
0001
,
1000
0100
0010
0001
1000
0000
0100
1000
,
0001
0010
0100
1000
0001
0010
0100
1000
,
0001
0100
0010
1000
0001
0000
0010
0001
,
1100
0000
1010
0000
1000
0010
0100
0001
,
1000
0100
0010
0001
1000
0000
0010
1000
,
1100
0011
1010
0101
,
1000
0010
0100
0001
1000
0000
0001
0100
,
0001
0010
0100
1000
0001
0000
1000
0010
,
1000
0100
0010
0001
0100
0000
0001
1000
,
0001
0010
0100
1000
0100
0000
1000
0100
,
1000
0010
0100
0001
1000
0000
0001
0100
,
0001
0010
0100
1000
0001
0000
1000
0010
,
1000
0100
0010
0001
0100
0000
0001
1000
,
0001
0010
0100
1000
0100
0000
1000
0010
,
1100
0000
1001
0000
1010
0000
1000
0010
,
0101
0000
1001
0000
0011
0000
0001
0010
,
1100
0000
1001
0000
1100
0000
1000
0010
,
0101
0000
1001
0000
0101
0000
1000
0010
,
1100
0000
1001
0000
1010
0000
0001
0010
,
0101
0000
1001
0000
0011
0000
1000
0001
,
0110
0000
1001
0000
0110
0000
1000
0010
,
0101
0000
0000
1010
0000
0000
0001
0100
0001
0100
0001
0100
,
0020
1000
0100
1030
,
0002
0010
1000
0013
,
0200
1000
0010
1300
,
0020
1000
0100
1030
,
2000
0001
0010
3001
,
0200
0010
1000
0310
,
2000
0001
0100
3001
,
0020
0100
0001
0130
,
2000
0000
3100
0010
0002
0000
0103
0000
,
0020
0000
1030
0100
0020
0000
0031
0000
,
2000
0000
3001
0100
0020
0000
1030
0000
,
0002
0000
0013
0100
2000
0000
3001
0000
,
2000
0000
3100
0010
0002
0000
0103
0000
,
0020
0000
1030
0100
0020
0000
0031
0000
,
1000
0010
1000
0010
2000
0000
3001
0100
,
0020
0030
1010
0101
,
0002
0000
0000
0013
0000
0100
1000
0000
0002
0000
0000
0013
0000
0100
1000
0000
,
0002
0000
0000
0013
0000
0100
1000
0000
0010
0000
0100
0000
0001
0000
1000
0000
,
0020
0000
0000
1030
0000
0001
0100
0000
0020
0000
0000
1030
0000
0001
0100
0000
,
0020
0000
0000
1030
0000
0001
0100
0000
0010
0000
1000
0000
0001
0000
0000
0000
,
0100
0000
0000
0000
,
0000
0000
0000
0000
;
#NOTES:
     dance-double:
     :
     Easy:
     5:
     :
00000000
00000000
00000000
00000000
,
00000000
00000000
00000000
00000000
,
00000000
00000000
00000000
00000000
,
00000000
00000000
00000000
00000000
,
00000000
00000000
00000000
00000000
,
00100000
10000000
01000000
00000000
,
00010000
00001000
00011000
00000000
,
00000010
00000001
00000100
00000000
,
00001000
00010000
00001000
00011000
,
00000000
00100000
00000000
01000000
,
00000000
00010000
10000000
10000000
,
00000000
01000000
00000000
00010000
,
00000000
00001000
00010000
00001000
,
00000000
00000010
00000000
00000100
,
00000000
00001000
00000001
00000001
,
00000000
00000100
00000000
00001000
,
00000000
00010000
00001000
00010000
,
00100000
10000000
00010000
00000000
,
00100000
01000000
00010000
00000000
,
00001000
00000010
00000001
00000000
,
00000100
00001000
00010000
01000000
,
10000000
00100000
01000000
00000000
,
00100000
00010000
00001000
00000000
,
00000010
00000100
00001000
00000000
,
00000001
00000010
00001000
00010000
,
00100000
01000000
00100000
00000000
,
00010000
00001000
00010000
00000000
,
00001000
00000010
00000001
00000000
,
00000100
00000010
00000100
00001000
,
00010000
01000000
10000000
00000000
,
00100000
01000000
00100000
00010000
,
00001000
00000010
00000001
00000000
,
00000100
00001000
00010000
00001000
,
00010000
00100000
01000000
00000000
,
00010000
00100000
01000000
00000000
,
00010000
00001000
00000100
00000000
,
00000001
00000010
00001000
00000000
,
00010000
00100000
01000000
00000000
,
00010000
00100000
01000000
00000000
,
00010000
00001000
00000100
00000000
,
00000001
00000010
00001000
00000000
,
00100000
01000000
01100000
00000000
,
00010000
10000000
10010000
00000000
,
10000000
01000000
00010000
00000000
,
00001000
00010000
00011000
00000000
,
00000010
00000100
00000110
00000000
,
00001000
00000001
00001001
00000000
,
00000001
00000010
00001000
00000000
,
00010000
00001000
00011000
00000000
,
00200000
00000000
10000000
00300000
,
02000000
00000000
00010000
03000000
,
00002000
00000000
00010000
00003000
,
00020000
00000000
00001000
00030000
,
00000020
00000000
00000001
00000030
,
00000200
00000000
00001000
00000300
,
00020000
00000000
00001000
00030000
,
00002000
00000000
00010000
00003000
,
00200000
01000000
00000000
01300000
,
00020000
10000000
00000000
10030000
,
02000000
00100000
00000000
03100000
,
00002000
00010000
00000000
00013000
,
00000020
00000100
00000000
00000130
,
00002000
00000001
00000000
00003001
,
00000200
00000010
00000000
00000310
,
00000000
00000000
00001000
00010000
,
00000000
00100000
00000000
01000000
,
00000000
00010000
10000000
10000000
,
00000000
01000000
00000000
00010000
,
00000000
00001000
00010000
00001000
,
00011000
00000000
00000000
00000000
,
00000000
00000000
00000000
00000000
;
#NOTES:
     dance-double:
     :
     Medium:
     9:
     :
00000000
00000000
00000000
00000000
,
00000000
00000000
00000000
00000000
,
00000000
00000000
00000000
00000000
,
00000000
00000000
00000000
00000000
,
00000000
00000000
00000000
00000000
,
00100000
00000000
01000000
00000000
00100000
00000000
10000000
00100000
,
00010000
00001000
00010000
00011000
,
00000010
00000000
00000100
00000000
00000010
00000000
00000001
00001000
,
00000010
00000100
00001000
00010000
,
00200000
00000000
00000000
10300000
00000000
01000000
00000000
00000000
00200000
00000000
00000000
00310000
00000000
01000000
00000000
00000000
,
00200000
00000000
00000000
10300000
00000000
01000000
00000000
00000000
00010000
00000000
00000000
00000000
00001000
00000000
00000000
00000000
,
00000020
00000000
00000000
00000031
00000000
00000100
00000000
00000000
00000020
00000000
00000000
00001030
00000000
00000100
00000000
00000000
,
00000020
00000000
00000000
00000031
00000000
00000100
00000000
00000000
00001000
00000000
00000000
00000000
00010000
00000000
00000000
00000000
,
00200000
00000000
00000000
01300000
00000000
00010000
00000000
00000000
00200000
00000000
00000000
01300000
00000000
10000000
00000000
00000000
,
00200000
00000000
00000000
00310000
00000000
00001000
00000000
00000000
00010000
00000000
00000000
00000000
00001000
00000000
00000000
00000000
,
00000020
00000000
00000000
00000130
00000000
00001000
00000000
00000000
00000020
00000000
00000000
00000130
00000000
00000001
00000000
00000000
,
00000020
00000000
00000000
00001030
00000000
00010000
00000000
00000000
00002000
00000000
00000000
00000000
00023000
00000000
00000000
00000000
,
01030000
00000000
10000000
00000000
00010000
00000000
00100000
00010000
,
00100000
00000000
01000000
00000000
00010000
00000000
00001000
00000010
,
00000001
00000100
00000010
00000100
,
00001010
00000100
00011000
00010000
,
00100000
00000000
10000000
00000000
00010000
00000000
00100000
00010000
,
00100000
00000000
01000000
00000000
00010000
00000000
00001000
00010000
,
00001000
00000100
00000010
00000100
,
00000002
00000203
00002300
00023000
,
01030000
00000000
10000000
00000000
00010000
00000000
00100000
00010000
,
00100000
00000000
01000000
00000000
00010000
00000000
00001000
00000010
,
00000001
00000100
00000010
00000100
,
00000001
00000010
00000001
00000000
00000100
00001000
00010000
00000000
,
00100000
00000000
10000000
00000000
00010000
00000000
00100000
00010000
,
00100000
00000000
01000000
00000000
00010000
00000000
00001000
00010000
,
00001000
00000100
00000010
00000100
,
00000101
00001001
00001100
00011000
,
00100000
00000000
10000000
01000000
00010000
00000000
00001000
00000000
,
01000000
00000000
00100000
00010000
00001000
00000000
00000000
00000000
,
00000010
00000000
00000001
00000100
00001000
00000000
00010000
00000000
,
00000100
00000000
00000010
00001000
00010000
00000000
00000000
00000000
,
00100000
10000000
00100000
10000000
00100000
00000000
00010000
00000000
,
00001000
00010000
00001000
00010000
00001000
00000000
00000000
00000000
,
00000010
00000001
00000010
00000001
00000010
00000000
00001000
00000000
,
00010000
00001000
00010000
00001000
00010000
00000000
00000000
00000000
,
00110000
10010000
10100000
00000000
,
11000000
01010000
00011000
00000000
,
00001010
00001001
00000011
00000000
,
00000101
00001100
00011000
00000000
,
00110000
11000000
10010000
00000000
,
01100000
01010000
00011000
00000000
,
00001010
00000101
00001010
00000101
,
00000010
00000100
00001100
00011000
,
00200000
10000000
00000000
10300000
,
02000000
00010000
00000000
03010000
,
00002000
00010000
00000000
00013000
,
00020000
00001000
00000000
00031000
,
00000020
00000001
00000000
00000031
,
00000200
00001000
00000000
00001300
,
00020000
00001000
00000000
00031000
,
00002000
00010000
00000000
00013000
,
00200000
10300000
00020000
01030000
,
00200000
00310000
00002000
00003010
,
00000002
00000103
00000020
00001030
,
00000002
00000103
00002000
00013000
,
00200000
01300000
00020000
00130000
,
02000000
13000000
00200000
00310000
,
00002000
00003010
00000002
00000013
,
00000200
00000000
00001300
00011000
,
00200000
00000000
00000000
10300000
00000000
01000000
00000000
00000000
00200000
00000000
00000000
00310000
00000000
01000000
00000000
00000000
,
00200000
00000000
00000000
10300000
00000000
01000000
00000000
00000000
00010000
00000000
00000000
00000000
00001000
00000000
00000000
00000000
,
00000020
00000000
00000000
00000031
00000000
00000100
00000000
00000000
00000020
00000000
00000000
00001030
00000000
00000100
00000000
00000000
,
00000020
00000000
00000000
00000031
00000000
00000100
00000000
00000000
00001000
00000000
00000000
00000000
00010000
00000000
00000000
00000000
,
00001000
00000000
00000000
00000000
,
00000000
00000000
00000000
00000000
;
#NOTES:
     dance-double:
     :
     Hard:
     11:
     :
00000000
00000000
00000000
00000000
,
00000000
00000000
00000000
00000000
,
00000000
00000000
00000000
00000000
,
00000000
00000000
00000000
00000000
,
00000000
00000000
00000000
00000000
,
00100000
00000000
00000000
00000000
01000000
00000000
00000000
00000000
00010000
00000000
00000000
00000000
10000000
01000000
10000000
01000000
,
10000000
00000000
00100000
00000000
00010000
00000000
00001000
00000010
,
00000001
00000000
00000000
00000000
00000100
00000000
00000000
00000000
00000010
00000000
00000000
00000000
00000100
00000001
00000100
00000001
,
00000100
00000010
00001000
00011000
,
00200000
00000000
00000000
10300000
00000000
00010000
01000000
00000000
00200000
00000000
00000000
10300000
00000000
00010000
01000000
00000000
,
00200000
00000000
00000000
10300000
00000000
00010000
01000000
00000000
00100000
00000000
00010000
00000000
00001000
00000000
00000000
00000000
,
00000020
00000000
00000000
00000031
00000000
00001000
00000100
00000000
00000020
00000000
00000000
00000031
00000000
00001000
00000100
00000000
,
00000020
00000000
00000000
00000031
00000000
00001000
00000100
00000000
00000010
00000000
00001000
00000000
00010000
00000000
00000000
00000000
,
00200000
00000000
00000000
01300000
00000000
00010000
10000000
00000000
00200000
00000000
00000000
01300000
00000000
00010000
10000000
00000000
,
00200000
00000000
00000000
01300000
00000000
00010000
10000000
00000000
00100000
00000000
00010000
00000000
00001000
00000000
00000000
00000000
,
00000020
00000000
00000000
00000130
00000000
00001000
00000001
00000000
00000020
00000000
00000000
00000130
00000000
00001000
00000001
00000000
,
00000020
00000000
00000000
00000000
00000000
00000000
00000000
00000000
00000000
00000130
00000000
00000000
00000000
00000000
00000000
00001000
00000000
00000000
00000001
00000000
00000000
00000000
00000000
00000000
00000100
00000000
00000000
00000000
00000010
00000000
00000000
00000000
00000100
00000000
00000000
00000000
00000010
00000000
00000000
00000000
00000100
00000000
00000000
00000000
00000010
00000000
00000000
00000000
,
00000100
00001000
00010000
00100000
10000000
00000000
00010000
00100000
,
00010000
00000000
11000000
00000000
10000000
00100000
00010000
00001000
,
00000010
00000001
00001000
00000100
00000010
00000000
00000001
00001000
,
00000001
00000010
00000100
00001000
00000010
00000100
00001000
00010000
,
00100000
10000000
01000000
00100000
00010000
00000000
10000000
00010000
,
01000000
00000000
00110000
00000000
00010000
00100000
01000000
00010000
,
00001000
00000010
00000001
00000100
00000001
00000000
00001000
00000010
,
00000101
00000000
00000000
00001010
00000000
00000000
00000010
00000100
00000010
00000100
00000010
00000100
,
00000001
00000100
00001000
00010000
00100000
00000000
10000000
00100000
,
01000000
00000000
01010000
00000000
10000000
00100000
01000000
00010000
,
00100000
01000000
00010000
00001000
00000010
00000000
00000001
00000100
,
00000010
00001000
00000001
00000100
00000010
00001000
00000001
00000100
,
00000010
00000100
00001000
00010000
00100000
00000000
10000000
00100000
,
01000000
00000000
01010000
00000000
10000000
00100000
01000000
00010000
,
00100000
01000000
00010000
00001000
00000010
00000000
00000001
00000010
,
00000011
00000101
00001100
00011000
,
00100000
10000000
00100000
01000000
00010000
00000000
01000000
00010000
,
10000000
00100000
01000000
00010000
01000000
00000000
00100000
00010000
,
00001000
00000010
00000001
00000100
00000001
00000000
00001000
00000010
,
00000100
00000001
00000100
00001000
00010000
00000000
00001000
00010000
,
00100000
10000000
00100000
01000000
00010000
00000000
01000000
00010000
,
10000000
00100000
01000000
00010000
01000000
00000000
00100000
00010000
,
00001000
00000010
00000001
00000100
00000001
00000000
00001000
00000010
,
00000100
00000001
00000100
00001000
00010000
00000000
00001000
00010000
,
00011000
00000000
00110000
00000000
10100000
00000000
01000000
00010000
,
00110000
00000000
10100000
00000000
11000000
00000000
00100000
00010000
,
00011000
00000000
00001010
00000000
00000011
00000000
00000100
00000001
,
00001010
00000000
00000011
00000000
00000101
00000000
00000010
00001000
,
00011000
00000000
01100000
00000000
10100000
00000000
00010000
01000000
,
10100000
00000000
10010000
00000000
01010000
00000000
00100000
00010000
,
00011000
00000000
00000110
00000000
00001001
00000000
00000010
00001000
,
00000010
00000000
00000000
00000101
00000000
00000000
00001000
00010000
00001000
00010000
00001000
00010000
,
00200000
01000000
01000000
10300000
,
02000000
00100000
00100000
03010000
,
00002000
00010000
00010000
00003010
,
00000002
00001000
00001000
00000103
,
00002000
00010000
00010000
01003000
,
00200000
10000000
10000000
00310000
,
00002000
00010000
00010000
00003010
,
00000002
00001000
00001000
00000103
,
00000020
00000000
00000130
00001000
00020000
00000000
00130000
00000000
,
20000000
00000000
30100000
01000000
00020000
00000000
00130000
00000000
,
02000000
00000000
03100000
00010000
00002000
00000000
00003010
00000000
,
00000200
00000000
00000301
00000010
00002000
00000000
00013000
00000000
,
00200000
00000000
01300000
00010000
00200000
00000000
01300000
00000000
,
20000000
00000000
30100000
00010000
00002000
00000000
00013000
00000000
,
00100000
00010000
00001000
00000010
00000002
00000000
00000103
00000010
,
00002000
00003000
00001010
00011000
,
00200000
00000000
00000000
10300000
00000000
00010000
01000000
00000000
00200000
00000000
00000000
10300000
00000000
00010000
01000000
00000000
,
00200000
00000000
00000000
10300000
00000000
00010000
01000000
00000000
00100000
00000000
00010000
00000000
00001000
00000000
00000000
00000000
,
00000020
00000000
00000000
00000031
00000000
00001000
00000100
00000000
00000020
00000000
00000000
00000031
00000000
00001000
00000100
00000000
,
00000020
00000000
00000000
00000031
00000000
00001000
00000100
00000000
00000010
00000000
00001000
00000000
00010000
00000000
00000000
00000000
,
00001000
00000000
00000000
00000000
,
00000000
00000000
00000000
00000000
;
