
//----- song ID: astr -----//
#TITLE:Astrogazer;
#ARTIST:DJ TOTTO;
#BANNER:Astrogazer.png;
#BACKGROUND:Astrogazer-bg.png;
#CDTITLE:./CDTitles/DDR A.png;
#MUSIC:Astrogazer.ogg;
#SAMPLESTART:77.927;
#SAMPLELENGTH:15;
#BPMS:0=154;
#STOPS:228=0.195,228.5=0.195,229=0.195;
#NOTES:
     dance-single:
     :
     Beginner:
     3:
     :
0000
0000
0000
0000
,
0000
0000
0000
0000
,
0000
0000
0000
0000
,
0000
0000
0000
0000
,
0010
0000
0000
0000
,
0001
0000
0000
0000
,
1000
0000
0000
0000
,
0010
0000
0000
0000
,
0010
0000
0000
0000
,
0001
0000
1000
0000
,
0001
0000
0001
0000
,
1000
0000
1000
0000
,
0010
0000
0010
0000
,
0100
0000
0100
0000
,
0001
0001
0001
0000
,
1000
1000
1000
0000
,
0010
0010
0010
0000
,
1001
0000
0000
0000
,
0001
0000
0001
0000
,
0010
0010
0010
0000
,
1000
0000
1000
0000
,
0010
0010
0010
0000
,
0001
0000
0001
0000
,
0100
0100
0100
0000
,
1000
0000
0010
0000
,
0001
0000
0100
0000
,
1000
1000
1000
0000
,
0010
0010
0010
0000
,
0001
0001
0001
0000
,
0010
0010
0010
0000
,
1000
0000
1000
0000
,
0001
0000
0001
0000
,
1000
0000
0010
0000
,
1000
1000
1000
0000
,
1001
0000
0000
0000
,
0000
0000
0000
0000
,
0001
0000
0000
0000
,
0100
0000
0000
0000
,
1000
0000
0000
0000
,
0000
0000
0000
0000
,
1000
0000
0000
0000
,
0010
0000
0001
0000
,
1001
0000
1000
0000
,
0010
0000
0100
0000
,
1001
0000
0001
0000
,
0010
0000
0100
0000
,
1001
0000
0010
0000
,
1001
0000
0010
0000
,
0010
0010
0010
0000
,
1001
0000
0000
0000
,
1000
0000
0010
0000
,
0001
0000
1000
0000
,
0010
0000
1000
0000
,
0001
0000
0010
0000
,
1000
0000
0100
0000
,
0001
0000
1000
0000
,
0100
0000
0001
0000
,
0000
0000
0000
0001
0000
0001
0000
0000
,
0000
1000
0000
0000
0000
0010
0000
0000
,
0000
1000
0000
0000
0000
0001
0000
0000
,
0000
0100
0000
0000
0000
0002
0000
0000
,
0000
0003
0000
0000
0000
1000
0000
0000
,
0000
0001
0000
0000
0000
0010
0000
0000
,
0000
0001
0000
0000
0000
1000
0000
0000
,
0000
0100
0000
0000
0000
0010
0000
0010
,
0000
0010
0000
0000
0000
1001
0000
0000
,
0000
0000
0000
0000
;
#NOTES:
     dance-single:
     :
     Easy:
     7:
     :
0000
0000
0000
0000
,
0000
0000
0000
0000
,
0000
0000
0000
0000
,
0000
0000
0000
0000
,
1000
1000
0001
0000
,
0001
0001
1000
0000
,
1000
1000
0001
0000
,
0001
0001
1000
0000
,
1000
1000
0010
0000
,
0001
0001
0010
0001
,
1001
1000
0010
0100
,
0110
0100
0001
0001
,
1001
1000
0100
0010
,
0110
0010
0001
0001
,
1001
0010
1001
0010
,
1001
0100
1001
0100
,
0001
0010
0100
1000
,
0110
0000
0010
1001
,
0001
0010
0100
0000
,
0010
0001
0100
0000
,
0010
1000
0100
0000
,
0010
0001
0100
0001
,
1000
0010
0100
0000
,
0010
1000
0100
0000
,
0010
0001
0100
0001
,
0010
0100
1000
0000
,
0001
1001
0010
0100
,
1000
0010
1000
0000
,
1000
1001
0010
1000
,
0001
0010
0001
0000
,
0001
1001
0010
0001
,
1000
0010
1000
0000
,
0001
1000
0010
0100
,
1001
0110
0001
1000
,
1001
1000
0000
0010
,
0000
0000
0000
1000
,
0100
0010
0000
0001
,
0000
0100
0000
0000
,
0000
0001
0000
0010
,
0000
0000
0000
0001
,
0100
0000
0000
0010
,
1000
0001
1000
0000
,
1001
0010
0100
0010
,
0100
0001
0100
0000
,
1001
0010
0100
0010
,
0100
1000
0100
0000
,
1001
0010
0100
0010
,
0110
0001
0100
0001
,
1001
0010
0100
0001
,
1001
0000
0000
0000
,
1001
0001
0100
1000
,
0000
0000
0100
0000
0010
1000
0001
0000
,
0001
1000
0100
0010
,
0000
0000
0001
0000
0010
0001
1000
0000
,
1001
1000
0100
0001
,
0000
0000
0100
0000
0010
0001
1000
0000
,
1001
0000
0010
0000
1000
0010
1000
0000
,
0100
0100
0001
0000
0000
0110
0000
1000
,
0000
0100
1000
0001
0000
1000
0000
0001
,
0000
0010
0001
1000
0000
0110
0000
0001
,
0000
0100
0001
0010
0000
0001
0000
1000
,
0000
0010
0000
1000
0000
0110
0000
1000
,
0000
0100
1000
0010
0000
1000
0000
0001
,
0000
0100
0001
1000
0000
1001
0000
0010
,
0000
0001
0100
0001
0000
1001
0000
0110
,
0000
1000
0000
0100
0000
0110
0000
0000
,
0000
0000
0000
0000
;
#NOTES:
     dance-single:
     :
     Medium:
     12:
     :
0000
0000
0000
0000
,
0000
0000
0000
0000
,
0000
0000
0000
0000
,
0000
0000
0000
0000
,
1000
0100
1000
0000
0001
0000
0000
0000
,
0001
0100
0001
0000
1000
0000
0000
0000
,
1000
0010
1000
0000
0001
0000
0000
0000
,
0001
0010
0001
0000
1000
0000
0010
0000
,
0100
0001
0100
0000
0010
0000
1000
0000
,
0100
1000
0100
0000
0010
0001
1000
0001
,
0100
0000
0010
1000
0100
0000
0010
0001
,
0100
0000
1000
0100
0001
0000
0010
0001
,
0100
0000
0010
1000
0100
0000
0001
0100
,
1000
0000
0010
1000
0100
0000
1000
0001
,
0010
0100
1000
0000
0010
0100
0010
1000
,
0001
0010
0001
0000
1000
0010
0100
0001
,
0010
0000
0100
0000
1000
0000
0001
0000
0100
0000
0010
0000
1000
0001
1000
0000
,
0010
0000
0010
0000
0010
0000
0101
0000
0000
1100
0000
0000
,
0011
0000
0000
0001
0000
0000
0010
0100
0010
0100
0000
0000
,
1000
0010
0100
0001
,
1010
0000
0000
1000
0000
0000
0010
1000
0010
1000
0000
0000
,
0001
0011
0010
0110
,
1100
0000
0000
1000
0000
0000
0010
0100
0010
0100
0000
0000
,
0001
0010
0100
1000
,
0011
0000
0100
0001
0000
0000
0010
0000
0001
0100
0000
0000
,
0010
0000
1000
0010
0000
0100
0010
0000
0000
1010
0000
0000
,
0110
0000
0000
1001
0000
0010
0001
0000
0000
1000
0000
0000
,
0001
0000
0000
0010
0000
0001
0100
0000
0000
0010
0000
0000
,
1010
0000
0000
0110
0000
0010
1000
0000
0000
0100
0000
1000
,
0001
0011
1010
0110
,
1100
0000
0000
0101
0000
0001
0010
0000
0000
0100
0000
0000
,
1000
0000
0000
0010
0000
1000
0100
0000
0000
0010
0000
0000
,
0011
0000
1000
0001
0000
1000
0010
0000
1000
0100
0000
0010
,
1000
0000
0110
0000
0001
0010
0100
0000
,
1100
0000
0010
0100
0000
0000
1000
0010
,
0000
0000
0000
0000
0000
1000
0001
1000
,
0010
0000
0100
0001
0000
0010
0000
0100
,
0000
1000
0010
0000
0000
0000
0000
0000
,
0000
0000
0010
0100
0000
0000
0001
0010
,
0000
0000
0000
0000
0000
0001
1000
0001
,
0010
0000
0000
0000
0000
0001
0100
0010
,
1000
0001
0010
0000
,
1001
0000
1000
0010
1000
0100
1000
0100
,
1000
0010
0100
0001
0010
0100
0010
0000
,
0011
0000
0100
0001
0010
0001
0010
0001
,
0100
0001
0010
0100
1000
0010
0100
0000
,
0101
0000
1000
0100
1000
0010
1000
0010
,
1100
0000
0010
0001
0100
0010
0100
0001
,
0010
0001
0100
0001
1000
0010
1000
0100
,
0101
0000
0110
1010
,
1001
0000
0001
1000
0010
1000
0100
0001
,
0000
0100
1000
0100
0010
0001
0100
0001
,
0101
0000
0010
1000
0010
0100
0001
0100
,
0000
0010
1000
0100
1000
0010
0100
0001
,
0011
0000
0001
1000
0100
1000
0001
0100
,
0000
0010
1000
0100
1000
0001
0010
0001
,
0101
0000
0010
1000
0100
0001
0100
1000
,
1001
0000
0110
0000
1001
0000
0010
0000
0000
0000
1001
0000
0000
0010
1000
0000
,
0001
0010
0001
0100
1000
0000
0100
0001
,
0100
0000
0010
0000
1000
0000
0100
0000
1000
0000
1100
0000
0000
0100
0010
0000
,
0001
0010
0100
1000
0100
0010
0000
0011
,
0000
0000
0101
0000
0000
0010
0000
0000
1000
0000
0010
0000
0000
0010
1000
0000
,
0001
0100
0001
1000
0100
0000
0010
0001
,
0100
0000
0001
0000
1000
0000
0010
0000
1000
0000
1100
0000
0000
0100
0010
0000
,
0001
0100
1000
0100
0001
1000
0001
0010
,
1000
0000
0010
0000
0001
0000
1000
0000
0001
1000
0001
0000
0000
0000
0000
0000
,
0000
0000
0000
0000
;
#NOTES:
     dance-single:
     :
     Hard:
     15:
     :
0000
0000
0000
0000
,
0000
0000
0000
0000
,
0000
0000
0000
0000
,
0000
0000
0000
0000
,
0010
1000
0000
0010
1000
0000
0001
0000
1000
0000
0000
0000
0100
0000
0000
0000
,
0010
0001
0000
0010
0001
0000
1000
0000
0001
0000
0000
0000
0010
0000
0000
0000
,
0100
1000
0000
0100
1000
0000
0001
0000
1000
0000
0000
0000
0010
0000
0000
0000
,
0100
0001
0000
0100
0001
0000
1000
0000
0001
0000
0000
0000
0100
0000
0010
0000
,
1000
0010
0000
1000
0010
0000
0100
0000
0001
0010
0000
0001
0010
0000
0100
0000
,
1000
0001
0000
1000
0001
0000
1000
0000
0010
0000
0100
0000
0010
1000
0010
1000
,
0010
0000
0000
0000
0010
0001
0010
0001
0010
0000
0000
0000
0100
1000
0100
1000
,
0100
0000
0000
0000
0100
0001
0100
0001
0100
0000
0000
0000
0001
0010
0001
0010
,
0001
0000
0000
0000
1000
0100
1000
0100
1000
0000
0000
0000
0001
0100
0001
0100
,
0001
0000
0000
0000
1000
0010
1000
0010
1000
0000
0000
0000
0001
1000
0001
1000
,
0001
0000
1000
0010
1000
0010
1000
0001
0010
0000
0100
1000
0100
1000
0100
0010
,
0001
0000
0100
0010
0100
0010
0100
1000
0100
0000
0001
0010
0001
0010
0100
1000
,
0100
0000
0010
0001
0010
0100
1000
0100
0010
0001
1000
0010
0100
0001
0010
0100
,
1000
0000
0001
0000
1000
0000
0011
0000
0000
1100
0000
0000
,
0010
0000
0000
1001
0000
1000
0100
0001
0100
1000
0000
0100
,
1000
0000
0000
1001
0000
0100
0010
1000
0010
0100
0001
0100
,
0010
0000
0000
1001
0000
0001
0010
0100
1000
0010
0100
0001
,
0010
0001
0010
0100
1000
0010
0100
0001
0010
1000
0010
0001
,
0100
0000
0000
1000
0000
0100
0001
0010
0001
0010
0000
0001
,
1000
0000
0000
0110
0000
0000
0100
0001
0100
0010
1000
0010
,
0100
0001
0100
1000
0100
0001
0010
0001
1000
0100
0001
0100
,
0010
0001
1000
0100
0010
0100
0010
0001
0010
1000
0010
0001
,
0100
0000
0000
0110
0000
0001
1000
0010
0100
0010
1000
0001
,
0010
0100
1000
0010
1000
0100
0001
0100
1000
0001
0000
1000
,
0100
0000
0000
0011
0000
0000
0100
1000
0100
1000
0000
0000
,
0001
0010
0100
1000
0010
0100
0001
0100
0010
0001
0010
1000
,
0001
0000
0000
0110
0000
1000
0010
0100
0001
0010
0100
1000
,
0010
1000
0100
1000
0000
0010
0100
0001
0010
0001
0100
1000
,
0100
0010
1000
0010
0001
0010
0100
0001
0010
0100
1000
0100
,
0010
0001
0010
0001
1000
0100
0010
0001
0100
0010
1000
0001
1000
0000
0000
0000
,
1001
0000
0010
0100
0000
0000
0001
2000
,
0000
0000
0000
0000
0000
3100
0010
0100
,
1000
0000
0010
0001
0000
0010
0000
1000
,
0000
0100
0020
0000
0000
0000
0000
0000
,
0030
0000
0001
1000
0000
0000
0010
0200
,
0000
0000
0000
0000
0000
0301
0010
0100
,
0020
0000
0000
0000
0030
0100
1000
0100
,
0010
0000
0001
0000
0020
0000
0000
0030
,
0001
0000
1000
0100
1000
0100
1000
0001
0000
1000
0000
0010
0000
0100
0010
0100
,
0010
0100
0000
0001
0000
1000
0000
0001
0000
1000
0100
1000
0000
0001
0010
0100
,
0010
0000
0001
1000
0001
1000
0010
0100
0000
0001
0000
0100
0000
0001
0010
0001
,
0010
0100
0000
1000
0000
0100
0000
0001
0000
0100
1000
0100
0000
0010
0100
0010
,
0001
0000
1000
0010
1000
0010
1000
0001
0000
0100
0000
0010
0000
0100
0001
0100
,
0001
0000
1000
0100
1000
0100
0010
0100
0000
0010
0000
0001
0000
0010
0000
0100
,
1000
0010
0000
1000
0000
0010
0100
0010
0000
1000
0001
1000
0000
0100
0010
0100
,
1000
0000
0001
0000
0000
0100
0000
0000
1000
0000
0000
0000
1001
0000
0000
0000
,
0110
0000
0000
0010
0100
0010
0000
1000
0000
0100
0000
1000
0000
0100
0010
0100
,
0000
0010
0000
0001
0100
0010
0100
0010
0100
0000
0001
0010
0001
0000
0100
0000
,
0110
0000
0000
1000
0001
0010
0000
0001
0000
1000
0000
0010
0000
1000
0001
1000
,
0000
0010
0000
1000
0001
0100
0001
0010
0001
0000
1000
0010
1000
0100
1000
0001
,
1000
0000
0000
0100
0010
0100
0000
1000
0000
0010
0000
1000
0000
0010
0100
0010
,
0000
0100
0000
0001
0010
0100
0010
0100
0010
0000
0001
0010
0001
0000
0100
0000
,
0110
0000
0000
0100
0001
0100
0000
1000
0000
0100
0000
0001
0000
1000
0001
1000
,
0002
0003
2020
3030
0022
0033
0100
0000
0000
0000
0101
0000
0000
0010
0100
0010
,
0000
0100
0000
0001
0000
0010
0000
0001
0100
0001
0000
1000
0000
0010
1000
0010
,
1000
0100
1000
0000
0010
0100
0001
1000
0010
0000
0101
0000
0000
0100
0010
0100
,
0000
0001
0000
0010
0000
0100
0000
0010
0100
0010
0001
1000
0100
0010
0000
0001
,
0010
0000
0110
0000
1000
0100
0000
0010
0001
1000
1001
0000
0000
1000
0001
1000
,
0010
0100
0000
0001
0000
1000
0000
0010
0100
0010
0000
1000
0000
0001
0010
0100
,
0010
0100
0010
0000
0001
0100
1000
0100
0001
0000
0101
0000
0000
0100
0001
1000
,
0000
0010
0000
0100
0000
0001
0000
0010
0100
1000
0001
0000
1000
0100
1000
0001
,
1000
0010
0100
0010
1000
0001
0100
0010
1000
0100
0001
0000
0000
0000
0000
0000
,
0000
0000
0000
0000
;
#NOTES:
     dance-single:
     :
     Challenge:
     18:
     :
0000
0000
0000
0000
,
0000
0000
0000
0000
,
0000
0000
0000
0000
,
0000
0000
0000
0000
,
0100
0010
0000
0100
0010
0000
0100
0010
1000
0001
1000
0000
0001
0000
0100
0000
,
0010
0100
0000
0010
0100
0000
0010
0100
0001
1000
0001
0000
1000
0000
0010
0000
,
0100
0001
0000
0100
0001
0000
0100
0001
1000
0100
1000
0000
0001
0000
1000
0000
,
0010
1000
0000
0010
1000
0000
0010
1000
0001
0010
0001
0000
0100
0000
0010
0000
,
1000
0010
0000
0100
0001
0000
1000
0100
0010
0001
1000
0000
0010
0000
0100
0000
,
0001
0010
0000
0100
1000
0000
0001
0100
0010
1000
0001
0000
1001
0000
0000
0000
,
0010
1000
0010
1000
0010
1000
0010
1000
0001
0010
0001
0010
0001
0010
0001
0010
,
0100
1000
0100
1000
0100
0010
0100
0010
0001
1000
0001
1000
0001
0100
0001
0100
,
0001
0010
0100
1000
0001
0100
1000
0100
0001
0100
0010
1000
0100
0001
0100
1000
,
0001
0100
0010
1000
0001
0100
0010
1000
0001
0010
0100
1000
0001
0010
0100
1000
,
0001
0100
0001
0100
0010
1000
0001
1000
0100
0010
0100
0010
0001
1000
0001
0100
,
0010
1000
0010
0001
0010
1000
0010
0100
0001
0010
0100
0010
0001
0010
1000
0010
,
0001
1000
0100
0001
0100
1000
0001
1000
0001
0100
1000
0100
0001
0010
0100
1000
,
1001
0000
0101
0000
1100
0000
0100
0000
0100
1001
0000
0000
,
1020
0000
0000
0000
0000
0000
0130
0000
0000
0000
0100
0001
0100
0000
0001
0000
0100
0000
1000
0000
0000
0000
0100
0000
,
0001
0000
0000
0000
0000
0000
1100
0000
0000
0000
0100
1000
0200
0000
0302
0000
0203
0000
2300
0000
3020
0000
0230
0000
,
0310
0000
0000
0000
0000
0000
0110
0000
0000
0000
0010
0001
0010
0000
0100
0000
0001
0000
0010
0000
0100
0000
1000
0000
,
0010
1000
0001
0010
0001
1000
0010
0100
0001
0010
0100
1000
,
0200
0000
0000
0000
0000
0000
0310
0000
0001
1000
0010
0000
0100
0000
0001
0000
1000
0000
0020
0000
0000
0000
0130
0000
,
0001
0000
0000
0000
0000
0000
0101
0000
0000
0000
0010
0000
1000
0000
0001
0010
0100
0000
1000
0000
0001
0000
1000
0000
,
0100
0010
0001
0100
0010
1000
0100
1000
0010
0100
0001
1000
,
0010
0000
0100
0001
1000
0000
0010
0000
1000
0001
0100
0000
0001
0000
0010
0100
1000
0000
0010
0000
0100
0001
0010
0000
,
0100
0000
0000
0000
0000
0000
0110
0000
0000
0000
0001
1000
0010
0000
0100
0000
0001
0000
0010
0000
0001
0000
0100
0000
,
1000
0000
0010
0000
1000
0000
0100
0000
0001
0000
0010
0100
2000
0000
3200
0000
0302
0000
2003
0000
3020
0000
0230
0000
,
1300
0000
0000
0000
0000
0000
1001
0000
0000
0100
0010
0100
0001
0000
0001
0000
0001
0000
1000
0000
0000
0000
0100
0000
,
0010
0000
0001
1000
0100
0000
0010
0000
0001
0100
0010
0000
1000
0000
0001
0100
0010
0000
1000
0000
0100
0010
0001
0000
,
2000
0000
0000
0000
0000
0000
3010
0100
0010
0000
1000
0000
0100
0000
0010
0001
0100
0000
0020
0000
0000
0000
1030
0000
,
0010
0000
0001
0000
0010
0000
1000
0000
0000
0000
0001
0000
1000
0000
0100
0001
0100
0000
0010
0000
0001
0100
0010
0000
,
1000
0010
0001
1000
0100
0001
1000
0010
0001
1000
0100
0001
,
0010
0100
0010
0100
0001
1000
0010
0100
1000
0010
0100
0001
0010
0000
0000
0000
,
1001
0000
0010
0200
0000
0000
1300
0002
,
0000
0000
0000
0000
0000
0103
0010
0100
,
0002
0000
0013
2000
0000
3200
0000
0302
,
0000
1003
0020
0000
0000
0000
0000
0000
,
0030
0000
1000
0002
0000
0000
0103
0020
,
0000
0000
0000
0000
0000
1030
0001
0100
,
0020
0000
0000
0000
0030
0100
0001
0100
,
0020
2030
0002
3003
,
1000
0100
1000
0100
1000
0001
0010
0001
1000
0100
0010
0100
1000
0001
0100
0001
,
0010
0100
0010
0100
0010
0001
0100
0001
1000
0010
1000
0010
1000
0100
0010
0100
,
1000
0010
0001
0010
0100
0001
1000
0100
0010
0001
0010
0100
0001
0100
1000
0001
,
0010
0001
0100
0010
1000
0010
0100
1000
0100
0001
1000
0001
0010
0100
0010
0001
,
0100
0001
1000
0010
1000
0010
1000
0001
0100
1000
0100
0001
1000
0010
0100
0001
,
1000
0100
1000
0100
1000
0001
0010
1000
0010
0001
0100
0010
1000
0001
0010
1000
,
0010
0100
0010
0100
1000
0010
0001
0010
1000
0100
0001
0100
1000
0010
0100
0001
,
1000
0000
1100
0000
0000
0101
0000
0000
0200
0000
0000
0000
0310
0000
0000
0000
,
1001
0000
0000
0001
0010
0100
0000
1000
0000
0001
0000
1000
0000
0100
0010
0001
,
1000
0000
0000
0010
0000
0000
0000
0000
0000
0100
0000
0000
0001
0000
0000
0010
0000
0000
0001
0000
0000
0010
0000
0000
0001
0000
0010
0000
0100
0000
1000
0000
0000
0010
0000
0000
0100
0000
0000
0001
0000
0000
1000
0000
0000
0000
0000
0000
,
1100
0000
0000
0010
0001
0100
0000
0010
0000
0100
0000
0010
0000
1000
0010
0100
,
0001
0000
0000
0010
0000
0000
0000
0000
0000
0100
0000
0000
1000
0000
0000
0100
0000
0000
1000
0000
0000
0100
0000
0000
1000
0000
0100
0000
0010
0000
0001
0000
0000
1000
0000
0000
0010
0000
0000
0100
0000
0000
0001
0000
0000
0000
0000
0000
,
0101
0000
0000
1000
0010
0100
0000
0001
0000
0010
0000
1000
0000
0001
0100
0010
,
0001
0000
0000
0100
0000
0000
0000
0000
0000
0010
0000
0000
1000
0000
0000
0010
0000
0000
0100
0000
0000
0010
0000
0000
1000
0000
0100
0000
0010
0000
0001
0000
0000
1000
0000
0000
0001
0000
0000
0100
0000
0000
0010
0000
0000
0000
0000
0000
,
1010
0000
0000
0100
0010
0100
0000
0001
0000
1000
0000
0001
0000
0010
0100
0010
,
0200
0300
2002
3003
0220
0330
1001
0000
0000
0000
2020
0000
3030
0100
0001
0010
,
0000
0100
0000
1100
0000
0011
0000
1000
0001
0100
0010
1000
0000
1000
0100
0001
,
0100
0000
0000
1000
0000
0000
0001
0000
0100
0000
0010
0000
1000
0000
0000
0100
0000
0000
0010
0000
0000
0100
0000
0000
1000
0000
0000
0000
0000
0000
2002
0000
0000
0000
0000
0000
3003
0000
0000
0100
0000
0000
0010
0000
0000
1000
0000
0000
,
0000
0000
0000
0001
0000
0000
0000
0000
0000
0101
0000
0000
0000
0000
0000
1010
0000
0000
0000
0000
0000
0100
0000
0000
0001
0000
0000
0010
0000
0000
0100
0000
1000
0000
0100
0000
0010
0000
0000
0001
0000
0000
0000
0000
0000
1000
0000
0000
,
0010
0100
0001
0010
1000
0001
1000
0010
0001
0100
0202
0000
0303
0010
0100
1000
,
0100
0001
0000
1010
0000
0101
0000
0010
0100
1000
0100
0001
0000
0001
0100
1000
,
0010
0000
0000
0100
0000
0000
0001
0000
1000
0000
0010
0000
0100
0000
0000
0001
0000
0000
0100
0000
0000
1000
0000
0000
0100
0000
0000
0000
0000
0000
0220
0000
0000
0000
0000
0000
0330
0000
0000
0001
0000
0000
1000
0000
0000
0010
0000
0000
,
0000
0000
0000
1000
0000
0000
0000
0000
0000
0011
0000
0000
0000
0000
0000
1100
0000
0000
0000
0000
0000
0010
0000
0000
0001
0000
0000
0100
0000
0000
0001
0000
1000
0000
0100
0000
0010
0000
0000
0001
0000
0000
0100
0000
0000
1000
0000
0000
,
0100
0000
0000
0010
0000
0000
1000
0000
0010
0000
0100
0000
0001
0000
0000
0100
0000
0000
0010
0000
1000
0000
0001
0000
0010
0000
0000
0100
0000
0000
1000
0000
0000
0000
0000
0000
0000
0000
0000
0000
0000
0000
0000
0000
0000
0000
0000
0000
,
0000
0000
0000
0000
;
#NOTES:
     dance-double:
     :
     Easy:
     7:
     :
00000000
00000000
00000000
00000000
,
00000000
00000000
00000000
00000000
,
00000000
00000000
00000000
00000000
,
00000000
00000000
00000000
00000000
,
00100000
00100000
00010000
00000000
,
00001000
00001000
00010000
00000000
,
01000000
01000000
00010000
00000000
,
00001000
00001000
00010000
00000000
,
00100000
00100000
00010000
00000000
,
00001000
00001000
01000000
00001000
,
00100000
00010000
00010000
00000000
,
10000000
01000000
01000000
00000000
,
00100000
00001000
00001000
00000000
,
00000010
00001000
00001000
00000000
,
00010000
00100000
10000000
00010000
,
10000000
00010000
00100000
00001000
,
00000010
00000001
00000100
00001000
,
00010000
00000000
00000010
00011000
,
00010000
00100000
10000000
00000000
,
10000000
01000000
00100000
00000000
,
00001000
00000010
00000001
00000000
,
00000001
00000100
00000010
00000000
,
00010000
00100000
10000000
00000000
,
10000000
01000000
00100000
00000000
,
00001000
00000010
00000001
00000000
,
00000001
00000100
00000010
00000000
,
00010000
00100000
10000000
01000000
,
00100000
00010000
01000000
00000000
,
00001000
00000010
00000001
00000100
,
00000010
00001000
00000100
00000000
,
00010000
00100000
10000000
01000000
,
00100000
00010000
01000000
00000000
,
00001000
00000010
00000001
00000100
,
00000010
00001000
00000100
00010000
,
00001000
00010000
00000000
00100000
,
00000000
00000000
00000000
10000000
,
01000000
00010000
00000000
00010000
,
00000000
00001000
00000000
00000000
,
00000000
00001000
00000000
00000010
,
00000000
00000000
00000000
00000001
,
00000100
00000000
00000000
00001000
,
00010000
00001000
00011000
00000000
,
00011000
00010000
00100000
01000000
,
00010000
10000000
00010000
00000000
,
00011000
00001000
00000010
00000100
,
00001000
00000001
00001000
00000000
,
00011000
00100000
10000000
01000000
,
10010000
01000000
00010000
00100000
,
00001000
00000010
00000001
00000100
,
00001000
00000000
00010000
00011000
,
00010000
00100000
10000000
01000000
,
10000000
00000000
00100000
00000000
00010000
00001000
00010000
00000000
,
00001000
00000010
00000001
00000100
,
00000001
00000000
00000010
00000000
00001000
00010000
00001000
00000000
,
00010000
01000000
10000000
00100000
,
10000000
00000000
01000000
00000000
00010000
00001000
00010000
00000000
,
00001000
00000100
00000001
00000010
,
00000100
00000100
00010000
00000000
00000000
00010000
00000000
01000000
,
00000000
00100000
01000000
00010000
00000000
10000000
00000000
00100000
,
00000000
01000000
00000000
00010000
00000000
00001000
00000000
00000100
,
00000000
00000010
00000100
00001000
00000000
00000001
00000000
00000010
,
00000000
00001000
00000000
00011000
00000000
00010000
00000000
00100000
,
00000000
10000000
00010000
01000000
00000000
10000000
00000000
01000000
,
00000000
00010000
00000000
00001000
00000000
00000010
00000000
00001000
,
00000000
00000001
00001000
00000010
00000000
00001001
00000000
00000110
,
00000000
00000100
00000000
00001000
00000000
00011000
00000000
00000000
,
00000000
00000000
00000000
00000000
;
#NOTES:
     dance-double:
     :
     Medium:
     12:
     :
00000000
00000000
00000000
00000000
,
00000000
00000000
00000000
00000000
,
00000000
00000000
00000000
00000000
,
00000000
00000000
00000000
00000000
,
10000000
01000000
10000000
00000000
00010000
00000000
00000000
00000000
,
00010000
01000000
00010000
00000000
10000000
00000000
00000000
00000000
,
10000000
00100000
10000000
00000000
00010000
00000000
00000000
00000000
,
00010000
00100000
00010000
00000000
10000000
00000000
01000000
00000000
,
00010000
00001000
00010000
00000000
00000100
00000000
00000010
00000000
,
00000001
00000010
00000001
00000000
00000100
00000010
00010000
00001000
,
00010000
00000000
00100000
10000000
01000000
00000000
00100000
00010000
,
01000000
00000000
10000000
01000000
00010000
00000000
00100000
00001000
,
00010000
00000000
00000010
00001000
00000100
00000000
00000001
00000100
,
00001000
00000000
00000010
00010000
00001000
00000000
00100000
00001000
,
01000000
00100000
10000000
00000000
01000000
00100000
00001000
00010000
,
00000100
00001000
00000001
00000000
00000100
00000010
00010000
00001000
,
01000000
00010000
10000000
01000000
00010000
00001000
00000010
00000001
,
00001000
00000000
00000001
00000000
00001000
00000000
00001010
00000000
00000000
00011000
00000000
00000000
,
00100000
00000000
00000000
00010000
00000000
00000000
10000000
00000000
00000000
00010000
00100000
00010000
,
00100000
00001000
00000010
00000001
,
00001000
00000000
00000000
00000001
00000000
00000000
00001000
00000010
00001000
00000010
00000000
00000000
,
00000100
00010000
01000000
00100000
,
10000000
00010000
00000010
00000100
,
00001000
01000000
10000000
00010000
,
01000000
00000000
00001000
00010000
00000000
00000000
00100000
00000000
00010000
00001000
00000000
00000000
,
00000010
00000000
00000001
00000010
00000000
00000100
00001000
00000000
00000000
00011000
00000000
00000000
,
10000000
00000000
00000000
10100000
00000000
10000000
00100000
00000000
00000000
01000000
00000000
00000000
,
00001000
00100000
01000000
00010000
,
00000010
00000000
00000000
00001100
00000000
00001000
00000100
00000000
00000000
00000010
00000000
00000000
,
00000001
00000101
00001000
00011000
,
00110000
00000000
00000000
10100000
00000000
10000000
00100000
00000000
00000000
01000000
00000000
00000000
,
00001000
00100000
01000000
00010000
,
00000010
00001010
00010000
00001100
,
00000101
00000000
00001100
00000000
00001000
00000100
00010000
00000000
,
00011000
00000000
00100000
01000000
00000000
00000000
10000000
00100000
,
00000000
00000000
00000000
00000000
00000000
10000000
01000000
00010000
,
00001000
00000000
00000100
00000001
00000000
00000010
00000000
00000100
,
00000000
00010000
00001000
00000000
00000000
00000000
00000000
00000000
,
00000000
00000000
00100000
01000000
00000000
00000000
10000000
00100000
,
00000000
00000000
00000000
00000000
00000000
10000000
01000000
00010000
,
00001000
00000000
00000000
00000000
00000000
00000010
00000100
00001000
,
00000010
00001000
00100000
00000000
,
01100000
00000000
10000000
01000000
10000000
00100000
10000000
01000000
,
10000000
00100000
01000000
00010000
00100000
00010000
01000000
00000000
,
00011000
00000000
00000100
00000001
00000010
00000001
00000100
00000001
,
00000010
00000100
00001000
00000010
00001000
00000100
00010000
00000000
,
00110000
00000000
10000000
01000000
10000000
00100000
10000000
01000000
,
00100000
00001000
01000000
00010000
00100000
00001000
00010000
00001000
,
00000010
00000001
00001000
00000100
00010000
00000100
00000010
00000100
,
00010000
00000000
00000010
00011000
,
00110000
00000000
00001000
00100000
01000000
00010000
01000000
10000000
,
00000000
00010000
00100000
00001000
00010000
00000010
00001000
00000000
,
00001100
00000000
00010000
00000010
00000100
00001000
00000100
00000001
,
00000000
00001000
00000010
00010000
00001000
00100000
00010000
00000000
,
10100000
00000000
00100000
01000000
00001000
00010000
01000000
10000000
,
00000000
00100000
10000000
00010000
10000000
00100000
00010000
00000000
,
00011000
00000000
00000100
00000001
00001000
00000010
00000001
00001000
,
00010000
00000000
00000100
00000000
00011000
00000000
00000000
00000000
00000000
00000000
01010000
00000000
00000000
10000000
00010000
00000000
,
00100000
01000000
00010000
01000000
10000000
01000000
00100000
00001000
,
00010000
00000000
00000010
00000000
00001000
00000000
00000010
00000000
00000000
00000000
00001010
00000000
00000000
00000001
00001000
00000000
,
00000010
00000100
00001000
00000100
00000001
00000101
00000000
00000010
,
00000000
00000000
00001010
00000000
00000000
00010000
00000000
00000000
00001000
00000000
01000000
00000000
00000000
00010000
01000000
00000000
,
00100000
01000000
00001000
00010000
00001000
01000000
00100000
10000000
,
01000000
00000000
00100000
00000000
00001000
00000000
00010000
00000000
00000000
00000000
00001100
00000000
00000000
00010000
00000100
00000000
,
00000010
00000100
00001000
00000010
00000100
00000001
00000000
00001100
,
00000000
00000010
00000001
00000100
00001000
00011000
00000000
00000000
,
00000000
00000000
00000000
00000000
;
#NOTES:
     dance-double:
     :
     Hard:
     15:
     :
00000000
00000000
00000000
00000000
,
00000000
00000000
00000000
00000000
,
00000000
00000000
00000000
00000000
,
00000000
00000000
00000000
00000000
,
00001000
00100000
00000000
01000000
00000000
00000000
10000000
00000000
01000000
00000000
00000000
00000000
10000000
00000000
00000000
00000000
,
00100000
10000000
00000000
00100000
00000000
00000000
00010000
00000000
00001000
00000000
00000000
00000000
00010000
00000000
00000000
00000000
,
00001000
00010000
00000000
00001000
00000000
00000000
00000010
00000000
00000001
00000000
00000000
00000000
00000100
00000000
00000000
00000000
,
00000001
00000010
00000000
00000001
00000000
00000000
00000010
00000000
00001000
00000000
00000000
00000000
00010000
00000000
00000000
00000000
,
00001000
00010000
00000000
00001000
00000000
00000000
01000000
00000000
00010000
00100000
00000000
00001000
00000000
00000000
00010000
00000000
,
00000010
00001000
00000000
00000010
00000000
00000000
00010000
00000000
00001000
00000000
01000000
00000000
00100000
10000000
00100000
10000000
,
00100000
00000000
00000000
00000000
01000000
00010000
01000000
00010000
01000000
00000000
00000000
00000000
00001000
00010000
00001000
00010000
,
00001000
00000000
00000000
00000000
00000100
00000001
00000100
00000001
00000100
00000000
00000000
00000000
00000010
00001000
00000010
00001000
,
00000010
00000000
00000000
00000000
00010000
00001000
00010000
00001000
00010000
00000000
00000000
00000000
01000000
10000000
01000000
10000000
,
01000000
00000000
00000000
00000000
00100000
00010000
00100000
00010000
00100000
00000000
00000000
00000000
00001000
00010000
00001000
00010000
,
00001000
00000000
00010000
00000010
00010000
00000010
00010000
00000010
00000100
00000000
00000001
00000010
00000001
00000010
00000001
00000010
,
00000100
00000000
00010000
00001000
00010000
00001000
00010000
00001000
00100000
00000000
01000000
10000000
01000000
10000000
01000000
10000000
,
00010000
00000000
00100000
00010000
00100000
00001000
00010000
00001000
00010000
00000010
00001000
00000010
00000100
00000001
00001000
00000001
,
00000010
00000000
00001000
00000000
00010000
00000000
01000000
00000000
00000000
10010000
00000000
00000000
,
00100000
00000000
00000000
01000000
00000000
10000000
00010000
00100000
01000000
00100000
00000000
00010000
,
00100000
00000000
00000000
11000000
00000000
00000000
01000000
00010000
00001000
00010000
01000000
10000000
,
01000000
00000000
00000000
00110000
00000000
00000000
00001000
00010000
00001000
00010000
00000000
00000000
,
00000100
00000010
00000001
00000010
00000100
00001000
00000010
00000100
00001000
00000100
00000010
00000100
,
00001000
00000000
00000000
00011000
00000000
00000000
00100000
00010000
00001000
00010000
00000000
00000000
,
00000100
00000000
00000000
00011000
00000000
00000000
00010000
00001000
00000010
00001000
00010000
00001000
,
00010000
00000100
00000010
00000100
00010000
00001000
00010000
00001000
00100000
01000000
00100000
00001000
,
00010000
00001000
00000010
00000001
00000010
00001000
00010000
00001000
00010000
00100000
10000000
00100000
,
00010000
00000000
00000000
00000110
00000000
00000000
00000001
00000100
00000001
00000100
00000000
00000100
,
00000010
00000000
00000000
00000101
00000000
00000000
00000100
00001000
00010000
00001000
00000100
00000001
,
00000100
00000000
00000000
00001010
00000000
00000000
00010000
00001000
00010000
00001000
00000000
00000000
,
01000000
00100000
10000000
00100000
01000000
00010000
00100000
01000000
00010000
01000000
00100000
01000000
,
00010000
00000000
00000000
00011000
00000000
00000000
00000010
00001000
00010000
00001000
00000000
00000000
,
01000000
00000000
00000000
00011000
00000000
00000000
00001000
00010000
00100000
00010000
00001000
00010000
,
00001000
01000000
00100000
01000000
00001000
00010000
00001000
00010000
00000010
00000100
00000010
00010000
,
00001000
00010000
00100000
10000000
00100000
00010000
00001000
00000100
00000001
00000100
00000000
00000000
,
00001000
00000000
01000000
10000000
00000000
00000000
01000000
00020000
,
00000000
00000000
00000000
00000000
00000000
00130000
00010000
00001000
,
00000100
00000000
00000001
00000100
00000000
00010000
00000000
01000000
,
00000000
00010000
00002000
00000000
00000000
00000000
00000000
00000000
,
00003000
00000000
00000100
00000001
00000000
00000000
00000100
00002000
,
00000000
00000000
00000000
00000000
00000000
00013000
00100000
10000000
,
00020000
00000000
00000000
00000000
00030000
00100000
00001000
00000010
,
00001000
00000000
00010000
00000000
02000000
00000000
00000000
03000000
,
10000000
00000000
00010000
00100000
00010000
00100000
00010000
10000000
00000000
01000000
00000000
00100000
00000000
00001000
00100000
00001000
,
00010000
00000100
00000000
00000010
00000000
00000001
00000000
00000100
00000000
00000010
00001000
00000010
00000000
00000100
00000001
00000100
,
00000001
00000000
00001000
00000001
00001000
00000001
00001000
00000100
00000000
00010000
00000000
00000010
00000000
00001000
00000100
00001000
,
00000100
00010000
00000000
00001000
00000000
00000010
00000000
00000001
00000000
00001000
00000010
00010000
00000000
00001000
00010000
00001000
,
00010000
00000000
00000100
00001000
00000100
00001000
00000100
00010000
00000000
01000000
00000000
10000000
00000000
00010000
10000000
00010000
,
01000000
00000000
00001000
00010000
00001000
00010000
00001000
00010000
00000000
00001000
00000000
00000100
00000000
00000001
00000100
00000001
,
00000100
00000010
00000000
00001000
00000000
00000100
00000010
00000100
00000000
00001000
00000001
00001000
00000000
00000100
00000010
00000100
,
00000000
00000000
00010000
00000000
00000000
01000000
00000000
00000000
10000000
00000000
00000000
00000000
10010000
00000000
00000000
00000000
,
00001000
00000000
00000000
10000000
00010000
10000000
00000000
01000000
00000000
00010000
00000000
00001000
00000000
00010000
00001000
00010000
,
00000000
00000010
00000000
00000100
00000010
00000000
00001000
00000010
00000000
00000000
00000100
00000001
00000100
00000000
00000010
00000000
,
00010000
00000000
00000000
00000010
00001000
00000001
00000000
00000100
00000000
00001000
00000000
00010000
00000000
00001000
00010000
00001000
,
00000000
00100000
00000000
01000000
00100000
00000000
00010000
00100000
00000000
00000000
01000000
10000000
01000000
00000000
00100000
00000000
,
00001000
00000000
00000000
00000000
00100000
00010000
00000000
01000000
00000000
00010000
00000000
00100000
00000000
00001000
00010000
00001000
,
00000000
00000100
00000000
00000010
00000100
00000000
00000001
00000100
00000000
00000000
00000010
00001000
00000010
00000000
00001000
00000000
,
00001000
00000000
00000000
00000000
00100000
00010000
00000000
10000000
00000000
01000000
00000000
00100000
00000000
00010000
00100000
00010000
,
20000000
30000000
00022000
00033000
00000022
00000033
00000000
00000000
00000000
00000000
00000101
00000000
00000000
00000001
00001000
00000001
,
00000000
00000100
00000000
00001000
00000000
00010000
00000000
00001000
00010000
00001000
00000000
00100000
00000000
01000000
10000000
00000000
,
00010000
00100000
00000000
00000000
01000000
10000000
00010000
00000000
00100000
00000000
00001000
00000000
00000000
00001000
00010000
00100000
,
00000000
00010000
00000000
00001000
00000000
00000100
00000000
00000010
00000100
00000010
00001000
00000001
00000100
00000010
00000000
00001000
,
00000100
00000000
00010000
00000000
00000100
00001000
00000000
00000010
00001000
00000010
00000100
00000000
00000000
00000000
00000001
00001000
,
00000000
00000100
00000000
00010000
00000000
00000010
00000000
00010000
00001000
00010000
00000000
01000000
00000000
00100000
01000000
00000000
,
10000000
01000000
00000000
00000000
00010000
00001000
00010000
00000000
00000010
00000000
00010000
00000000
00000000
00000000
00000010
00000100
,
00000000
00000001
00000000
00001000
00000000
00000100
00000000
00000010
00000001
00001000
00000100
00000000
00010000
00001000
00010000
00001000
,
00100000
00010000
01000000
00100000
10000000
00010000
00100000
00001000
00010000
00001000
00010000
00000000
00000000
00000000
00000000
00000000
,
00000000
00000000
00000000
00000000
;
#NOTES:
     dance-double:
     :
     Challenge:
     18:
     :
00000000
00000000
00000000
00000000
,
00000000
00000000
00000000
00000000
,
00000000
00000000
00000000
00000000
,
00000000
00000000
00000000
00000000
,
00001000
00100000
00000000
00010000
01000000
00000000
00100000
10000000
01000000
10000000
01000000
00000000
00010000
00000000
00001000
00000000
,
00010000
00000100
00000000
00001000
00000010
00000000
00000100
00000001
00000010
00000001
00000010
00000000
00001000
00000000
00010000
00000000
,
00001000
01000000
00000000
00010000
10000000
00000000
01000000
00100000
00010000
00100000
00010000
00000000
10000000
00000000
00100000
00000000
,
00010000
00000010
00000000
00001000
00000001
00000000
00000010
00000100
00001000
00000100
00001000
00000000
00000001
00000000
00000010
00000000
,
00001000
00010000
00000000
00010000
01000000
00000000
01000000
10000000
00010000
10000000
00010000
00000000
01000000
00000000
00100000
00000000
,
00010000
00001000
00000000
00001000
00000100
00000000
00000100
00000001
00001000
00000001
00001000
00000000
00000100
00000010
00000001
00000000
,
00001001
00000000
00000000
00000000
00000001
00000100
00000001
00000100
00000001
00001000
00000010
00001000
00000010
00001000
00000100
00010000
,
00001000
00100000
00001000
00100000
00001000
00010000
01000000
00010000
01000000
00010000
01000000
10000000
00100000
01000000
00100000
01000000
,
00100000
00010000
00001000
00010000
00001000
00010000
00000100
00001000
00000001
00000010
00000001
00000010
00000001
00001000
00000010
00001000
,
00000010
00001000
00000001
00000100
00001000
00010000
00001000
00010000
00001000
01000000
00100000
01000000
00100000
01000000
00010000
10000000
,
01000000
00100000
00010000
00100000
01000000
00100000
00010000
01000000
00010000
01000000
00001000
00010000
00001000
00010000
00000100
00001000
,
00000001
00000100
00000010
00000100
00000001
00000100
00000010
00001000
00000010
00001000
00000100
00010000
00000100
00010000
00001000
00100000
,
01000000
10000000
01000000
10000000
00010000
01000000
10000000
01000000
00010000
00100000
00001000
00010000
00000100
00001000
00000010
00000100
,
00000001
00000000
00000100
00000000
00001000
00000000
00011000
00000000
01000000
10010000
00000000
00000000
,
01000000
00000000
00000000
00000000
00000000
00000000
01100000
00000000
00000000
00000000
10000000
01000000
10000000
00000000
00100000
00000000
00010000
00000000
00001000
00000000
00000000
00000000
00010000
00000000
,
00000100
00000000
00001000
00000010
00000000
00000100
00000002
00000023
00002030
00023000
02030000
23000000
,
30010000
00000000
00000000
00000000
00000000
00000000
01010000
00000000
00000000
00000000
10000000
00100000
01000000
00000000
00010000
00000000
00100000
00000000
02000000
00000000
00000000
00000000
00000000
00000000
,
13000000
01000000
00010000
10000000
00100000
00010000
00001000
00000100
00000001
00001000
00000010
00000001
,
00000200
00000000
00000000
00000000
00000000
00000000
00000301
00000000
00001000
00000010
00000100
00000000
00001000
00000000
00010000
00000000
00100000
00000000
02000000
00000000
00000000
00000000
00000000
00000000
,
03010000
00000000
00000000
10020000
00000000
00000000
00031000
00000100
00000010
00001000
00010000
01000000
,
10000000
00000000
00010000
01000000
00100000
00000000
00010000
00000000
00000100
00010000
00001000
00000000
00000010
00000000
00000100
00001000
00000001
00000000
00000100
00000000
00000010
00000000
00001000
00000000
,
00000100
00000000
00010000
00001000
00100000
00000000
00010000
00000000
01000000
00100000
10000000
00000000
01000000
00000000
00100000
00001000
00010000
00000000
00001000
00000000
00000100
00000000
00000001
00000000
,
00000010
00000000
00000000
00000000
00000000
00000000
00000110
00000000
00000000
00000000
00000001
00000100
00000010
00000000
00000100
00000000
00001000
00000000
00010000
00000000
00000010
00000000
00001000
00000000
,
00010000
00000000
00100000
00000000
01000000
00000000
00010000
00000000
00001000
00000000
00100000
00010000
20000000
00000000
30200000
00000000
00320000
00000000
00032000
00000000
00003200
00000000
00000302
00000000
,
00001003
00000000
00000000
00000000
00000000
00000000
00000110
00000000
00000000
00000001
00000100
00000001
00000100
00000000
00000010
00000000
00001000
00000000
00000200
00000000
00000000
00000000
00000000
00000000
,
00000301
00000100
00001000
00000001
00000010
00001000
00010000
01000000
10000000
00100000
00010000
00001000
,
00000200
00000000
00000000
00000000
00000000
00000000
00000301
00001000
00000001
00000000
00000100
00000000
00000010
00000000
00010000
00000000
00001000
00000000
00000200
00000000
00000000
00000000
00001300
00000000
,
00010000
00000000
00000000
00000000
00100000
00000000
01100000
00000000
00000000
00000000
10000000
00000000
01000000
00000000
10000000
00010000
00100000
00000000
00001000
00000000
00010000
00000100
00001000
00000000
,
00000001
00000000
00000010
00000100
00000010
00000000
00001000
00000000
00010000
00001000
00010000
00000000
01000000
00000000
00100000
01000000
00100000
00000000
10000000
00000000
00010000
10000000
00010000
00000000
,
10000000
01000000
00100000
00010000
01000000
00010000
00100000
00001000
00010000
00000100
00001000
00000010
00001000
00000100
00000010
00000001
,
00000100
00000000
00000010
00002000
00000000
00000000
00013000
00200000
,
00000000
00000000
00000000
00000000
00000000
01300000
10000000
00100000
,
00020000
00000000
00031000
00000200
00000000
00000302
00000000
00000023
,
00000000
00001030
00020000
00000000
00000000
00000000
00000000
00000000
,
00030000
00000000
01000000
20000000
00000000
00000000
31000000
00020000
,
00000000
00000000
00000000
00000000
00000000
00030100
00001000
00000010
,
00000200
00000000
00000000
00000000
00000300
00000001
00000100
00001000
,
00020000
00000000
02030000
00000000
00200000
00000000
00000000
03300000
,
01000000
10000000
00010000
00100000
00001000
00100000
00010000
10000000
00100000
01000000
00010000
00100000
00001000
00010000
00000100
00001000
,
00000001
00000100
00000010
00001000
00010000
00001000
00000010
00000100
00000001
00000100
00000010
00001000
00000100
00010000
00001000
00100000
,
00010000
01000000
00100000
10000000
00010000
10000000
00100000
01000000
00010000
00100000
01000000
00100000
00001000
00010000
00000100
00001000
,
00000010
00000100
00000001
00000010
00001000
00000010
00000001
00000100
00001000
00010000
00001000
00100000
00010000
01000000
00100000
10000000
,
01000000
00100000
00001000
01000000
00010000
10000000
01000000
00100000
00001000
00010000
00000100
00010000
00001000
00000100
00000001
00001000
,
00000010
00000100
00001000
00010000
00001000
00010000
00001000
00010000
01000000
00100000
00001000
00010000
00001000
00010000
00001000
00010000
,
00000100
00000010
00001000
00010000
01000000
10000000
00010000
00100000
01000000
00100000
00010000
00001000
00000010
00000001
00000010
00000100
,
00002000
00000000
00023000
00000000
00000000
02030000
00000000
00000000
23000000
00000000
30000000
00000000
10010000
00000000
00000000
00000000
,
01100000
00000000
00000000
01000000
10000000
00010000
00000000
01000000
00000000
00100000
00000000
10000000
01000000
00100000
01000000
00010000
,
00001000
00000010
00000000
00000100
00001000
00000001
00000100
00001000
00000100
00000010
00001000
00000100
00010000
00001000
00000100
00000000
,
00001010
00000000
00000000
00000010
00000100
00001000
00000000
00010000
00000000
00000010
00000000
00001000
00000000
00000001
00000100
00001000
,
00010000
00100000
00000000
10000000
00100000
10000000
01000000
00100000
00001000
00010000
01000000
10000000
01000000
00100000
01000000
00000000
,
11000000
00000000
00000000
00100000
00001000
00010000
00000000
01000000
00000000
10000000
00000000
00010000
00000000
00100000
00001000
00010000
,
00000010
00001000
00000000
00001000
00000001
00000100
00000010
00001000
00000100
00000010
00001000
00010000
01000000
00010000
00001000
00000000
,
00011000
00000000
00000000
00010000
00100000
10000000
00000000
00010000
00000000
00100000
00000000
01000000
00000000
10000000
00010000
10000000
,
20020000
30030000
00022000
00033000
00002002
00003003
00000110
00000000
00000000
00000000
00000101
00000000
00000000
00000001
00000100
00001000
,
00000000
00010000
00000000
00000100
00000000
00000010
00000000
00001000
00010000
00100000
10000000
00010000
00000000
00100000
00001000
00010000
,
01000000
10000000
00010000
01000000
00001000
00010000
00100000
10000000
01000000
00000000
11000000
00000000
00000000
00100000
00001000
00010000
,
00000000
00000000
00000000
00000010
00000000
00000000
00000000
00000000
00000000
00000100
00000000
00000000
00000000
00000000
00000000
00010000
00000000
00000000
00000000
00000000
00000000
00100000
00000000
00000000
00010000
00000000
00000000
10000000
00000000
00000000
00010000
00000000
00100000
00000000
00010000
00000000
00100000
00000000
00000000
00000000
00000000
00000000
00000000
00000000
00000000
00100000
00000000
00000000
,
00001000
00000100
00000001
00001000
00000100
00010000
00001000
01000000
00100000
10000000
00010000
00000000
00000000
00001000
00000001
00000010
,
00000000
00000100
00000000
00010000
00000000
01000000
00000000
10000000
00100000
01000000
10000000
00010000
00000000
00100000
01000000
00001000
,
00100000
00010000
00000010
00000001
00001000
00000010
00000100
00000001
00000010
00000000
00001010
00000000
00000000
00000100
00010000
00001000
,
00000000
00000001
00000000
00001000
00000000
00010000
00000000
00100000
10000000
00010000
10000000
01000000
00010000
00001000
00100000
00001000
,
00010000
00000010
00010000
00001000
00000100
00000001
00000010
00001000
00010000
01000000
10000000
00000000
00000000
00000000
00000000
00000000
,
00000000
00000000
00000000
00000000
;
