
//----- song ID: arse -----//
#TITLE:ありふれたせかいせいふく;
#ARTIST:ピノキオピー;
#TITLETRANSLIT:Arifureta sekai seifuku;
#ARTISTTRANSLIT:PinocchioP;
#BANNER:Arifureta sekai seifuku.png;
#BACKGROUND:Arifureta sekai seifuku-bg.png;
#CDTITLE:./CDTitles/SDVX II -infinite infection-.png;
#MUSIC:Arifureta sekai seifuku.ogg;
#SAMPLESTART:52.57;
#SAMPLELENGTH:15;
#DISPLAYBPM:150;
#BPMS:0=150.5,4=150;
#TIMESIGNATURES:0=4=4,196=2=4,198=4=4;
#NOTES:
     dance-single:
     :
     Beginner:
     3:
     :
0000
0000
0000
0000
,
0000
0000
0000
0000
,
0000
0000
0000
0000
,
0000
0000
0000
0000
,
0000
0000
0000
0000
,
1000
0000
1000
0000
,
0010
0000
0010
0000
,
0001
0000
0001
0000
,
0020
0000
0030
0000
,
0001
0001
0010
0000
,
0001
0000
1001
0000
,
1000
1000
0010
0000
,
0100
0000
0100
0000
,
1000
1000
1000
0000
,
0010
0010
0010
0000
,
0001
0001
0001
0000
,
1001
0000
0000
0000
,
0001
0000
0001
0000
,
0010
0010
0010
0000
,
0001
0000
0010
0000
,
0002
0000
0003
0000
,
1000
0000
1000
0000
,
0010
0010
0010
0000
,
1000
0000
0001
0000
,
1000
0010
1000
0000
,
0001
0000
0001
0000
,
0001
0010
0001
0000
,
1000
0000
1000
0000
,
1000
0010
1000
0000
,
2000
0000
3000
0000
,
0002
0000
0003
0000
,
0010
0000
0010
0000
,
0020
0000
0030
0000
,
0001
0001
0010
0000
,
0001
0001
0001
0000
,
1000
1000
0010
0000
,
1000
1000
1000
0000
,
0001
0000
0100
0000
,
0001
0001
0001
0000
,
0010
0000
0010
0000
,
0010
0001
0001
0000
,
1000
1000
0010
0000
,
1000
1000
1000
0000
,
0001
0001
0010
0000
,
0001
0001
0001
0000
,
1000
0000
0100
0000
,
1000
1000
1000
0000
,
0010
0000
0010
0000
,
0200
0000
0000
0000
,
0300
0000
0001
0001
,
0010
0000
0001
0000
,
1001
0000
1000
1000
,
0010
0000
0100
0000
,
0100
0000
1000
1000
,
1000
0000
0010
0010
,
0010
0000
0001
0001
,
0001
0000
0010
0010
,
0010
0010
0000
1001
,
0000
0000
0000
0000
;
#NOTES:
     dance-single:
     :
     Easy:
     7:
     :
0000
0000
0000
0000
,
0000
0000
0000
0000
,
0000
0000
0000
0000
,
0000
0000
0000
0000
,
0000
0000
0000
0000
,
1000
1000
0100
0010
,
0001
1000
0001
0000
0010
0000
0000
0000
,
0001
0000
0001
0000
0010
0100
1000
0000
,
0020
0000
0030
0000
,
1000
0001
1000
0000
0100
0000
0100
0000
,
0010
0001
1000
0001
,
0100
0001
0100
0000
0010
0000
0010
0000
,
1000
0000
0001
0100
0010
0000
0000
0000
,
0001
0000
0001
0000
0100
0010
0000
0000
,
1000
0000
1000
0000
0100
0010
0000
0000
,
0001
0010
0100
1000
,
2002
0000
3003
0000
,
1000
1000
0001
0001
,
0100
0000
0100
0010
0100
0000
0000
0000
,
0001
0100
0010
1000
,
0100
0000
0010
0001
0010
0000
0000
0000
,
0001
0001
1000
1000
,
0010
0000
0010
0100
0010
0000
0000
0000
,
1001
0000
0110
0000
,
1001
0110
1001
0000
,
1000
0000
1000
0000
0100
0010
0001
0000
,
1000
0001
1000
1000
,
0001
0000
0001
0000
0100
0010
1000
0000
,
0002
2003
3100
0000
,
0110
0000
0110
0000
,
1001
0000
1001
0000
,
0001
0100
0010
1000
,
0100
0010
0001
0000
,
1000
0001
1000
0000
0100
0000
0100
0000
,
0010
0001
1000
0000
0010
0000
0100
0000
,
0001
1000
0001
0000
0010
0100
0010
0000
,
1001
0110
1001
0000
,
0001
1000
0001
0000
0100
0000
0100
0000
,
0010
1000
0001
0000
1001
0000
0000
0000
,
0011
0000
0110
0000
,
1001
0110
1001
0000
,
1000
0001
1000
0000
0100
0000
0100
0000
,
0010
0001
1000
0000
0010
0000
0100
0000
,
0001
1000
0001
0000
0010
0100
0010
0000
,
1001
0110
1001
0000
,
0001
1000
0001
0000
0100
0000
0100
0000
,
0010
1000
0001
0000
1001
0000
0000
0000
,
0011
0000
0110
0000
,
1000
0001
1000
0000
0100
0000
0010
0000
,
0110
0000
2002
0000
,
0000
0000
3003
0000
,
0000
0000
0000
0000
0100
0001
0100
0000
,
0010
0000
0010
0000
1000
0000
0001
0100
,
0010
0000
0001
0001
,
0100
0010
0000
0000
1000
0000
1000
0000
,
0100
0010
0000
0000
0001
0000
0010
0000
,
0100
1000
1001
0110
,
1001
0110
0000
2002
,
0000
0000
0000
0000
,
0000
0000
0000
0000
,
0000
0000
3003
0000
,
0000
0000
0000
0000
;
#NOTES:
     dance-single:
     :
     Medium:
     10:
     :
0000
0000
0000
0000
,
0000
0000
0000
0000
,
0000
0000
0000
0000
,
0000
0000
0000
0000
,
0000
0000
0000
0000
,
1000
0010
0100
0000
0001
0100
0010
0000
,
1000
0001
0010
0100
2000
0000
3100
0000
,
0010
0001
0010
0000
0100
1000
0100
0000
,
0220
0000
0330
0000
,
1000
0100
0010
0100
1000
0001
0010
0000
,
0100
1000
0001
0000
0100
0010
1000
0000
,
0001
0100
0010
0100
0001
1000
0100
0000
,
0010
0001
0010
0100
2000
0000
3001
0000
,
1000
0100
0001
0100
1000
0001
0000
0000
,
0001
0100
1000
0100
0001
1000
0000
0000
,
0001
0010
0100
1000
0001
0100
0010
0000
,
0200
0000
0000
0310
,
1000
0010
1000
0000
0001
0100
0001
0000
,
1000
0010
0100
0001
0101
0000
1000
0001
,
0010
0000
0100
1000
0001
0000
1000
0001
,
2000
0000
0000
0001
3001
0000
0000
0000
,
0001
0010
0001
0000
1000
0100
1000
0000
,
0001
0010
0100
1000
0100
0000
0110
0000
,
0012
1003
2010
3001
,
0110
1001
0110
0000
,
0001
0010
0100
1000
0001
0100
0010
0000
,
1010
0011
1010
0011
,
1000
0010
0100
0001
0010
0100
1000
0000
,
1100
0000
0110
0000
0001
0010
0000
0000
,
2002
0000
3003
0000
,
0220
0000
0330
0000
,
0101
1100
1010
0011
,
0110
1001
0110
0000
,
1000
0001
0100
0000
1000
0001
0100
0000
,
1000
0100
0010
0001
0020
0000
0130
0000
,
0001
1000
0100
0000
0001
1000
0100
0000
,
0001
0100
0010
1000
0100
0000
0000
0000
,
1000
0001
0010
0000
1000
0001
0010
0000
,
1000
0001
0100
0010
0100
0000
0000
0001
,
0101
0000
0000
1000
1010
0000
0000
0001
,
0001
1000
1000
0010
0010
0000
0000
0000
,
0001
1000
0010
0000
0001
1000
0010
0000
,
0001
0010
0100
1000
0200
0000
0310
0000
,
1000
0001
0010
0000
1000
0001
0010
0000
,
1000
0010
0100
0001
0010
0000
0000
0000
,
0001
1000
0100
0000
0001
1000
0100
0000
,
0001
1000
0010
0100
0010
0000
0000
1000
,
1010
0000
0000
0001
0101
0000
0000
0000
,
0000
1000
0010
1000
0001
0010
0100
1000
,
0001
0000
0000
0000
0001
0100
0010
0100
,
0001
1000
0010
0000
0100
0001
1000
0000
,
0100
0010
0001
0000
1000
0100
0010
0100
,
1000
0001
0100
0000
0010
1000
0010
0100
,
0002
0000
1003
0000
0001
0100
1000
0100
,
0001
1000
0000
0000
1000
0100
0001
0100
,
1000
0001
0000
0000
1000
0010
0100
0001
,
1000
0000
0100
0000
0010
0000
0001
0000
0010
0000
0000
0100
0000
0000
1000
0000
,
0000
0001
0000
0000
0100
0000
0110
0000
0000
0000
0000
0000
2002
0000
0000
0000
,
0000
0000
0000
0000
,
0000
0000
0000
0000
,
0000
0000
3003
0000
,
0000
0000
0000
0000
;
#NOTES:
     dance-single:
     :
     Hard:
     14:
     :
0000
0000
0000
0000
,
0000
0000
0000
0000
,
0000
0000
0000
0000
,
0000
0000
0000
0000
,
0000
0000
0000
0000
,
0001
0000
0000
0100
0000
0000
0010
0000
1000
0000
0001
0000
1000
0000
0100
0000
,
0010
0000
0000
0001
0000
0000
1000
0000
0001
0000
0000
0000
0000
0000
0000
0000
,
1000
0000
0000
0010
0000
0000
0100
0000
0001
0000
1000
0000
0100
0000
0010
0000
,
0001
0010
0001
0000
0010
0100
0010
0000
0100
1000
0100
0010
0001
0000
0000
0000
,
0010
0100
0010
0100
0010
0000
0001
0000
1000
0000
0100
0000
0010
0000
0100
0000
,
1000
0000
0001
1000
0001
0000
0100
0000
0010
1000
0010
1000
0001
0000
0100
0000
,
0001
0010
0001
0010
0001
0000
1000
0000
0100
0000
0001
0000
0100
0000
1000
0000
,
0001
0000
0010
0001
0010
0000
0100
0000
1000
0000
0001
0000
0100
0000
0000
0000
,
0010
0100
0010
0100
0010
0000
1000
0000
0001
0000
0100
0000
0002
0000
0000
0000
,
0013
0100
0010
0100
0010
0000
0100
0000
1000
0000
0001
0000
2000
0000
0000
0000
,
3010
0100
0010
0100
0010
0000
1000
0000
0001
0000
0010
0000
1000
0000
0010
0000
,
0002
0000
0000
0000
0000
0000
0000
0000
0000
0000
0000
0000
0013
0100
0010
0100
,
1000
1000
0100
0100
,
0010
0000
0000
0001
0010
0000
0100
0000
1000
0000
0000
0000
0100
0000
0010
0000
,
0001
0000
0100
0010
1000
0001
0100
0010
,
2000
0000
3100
0010
0001
0000
0110
0000
,
1000
0000
0000
0100
0001
0000
0100
0000
1000
0100
1000
0100
1000
0000
0100
0000
,
0010
0000
0000
0001
0010
0000
1000
0000
0010
0000
0001
0000
0011
0000
1000
0000
,
1001
0000
0110
0100
0101
0000
1001
0010
,
0110
1001
0110
0001
,
0010
0000
0000
0100
0010
0000
0001
0000
0010
0100
0010
0100
0010
0000
0100
0000
,
1000
0000
0001
0100
0001
0000
1000
0000
0010
0000
0100
0000
0001
0000
0010
0000
,
0100
0000
0000
1000
0100
0000
0010
0000
0001
0010
0001
0010
0001
0000
0010
0000
,
0110
0000
1100
0000
1001
0110
0000
0000
,
2002
0000
3003
0000
,
0110
0000
0000
0000
1010
0000
0000
1001
0000
0000
0011
0000
0110
0000
0000
0000
,
0001
1000
0001
0010
1000
0001
0100
1000
,
0001
0000
1000
0000
0010
0000
0001
0000
1000
0000
0000
0000
0000
0000
0010
0100
,
0010
0000
1000
0000
0001
0000
0010
0001
0010
0000
0100
0000
1000
0000
0100
0010
,
0100
0000
0010
0000
0001
0000
1000
0000
0001
0000
0010
0000
0100
0000
0010
0001
,
0010
0000
0100
0000
1000
0000
0001
0100
0001
0000
0100
0000
0010
0000
1000
0000
,
0001
0000
0100
0000
1000
0000
0100
0000
0001
0000
0000
0000
0000
0000
1000
0010
,
1000
0000
0001
0000
0100
0000
0001
0010
0001
0000
0010
0000
0100
0000
1000
0001
,
1000
0000
0100
0000
0110
0000
1001
0000
1001
0000
0000
0000
0000
0000
0001
0100
,
0001
0000
0100
0010
0100
0000
0010
1000
0010
0000
1000
0001
1000
0000
0001
0010
,
0100
0000
1000
0100
0010
0000
0001
1000
0001
0000
0000
0000
0000
0000
0100
0010
,
0100
0000
0001
0000
1000
0000
0100
1000
0100
0000
0010
0000
0001
0000
0010
0100
,
0010
0000
0100
0000
1000
0000
0001
0000
1000
0000
0100
0000
0010
0000
0100
1000
,
0100
0000
0010
0000
0001
0000
1000
0010
1000
0000
0010
0000
0100
0000
0001
0000
,
1000
0000
0010
0000
0001
0000
0010
0000
1000
0000
0000
0000
0000
0000
0001
0100
,
0001
0000
1000
0000
0010
0000
1000
0100
1000
0000
0100
0000
0010
0000
0001
1000
,
0001
0000
0010
0000
0110
0000
1001
0000
1001
0000
0000
0000
0000
0000
1000
0010
,
1000
0000
0010
0100
0010
0000
0100
0001
0100
0000
0001
1000
0001
0000
0000
0000
,
0000
0001
0100
0010
1000
0100
0010
0001
,
2000
0000
0000
0000
3000
0000
0000
0000
0100
0010
0100
0010
0100
0000
1000
0000
,
0001
0000
0010
0000
0100
0000
0010
0000
0001
0000
1000
0001
1000
0000
0010
0000
,
0100
0001
0100
0001
1000
0000
0010
0000
1000
0100
1000
0100
1000
0000
0001
0000
,
0010
0000
1000
0000
0010
0000
0001
0000
1000
0000
0100
1000
0100
0000
0010
0000
,
0001
0000
1000
0000
0010
0000
0000
0000
0100
0010
0100
0010
0100
0000
0001
0000
,
1000
0000
0010
0000
2000
0000
0000
0000
3100
0010
0100
0010
0100
0000
0010
0000
,
0001
0000
1000
0000
0002
0000
0000
0000
0103
0010
0100
0010
0100
0000
0001
0000
,
1000
0000
0100
0000
0001
0000
0100
0000
1100
0000
0000
0110
0000
0000
0011
0000
,
0000
1001
0000
0000
0110
0000
1001
0000
0000
0000
0000
0000
0220
0000
0000
0000
,
0000
0000
0000
0000
,
0000
0000
0000
0000
,
0000
0000
0330
0000
,
0000
0000
0000
0000
;
#NOTES:
     dance-double:
     :
     Easy:
     7:
     :
00000000
00000000
00000000
00000000
,
00000000
00000000
00000000
00000000
,
00000000
00000000
00000000
00000000
,
00000000
00000000
00000000
00000000
,
00000000
00000000
00000000
00000000
,
10000000
10000000
01000000
00010000
,
00001000
00010000
00001000
00000000
00000010
00000000
00000001
00000000
,
00000100
00000000
00001000
00000000
00010000
00001000
00010000
00000000
,
00200000
00000000
00300000
00000000
,
10000000
00010000
10000000
00000000
01000000
00000000
01000000
00000000
,
00100000
00001000
00010000
00000100
,
00000010
00000001
00000010
00000000
00000100
00000000
00000100
00000000
,
00001000
00000000
00000001
00000010
00000001
00000000
00000000
00000000
,
00000001
00000000
00000001
00000000
00000100
00001000
00000000
00000000
,
00010000
00000000
00010000
00000000
00001000
00010000
00000000
00000000
,
00100000
01000000
00100000
10000000
,
20020000
00000000
30030000
00000000
,
10000000
10000000
01000000
00010000
,
00001000
00000000
00001000
00010000
00001000
00000000
00000000
00000000
,
00001000
00001000
00000010
00000001
,
00001000
00000000
00001000
00000100
00001000
00000000
00000000
00000000
,
00000001
00000001
00000100
00000100
,
00001000
00000000
00001000
00010000
00001000
00000000
00000000
00000000
,
00011000
00000000
00110000
00000000
,
01100000
00010000
10010000
00000000
,
10000000
00000000
10000000
00000000
01000000
00100000
00010000
00000000
,
00001000
00010000
00001000
00000100
,
00000010
00000000
00000010
00000000
00000001
00000010
00000100
00000000
,
00002000
00003002
00000103
00000000
,
00001001
00000000
00000000
00000000
,
00000110
00000000
00000000
00000000
,
00000001
00000100
00001000
00010000
,
00100000
10000000
00010000
00000000
,
10000000
00010000
10000000
00000000
01000000
00000000
01000000
00000000
,
00100000
00001000
00010000
00000000
00001000
00000000
00001000
00000000
,
00000100
00000001
00000100
00000000
00000010
00001000
00000010
00000000
,
00000110
00001001
00000110
00000000
,
00000001
00001000
00000001
00000000
00000100
00000000
00000100
00000000
,
00000010
00010000
00001000
00000000
00011000
00000000
00000000
00000000
,
00110000
00000000
01100000
00000000
,
10010000
01100000
10010000
00000000
,
10000000
00010000
10000000
00000000
00100000
00000000
00100000
00000000
,
01000000
00001000
00010000
00000000
00001000
00000000
00001000
00000000
,
00000010
00000001
00000010
00000000
00000100
00001000
00000100
00000000
,
00000110
00001001
00000110
00000000
,
00000001
00001000
00000001
00000000
00000010
00000000
00000010
00000000
,
00000100
00010000
00001000
00000000
00011000
00000000
00000000
00000000
,
01010000
00000000
01100000
00000000
,
00001000
00010000
00001000
00000000
00000100
00000000
00000010
00000000
,
00000110
00000000
00002002
00000000
,
00000000
00000000
00003003
00000000
,
00000000
00000000
00000000
00000000
00000010
00000001
00000010
00000000
,
00000100
00000000
00000100
00000000
00001000
00000000
00000001
00000010
,
00000001
00000000
00000001
00000001
,
00000100
00001000
00000000
00000000
00010000
00000000
00010000
00000000
,
00001000
00010000
00000000
00000000
00100000
00000000
01000000
00000000
,
00100000
10000000
10010000
01100000
,
10010000
01100000
00000000
20020000
,
00000000
00000000
00000000
00000000
,
00000000
00000000
00000000
00000000
,
00000000
00000000
30030000
00000000
,
00000000
00000000
00000000
00000000
;
#NOTES:
     dance-double:
     :
     Medium:
     10:
     :
00000000
00000000
00000000
00000000
,
00000000
00000000
00000000
00000000
,
00000000
00000000
00000000
00000000
,
00000000
00000000
00000000
00000000
,
00000000
00000000
00000000
00000000
,
10000000
01000000
00010000
00000000
00001000
00010000
00001000
00000000
,
00000100
00000010
00000100
00000001
00001000
00000100
00000010
00000000
,
00000001
00000010
00001000
00000000
00010000
00001000
00010000
00000000
,
00200000
00000000
01300000
10010000
,
10000000
01000000
00010000
01000000
10000000
00100000
01000000
00000000
,
00010000
00100000
00001000
00000000
00010000
00000100
00001000
00000000
,
00000001
00000100
00001000
00000100
00000001
00000010
00000100
00000000
,
00001000
00000100
00010000
00001000
00200000
00000000
01300000
00000000
,
10000000
01000000
00010000
01000000
00100000
00001000
00000000
00000000
,
00010000
00001000
00000100
00000001
00000100
00000010
00000000
00000000
,
00001000
00000010
00000001
00000010
00000100
00001000
00010000
00001000
,
00020000
00000000
00000000
00130000
,
10000000
00100000
10000000
00000000
00010000
01000000
00010000
00000000
,
00100000
00001000
00010000
00001000
00010000
00000000
00001000
00000100
,
00000010
00000000
00001000
00000001
00000010
00000000
00001000
00010000
,
00002000
00000000
00000000
00010000
00013000
00000000
00000000
00000000
,
00001000
00010000
00100000
00000000
01000000
00100000
10000000
00000000
,
00010000
00100000
00001000
00010000
00001000
00000000
00000100
00000000
,
00000002
00000103
00002000
00003010
,
00000110
00001001
00000110
00000000
,
00000001
00000100
00000010
00001000
00000100
00010000
00001000
00000000
,
00101000
00110000
01100000
10010000
,
10000000
00100000
01000000
00010000
00100000
00001000
00010000
00000000
,
00010100
00000000
00001100
00000000
00000010
00000100
00000000
00000000
,
00002002
00000000
00003003
00000000
,
00000220
00000000
00000330
00000000
,
00000101
00000101
00001100
00011000
,
00110000
01100000
10010000
00000000
,
10000000
01000000
00010000
00000000
01000000
00010000
00001000
00000000
,
00010000
00001000
00000100
00000010
00000200
00000000
00000301
00000000
,
00000001
00000100
00001000
00000000
00000100
00001000
00010000
00000000
,
00001000
00010000
00100000
00000000
01100000
00000000
00000000
00000000
,
10000000
00100000
00010000
00000000
00100000
00010000
00001000
00000000
,
00010000
00001000
00000010
00000100
00000010
00000000
00000000
00000001
,
00000011
00000000
00000000
00001000
00001100
00000000
00000000
00000001
,
00000010
00001000
00010000
00001000
00000100
00000000
00000000
00000000
,
00000001
00000100
00001000
00000000
00000100
00001000
00010000
00000000
,
00001000
00010000
01000000
00100000
02000000
00000000
13000000
00000000
,
10000000
01000000
00010000
00000000
01000000
00010000
00001000
00000000
,
00010000
00001000
00000010
00000000
00000110
00000000
00000000
00000000
,
00000001
00000010
00001000
00000000
00000010
00001000
00010000
00000000
,
00001000
00010000
00100000
01000000
00100000
00000000
00000000
10000000
,
10100000
00000000
00000000
00010000
01010000
00000000
00000000
00000000
,
00000000
10000000
01000000
00010000
00001000
00010000
00001000
00000010
,
00000001
00000000
00000000
00000000
00000001
00000100
00001000
00000100
,
00000001
00000010
00000100
00000000
00001000
00000010
00010000
00000000
,
00001000
01000000
00010000
00000000
10000000
01000000
00010000
01000000
,
10000000
00100000
01000000
00000000
00010000
01000000
00001000
00010000
,
00000020
00000000
00000130
00000000
00000001
00000100
00001000
00000100
,
00000010
00010000
00000000
00000000
00001000
00010000
01000000
10000000
,
01000000
00100000
00000000
00000000
00010000
00100000
10000000
00100000
,
01000000
00000000
00010000
00000000
00001000
00000000
00010000
00000000
00001000
00000000
00000000
00000100
00000000
00000000
00000001
00000000
,
00000000
00000100
00000000
00000000
00000010
00000000
00000110
00000000
00000000
00000000
00000000
00000000
00002002
00000000
00000000
00000000
,
00000000
00000000
00000000
00000000
,
00000000
00000000
00000000
00000000
,
00000000
00000000
00003003
00000000
,
00000000
00000000
00000000
00000000
;
#NOTES:
     dance-double:
     :
     Hard:
     14:
     :
00000000
00000000
00000000
00000000
,
00000000
00000000
00000000
00000000
,
00000000
00000000
00000000
00000000
,
00000000
00000000
00000000
00000000
,
00000000
00000000
00000000
00000000
,
10000000
00000000
00000000
01000000
00000000
00000000
00100000
00000000
00010000
00000000
00100000
00000000
00001000
00000000
00010000
00000000
,
00001000
00000000
00000000
00000100
00000000
00000000
00000010
00000000
00001000
00000000
00000000
00000000
00000000
00000000
00000000
00000000
,
00000001
00000000
00000000
00000010
00000000
00000000
00000100
00000000
00001000
00000000
00000100
00000000
00010000
00000000
00001000
00000000
,
00010000
00100000
01000000
10000000
01000000
00100000
00010000
00000000
,
00100000
01000000
00100000
01000000
00100000
00000000
10000000
00000000
00010000
00000000
00100000
00000000
01000000
00000000
00100000
00000000
,
00001000
00000000
00010000
00001000
00010000
00000000
00000100
00000000
00001000
00000100
00001000
00000100
00000010
00000000
00000100
00000000
,
00000010
00000001
00000010
00000001
00000010
00000000
00000100
00000000
00001000
00000000
00000100
00000000
00010000
00000000
00001000
00000000
,
00010000
00000000
00000000
00010000
00100000
00000000
01000000
00000000
00010000
00000000
10000000
00000000
01000000
00000000
00000000
00000000
,
00100000
01000000
00100000
01000000
00100000
00000000
00010000
00000000
10000000
00000000
01000000
00000000
00020000
00000000
00000000
00000000
,
00031000
00010000
00001000
00010000
00001000
00000000
00000100
00000000
00000010
00000000
00001000
00000000
00000002
00000000
00000000
00000000
,
00000013
00000100
00000010
00000100
00000010
00000000
00000100
00000000
00001000
00000000
00000100
00000000
00010000
00000000
00001000
00000000
,
00020000
00000000
00000000
00130000
,
10000000
10000000
01000000
01000000
,
00010000
00000000
00000000
00010000
00001000
00000000
00010000
00000000
00001000
00000000
00000000
00000000
00000100
00000000
00000010
00000000
,
00000100
00000000
00000001
00001000
00000001
00000010
00001000
00010000
,
00002000
00000000
00000000
00013000
00100000
00000000
01100000
00000000
,
10000000
00000000
00000000
01000000
00010000
00000000
01000000
00000000
10000000
00000000
00000000
01000000
00010000
00000000
01000000
00000000
,
00100000
00000000
00000000
00001000
00010000
00000000
00001000
00000000
00100000
00000000
00000000
00001000
00010000
00000000
00001000
00000000
,
00000100
00001001
00000010
00001001
,
00000110
00001001
00000110
00000001
,
00000010
00000000
00000000
00000100
00000010
00000000
00000001
00000000
00000010
00000100
00000010
00000100
00000010
00000000
00000100
00000000
,
00001000
00000000
00000100
00010000
00000100
00000000
00010000
00000000
00001000
00000000
00100000
00000000
00010000
00000000
10000000
00000000
,
00100000
00000000
00000000
01000000
00100000
00000000
10000000
00000000
00010000
00100000
00010000
00100000
00010000
00000000
00100000
00000000
,
00101000
00000000
00010100
00000000
00001100
00000010
00000000
00000000
,
00002002
00000000
00003003
00000000
,
00000110
00000000
00000000
00000000
00000010
00000000
00000000
00000010
00000000
00000000
00000010
00000000
00000010
00000000
00000000
00000000
,
00000001
00000100
00001000
00010000
00001000
00000010
00001000
00010000
,
01000000
00000000
10000000
00000000
00010000
00000000
10000000
00000000
01000000
00000000
00000000
00000000
00000000
00000000
00100000
10000000
,
00100000
00000000
01000000
00000000
00010000
00000000
00100000
00010000
00100000
00000000
00001000
00000000
00010000
00000000
00001000
00000100
,
00001000
00000000
00000100
00000000
00000010
00000000
00001000
00000000
00000001
00000000
00000010
00000000
00000100
00000000
00000010
00000001
,
00000010
00000000
00000100
00000000
00001000
00000000
00000100
00010000
00000100
00000000
00010000
00000000
00001000
00000000
00010000
00000000
,
00100000
00000000
01000000
00000000
10000000
00000000
00010000
00000000
00100000
00000000
00000000
00000000
00000000
00000000
01000000
00100000
,
01000000
00000000
00010000
00000000
00100000
00000000
00001000
00010000
00001000
00000000
00000100
00000000
00000010
00000000
00001000
00000001
,
00001000
00000000
00000100
00000000
00000110
00000000
00000001
00000000
00000011
00000000
00000000
00000000
00000000
00000000
00000001
00001000
,
00000001
00000000
00000010
00000000
00000100
00000000
00001000
00000001
00001000
00000000
00000010
00000000
00000100
00000000
00000001
00000010
,
00000001
00000000
00001000
00000100
00001000
00000000
00000100
00000010
00000001
00000000
00000000
00000000
00000000
00000000
00000100
00000001
,
00000100
00000000
00000010
00000000
00001000
00000000
00000100
00001000
00000100
00000000
00010000
00000000
00001000
00000000
00010000
00100000
,
00010000
00000000
00100000
00000000
01000000
00000000
00010000
00000000
10000000
00000000
01000000
00000000
00100000
00000000
01000000
10000000
,
01000000
00000000
00100000
00000000
00010000
00000000
00100000
00001000
00100000
00000000
00001000
00000000
00010000
00000000
00001000
00000000
,
00000100
00000000
00000010
00000000
00000001
00000000
00001000
00000000
00000100
00000000
00000000
00000000
00000000
00000000
00000010
00000100
,
00000010
00000000
00001000
00000000
00000100
00000000
00010000
00001000
00010000
00000000
00100000
00000000
01000000
00000000
00010000
10000000
,
00010000
00000000
00100000
00000000
01100000
00000000
10000000
00000000
11000000
00000000
00000000
00000000
00000000
00000000
10000000
00010000
,
10000000
00000000
01000000
00000000
00100000
00000000
00010000
10000000
00010000
00000000
01000000
00000000
10100000
00000000
00000000
00000000
,
00000000
10000000
10000000
10000000
01000000
00010000
00001000
00000010
,
00000002
00000000
00000000
00000000
00000003
00000000
00000000
00000000
00000010
00000100
00000010
00000100
00000010
00000000
00000001
00000000
,
00001000
00000000
00000010
00000000
00000100
00000000
00000010
00000000
00010000
00000000
00001000
00010000
00001000
00000000
01000000
00000000
,
00010000
01000000
00010000
01000000
00100000
00000000
01000000
00000000
00100000
10000000
00100000
10000000
00100000
00000000
01000000
00000000
,
00010000
00000000
01000000
00000000
00001000
00000000
00010000
00000000
00001000
00000000
00000000
00001000
00000010
00000000
00000100
00000000
,
00001000
00000000
00000001
00000000
00000100
00000000
00000000
00000000
00000010
00000100
00000010
00000100
00000010
00000000
00001000
00000000
,
00000001
00000000
00000100
00000000
00002000
00000000
00000000
00000000
00013000
00001000
00010000
00001000
00010000
00000000
01000000
00000000
,
00100000
00000000
00010000
00000000
20000000
00000000
00000000
00000000
30100000
01000000
00100000
01000000
00100000
00000000
01000000
00000000
,
00010000
00000000
01000000
00000000
00001000
00000000
00010000
00000000
00001000
00000000
00000000
00001100
00000000
00000000
00000110
00000000
,
00000000
00001001
00000000
00000000
00000110
00000000
00001001
00000000
00000000
00000000
00000000
00000000
00000220
00000000
00000000
00000000
,
00000000
00000000
00000000
00000000
,
00000000
00000000
00000000
00000000
,
00000000
00000000
00000330
00000000
,
00000000
00000000
00000000
00000000
;
