
//----- song ID: alal -----//
#TITLE:エイリアンエイリアン;
#ARTIST:ナユタン星人;
#TITLETRANSLIT:Alien Alien;
#ARTISTTRANSLIT:NayutalieN;
#BANNER:Alien Alien.png;
#BACKGROUND:Alien Alien-bg.png;
#CDTITLE:./CDTitles/jubeat Qubell.png;
#MUSIC:Alien Alien.ogg;
#SAMPLESTART:50.517;
#SAMPLELENGTH:15;
#BPMS:0=152;
#NOTES:
     dance-single:
     :
     Beginner:
     3:
     :
0000
0000
0000
0000
,
0000
0000
0000
0000
,
0000
0000
0000
0000
,
0000
0000
0000
0000
,
0001
0000
0001
0000
,
1000
0000
1000
0000
,
0001
0000
0001
0000
,
1000
0000
1000
0000
,
0010
0000
0000
0000
,
0010
0000
0010
0000
,
1000
0000
0000
0000
,
1000
0000
1000
0000
,
0001
0000
0000
0000
,
0001
0000
0001
0000
,
0100
0000
0000
0000
,
0100
0000
0100
0000
,
0001
0000
0001
0000
,
1000
0000
1000
0000
,
0001
0000
0001
0000
,
1000
0000
1000
0000
,
0001
0000
0000
0000
,
0010
0000
0010
0000
,
1000
0000
0000
0000
,
0010
0000
0010
0000
,
0001
0000
0000
0000
,
0010
0000
0010
0000
,
1000
0000
0000
0000
,
0010
0000
0010
0000
,
0100
0000
0100
0000
,
0010
0000
0010
0000
,
0100
0000
0100
0000
,
0020
0000
0030
0000
,
0001
0001
0001
0000
,
1000
1000
1000
0000
,
0010
0000
0010
0000
,
0100
0000
0100
0000
,
0001
0000
0001
0000
,
0010
0000
0010
0000
,
1000
0000
1000
0000
,
0002
0000
0003
0000
,
1000
1000
1000
0000
,
0001
0001
0001
0000
,
0010
0000
0010
0000
,
0100
0000
0100
0000
,
1000
0000
1000
0000
,
0010
0010
0010
0000
,
0001
0000
0001
0000
,
2000
0000
3000
0000
,
0002
0000
0000
0000
,
0000
0000
0003
0000
,
1000
0000
1000
0000
,
0001
0000
0001
0000
,
0010
0000
0010
0000
,
0100
0000
0100
0000
,
0010
0000
0010
0000
,
0100
0000
0100
0000
,
0001
0000
0001
0000
,
1000
0000
1000
0000
,
0001
0000
0001
0000
,
1000
0000
1000
0000
,
0000
0000
0000
0000
,
0001
0001
0001
0000
,
1000
1000
1000
0000
,
0010
0000
0010
0000
,
0100
0000
0100
0000
,
0001
0000
0001
0000
,
0010
0000
0010
0000
,
1000
0000
1000
0000
,
0002
0000
0003
0000
,
1000
1000
1000
0000
,
0001
0001
0001
0000
,
0010
0000
0010
0000
,
0100
0000
0100
0000
,
1000
0000
1000
0000
,
0010
0010
0010
0000
,
0001
0000
0001
0000
,
2000
0000
3000
0000
,
0002
0000
0000
0000
,
0003
0000
0000
0000
,
0000
0000
0000
0000
;
#NOTES:
     dance-single:
     :
     Easy:
     5:
     :
0000
0000
0000
0000
,
0000
0000
0000
0000
,
0000
0000
0000
0000
,
0000
0000
0000
0000
,
1000
1000
0010
0000
,
0001
0001
0010
0000
,
1000
1000
0010
0000
,
0001
0001
0010
0000
,
0002
0003
2000
3000
,
0001
0001
0100
0010
,
2000
3000
0002
0003
,
0010
0010
0100
1000
,
0020
0030
0200
0300
,
0001
0100
0010
1000
,
0001
0001
1000
1000
,
0000
0010
0010
0010
,
1000
0010
1000
0000
,
0001
0010
0001
0000
,
1000
0010
1000
0000
,
0001
0010
0001
0000
,
2000
3000
0200
0300
,
0010
0010
0001
0100
,
0020
0030
2000
3000
,
0001
0001
1000
0001
,
0020
0030
0002
0003
,
1000
0010
0100
0001
,
1000
1000
0001
0001
,
0000
0010
0100
0010
,
0001
0000
0001
0000
,
1000
0000
1000
0000
,
0001
0001
1000
1000
,
0010
0010
0010
0000
,
0010
1000
0100
0000
,
0010
0001
0100
0000
,
0001
0001
0100
0100
,
0001
0100
0001
0000
,
1000
0000
0001
0000
,
1000
0001
1001
0000
,
0100
0100
0010
0010
,
0100
0000
0010
0000
,
1000
0001
0010
0000
,
0001
1000
0010
0000
,
1000
1000
0001
0001
,
1000
0001
1000
0000
,
0010
0000
0100
0000
,
0001
1000
1001
0000
,
0100
0100
0010
0010
,
0001
0000
1000
0000
,
0020
0000
0000
0000
,
0000
0000
0030
0000
,
1000
0010
1000
0000
,
0001
0010
0001
0000
,
1000
0000
1000
0000
,
0100
0010
0001
0000
,
0100
0000
0100
0000
,
0010
1000
0001
0000
,
0010
0000
0100
0000
,
0010
0001
0100
0000
,
0001
0000
1000
0000
,
0010
0100
0010
0000
,
0000
0000
0000
0000
,
0010
0001
0100
0000
,
0010
1000
0100
0000
,
1000
1000
0100
0100
,
1000
0100
1000
0000
,
0001
0000
1000
0000
,
0001
1000
1001
0000
,
0100
0100
0010
0010
,
0100
0000
0010
0000
,
0001
1000
0010
0000
,
1000
0001
0010
0000
,
0001
0001
1000
1000
,
0001
1000
0001
0000
,
0010
0000
0100
0000
,
1000
0001
1001
0000
,
0100
0100
0010
0010
,
1000
0000
0001
0000
,
0020
0000
0000
0000
,
0030
0000
0000
0000
,
0000
0000
0000
0000
;
#NOTES:
     dance-single:
     :
     Medium:
     9:
     :
0000
0000
0000
0000
,
0000
0000
0000
0000
,
0000
0000
0000
0000
,
0000
0000
0000
0000
,
0001
0100
0001
0000
1000
0100
1000
0000
,
0001
0100
0001
0000
0010
0000
0010
0000
,
1000
0001
1000
0000
0010
0100
0010
0000
,
1000
0001
1000
0000
0100
0000
0100
0000
,
0020
0000
0030
0001
2000
0000
3000
0001
,
0010
0000
0001
0000
1000
0001
0100
0000
,
0020
0000
0030
1000
0002
0000
0003
1000
,
0100
0000
0100
0000
0010
0001
0100
0000
,
0002
0000
0003
1000
0200
0000
0300
1000
,
0001
0000
1000
0000
0100
0010
0100
0000
,
0020
0032
0203
0320
,
0030
1000
0001
0000
0010
0001
1000
0000
,
0010
1000
0100
0000
0010
0001
0100
0000
,
0010
1000
0100
0000
0010
0000
0010
0000
,
0100
1000
0010
0000
0100
0001
0010
0000
,
0100
1000
0010
0000
0100
0010
0100
0010
,
0020
0000
0030
1000
0002
0000
0003
1000
,
0010
0000
1000
0000
0001
1000
0100
0000
,
0020
0000
0030
0001
2000
0000
3000
0001
,
0100
0000
0100
0000
0010
1000
0100
0000
,
2000
0000
3000
0001
0200
0000
0300
0001
,
1000
0000
0001
0000
0100
0010
0100
0000
,
0020
2030
3200
0320
,
0030
0001
1000
0000
0010
1000
0001
0000
,
2000
0010
0001
3100
,
0002
0010
1000
0103
,
0001
0100
0001
0000
1000
0100
1000
0000
,
0010
0100
0010
0100
0010
0000
0000
0000
,
1000
0000
0001
0010
0000
0001
1000
0000
,
0010
0000
1000
0001
0000
1000
0000
1000
,
0010
1000
0010
0000
0100
0001
0100
0000
,
0001
1000
0100
0000
0020
0000
0030
0000
,
0001
0000
0010
0000
1000
0100
0001
0000
,
0100
0010
1001
0000
,
0010
0001
0010
0000
0100
1000
0100
1000
,
0000
0001
0001
0000
1000
1000
0000
0000
,
0001
0000
1000
0010
0000
1000
0001
0000
,
0010
0000
0001
1000
0000
0001
0000
0001
,
0010
0001
0010
0000
0100
1000
0100
0000
,
1000
0001
0100
0000
0020
0000
0030
0000
,
1000
0000
0010
0000
0001
0100
1000
0000
,
0100
0010
1001
0000
,
0010
1000
0010
0000
0100
0001
0100
0001
,
0000
1000
1000
0000
0001
0001
0000
0100
,
0020
0000
0000
0000
,
0000
0000
0000
0030
,
0001
1000
0001
0000
0010
0100
0010
0000
,
0001
1000
0001
0000
0100
0000
0100
0000
,
1000
0010
0010
0000
0001
0010
0010
0000
,
0001
0000
0100
0000
0010
1000
0100
0000
,
1000
0100
0100
0000
0001
0100
0100
0000
,
0010
0000
1000
0000
0100
0010
0001
0000
,
1000
0010
0010
0000
0001
0010
0010
0000
,
0100
0000
0010
0000
0001
1000
0100
0000
,
2000
3010
0002
0013
,
0001
1000
0100
1000
0001
0000
0000
0000
,
0000
0001
0001
0000
1000
1000
0000
0000
,
0001
0000
1000
0010
0000
1000
0001
0000
,
0010
0000
0001
1000
0000
0001
0000
0001
,
0010
0001
0010
0000
0100
1000
0100
0000
,
1000
0001
0100
0000
0020
0000
0030
0000
,
1000
0000
0010
0000
0001
0100
1000
0000
,
0100
0010
1001
0000
,
0010
1000
0010
0000
0100
0001
0100
0001
,
0000
1000
1000
0000
0001
0001
0000
0000
,
1000
0000
0001
0010
0000
0001
1000
0000
,
0010
0000
1000
0001
0000
1000
0000
1000
,
0010
1000
0010
0000
0100
0001
0100
0000
,
0001
1000
0100
0000
0020
0000
0030
0000
,
0001
0000
0010
0000
1000
0100
0001
0000
,
0100
0010
1001
0000
,
0010
0001
0010
0000
0100
1000
0100
1000
,
0000
0001
0001
0000
1000
1000
0000
0010
,
0200
0000
0000
0000
,
0300
0000
0000
0000
,
0000
0000
0000
0000
;
#NOTES:
     dance-single:
     :
     Hard:
     12:
     :
0000
0000
0000
0000
,
0000
0000
0000
0000
,
0000
0000
0000
0000
,
0000
0000
0000
0000
,
0010
1000
0100
1000
0010
1000
0100
1000
,
0010
1000
0100
1000
0001
0100
0010
1000
,
0010
0001
0100
0001
0010
0001
0100
0001
,
0010
0001
0100
0001
1000
0100
0010
0001
,
0021
0000
0030
1000
1020
0000
0030
1000
,
0010
0100
0010
0100
0001
0100
0010
1000
,
1200
0000
0300
0001
0201
0000
0300
0001
,
0100
0010
0100
0010
1000
0001
0100
0001
,
2001
0000
3000
0100
0210
0000
0300
0100
,
1000
0100
0010
0100
1000
0100
0010
0001
,
0200
2300
3020
0032
,
0003
1000
0010
1000
0001
0100
0010
1000
,
0001
0100
1000
0100
0001
0100
1000
0100
,
0001
0100
1000
0100
0010
0100
0010
0100
,
0001
0010
1000
0010
0001
0010
1000
0010
,
0001
0010
1000
0010
0001
0010
0010
0010
,
1020
0000
0030
0001
0021
0000
0030
0001
,
0010
0100
0010
0100
1000
0100
0010
0001
,
0201
0000
0300
1000
1200
0000
0300
1000
,
0100
0010
0100
0010
0001
1000
0100
1000
,
1002
0000
0003
0100
0210
0000
0300
0100
,
0001
0100
0010
0100
0001
0100
0010
1000
,
0200
0302
0023
2030
,
3000
0001
0010
0001
1000
0100
0010
0001
,
0011
0011
1100
0011
,
1010
1010
0101
1010
,
0001
0100
0010
0100
0001
0100
0010
0100
,
0001
0100
0001
0100
0001
0100
0001
0100
0001
0000
0000
0000
0000
0000
0000
0000
,
0010
0001
0100
0020
0000
0100
0130
0010
,
1000
0010
0100
0002
0000
2003
0000
3001
,
0010
0001
0010
0001
1000
0100
1000
0100
,
0001
0100
1000
0010
0001
0010
0010
0000
,
1000
0010
0100
0000
0001
0010
0100
0010
,
0110
0000
0110
1000
0001
0000
1000
0000
,
0010
1000
0001
0010
0001
1000
0010
1000
,
0000
0001
0101
0000
1000
1100
0000
0000
,
0010
1000
0100
0020
0000
0100
0130
0010
,
0001
0010
0100
2000
0000
3002
0000
1003
,
0010
1000
0010
1000
0001
0100
0001
0100
,
1000
0100
0001
0010
1000
0010
0010
0000
,
0001
0010
0100
0010
0001
0000
1000
0000
,
0110
0000
1001
0000
0220
0000
0330
0001
,
0100
0001
1000
0100
1000
0001
0100
0001
,
0000
1000
1100
0000
0001
0101
0000
0001
,
0010
0001
0100
0001
0010
0001
0100
0001
,
1000
0100
0010
0001
1000
0001
1000
0001
,
0010
1000
0100
1000
0010
1000
0100
1000
,
0001
0100
0010
1000
0001
0100
0000
0100
,
0001
0000
0100
0001
0100
0000
0000
0000
0010
0000
0100
0010
0100
0000
0000
0000
,
0010
1000
0001
1000
0100
0010
0001
0000
,
1000
0000
0100
1000
0100
0000
0000
0000
0010
0000
0100
0010
0100
0000
0000
0000
,
0010
0001
1000
0001
0100
0010
1000
0000
,
0001
0000
0010
0001
0010
0000
0000
0000
0100
0000
0010
0100
0010
0000
0000
0000
,
0100
1000
0001
1000
0010
0100
0001
0000
,
1000
0010
0001
0010
1000
0100
0001
0000
,
0100
1000
0100
0001
0100
0000
0000
0000
,
0000
1000
1000
0000
0001
0001
0000
0000
,
0010
1000
0100
0020
0000
0100
0130
0010
,
0001
0010
0100
2000
0000
3002
0000
1003
,
0010
1000
0010
1000
0001
0100
0001
0100
,
1000
0100
0001
0010
1000
0010
0010
0000
,
0001
0010
0100
0000
1000
0010
0100
0010
,
0110
0000
0110
0001
1000
0000
0001
0000
,
0010
0001
1000
0010
1000
0001
0010
0001
,
0000
1000
1100
0000
0001
0101
0000
0000
,
0010
0001
0100
0020
0000
0100
0130
0010
,
1000
0010
0100
0002
0000
2003
0000
3001
,
0010
0001
0010
0001
1000
0100
1000
0100
,
0001
0100
1000
0010
0001
0010
0010
0000
,
1000
0010
0100
0010
1000
0100
0010
0001
,
0110
0000
1001
0000
0220
0000
0330
1000
,
0100
1000
0001
0100
0001
1000
0100
1000
,
0000
0001
0101
0000
1000
1100
0000
0001
,
2000
0000
0000
0000
,
3000
0000
0000
0000
,
0000
0000
0000
0000
;
#NOTES:
     dance-double:
     :
     Easy:
     5:
     :
00000000
00000000
00000000
00000000
,
00000000
00000000
00000000
00000000
,
00000000
00000000
00000000
00000000
,
00000000
00000000
00000000
00000000
,
00100000
10000000
00100000
00000000
,
10000000
01000000
10000000
00000000
,
01000000
00010000
01000000
00000000
,
00010000
00001000
00010000
00000000
,
00000010
00000000
00001000
00000000
,
00000001
00000010
00000100
00001000
,
00000001
00000000
00000100
00000000
,
00000010
00000010
00000100
00000100
,
00001000
00000000
00010000
00000000
,
00001000
00010000
00100000
10000000
,
00010000
00010000
10000000
10000000
,
00000000
00100000
00100000
00100000
,
10000000
01000000
10000000
00000000
,
01000000
00010000
01000000
00000000
,
00010000
00001000
00010000
00000000
,
00001000
00000100
00001000
00000000
,
00000100
00000000
00000010
00000000
,
00001000
00000100
00000010
00000001
,
00001000
00000000
00000001
00000000
,
00000100
00000100
00000010
00000010
,
00010000
00000000
00001000
00000000
,
00100000
00010000
10000000
00010000
,
01000000
01000000
00100000
00100000
,
00000000
10000000
00100000
10000000
,
00010000
00000000
00010000
00000000
,
00001000
00000000
00001000
00000000
,
00010000
00010000
00001000
00001000
,
00010000
00010000
00010000
00000000
,
00100000
00001000
00010000
00000000
,
00000010
00010000
00001000
00000000
,
00100000
00100000
00010000
00010000
,
00100000
00010000
01000000
00000000
,
00100000
00000000
10000000
00000000
,
01000000
00100000
00010000
00000000
,
01000000
01000000
00001000
00001000
,
00010000
00000000
00001000
00000000
,
00000010
00010000
00001000
00000000
,
00100000
00001000
00010000
00000000
,
00000010
00000010
00001000
00001000
,
00000010
00001000
00000100
00000000
,
00000010
00000000
00000001
00000000
,
00000100
00000010
00001000
00000000
,
00000100
00000100
00010000
00010000
,
00001000
00000000
00100000
00000000
,
00020000
00000000
00000000
00000000
,
00000000
00000000
00030000
00000000
,
10000000
00010000
10000000
00000000
,
00100000
01000000
00100000
00000000
,
10000000
00000000
10000000
00000000
,
01000000
00010000
00001000
00000000
,
00000010
00000000
00000010
00000000
,
00000001
00001000
00000100
00000000
,
00000001
00000000
00000001
00000000
,
00000100
00001000
00010000
00000000
,
00100000
00000000
00100000
00000000
,
00010000
00001000
00010000
00000000
,
00000000
00000000
00000000
00000000
,
01000000
00001000
00010000
00000000
,
00000100
00010000
00001000
00000000
,
01000000
01000000
00010000
00010000
,
01000000
00010000
00100000
00000000
,
01000000
00000000
10000000
00000000
,
00100000
01000000
00010000
00000000
,
00100000
00100000
00001000
00001000
,
00010000
00000000
00001000
00000000
,
00000100
00010000
00001000
00000000
,
01000000
00001000
00010000
00000000
,
00000100
00000100
00001000
00001000
,
00000100
00001000
00000010
00000000
,
00000100
00000000
00000001
00000000
,
00000010
00000100
00001000
00000000
,
00000010
00000010
00010000
00010000
,
00001000
00000000
01000000
00000000
,
00020000
00000000
00000000
00000000
,
00030000
00000000
00000000
00000000
,
00000000
00000000
00000000
00000000
;
#NOTES:
     dance-double:
     :
     Medium:
     9:
     :
00000000
00000000
00000000
00000000
,
00000000
00000000
00000000
00000000
,
00000000
00000000
00000000
00000000
,
00000000
00000000
00000000
00000000
,
00100000
00010000
01000000
00000000
00100000
10000000
01000000
00000000
,
00100000
00010000
01000000
00000000
00001000
00000000
00010000
00000000
,
00000010
00001000
00000100
00000000
00000010
00000001
00000100
00000000
,
00000010
00001000
00000100
00000000
00010000
00000000
00001000
00000000
,
00200000
00000000
00300000
00010000
20000000
00000000
30000000
00010000
,
01000000
00000000
00100000
00000000
10000000
00010000
10000000
00000000
,
02000000
00000000
03000000
00010000
00002000
00000000
00003000
00010000
,
00001000
00000000
00000010
00000000
00000001
00001000
00000001
00000000
,
00000200
00000000
00000300
00000010
00002000
00000000
00003000
00000001
,
00000010
00000000
00000100
00000000
00001000
00000010
00000100
00000000
,
00002000
00023000
00230000
20300000
,
30000000
00010000
10000000
00000000
00100000
10000000
00010000
00000000
,
00100000
00010000
01000000
00000000
00100000
10000000
01000000
00000000
,
00100000
00010000
01000000
00000000
00001000
00000000
00010000
00000000
,
00000010
00001000
00000100
00000000
00000010
00000001
00000100
00000000
,
00000010
00001000
00000100
00000000
00010000
00000000
00001000
00000000
,
02000000
00000000
03000000
00010000
20000000
00000000
30000000
00010000
,
00100000
00000000
01000000
00000000
10000000
00010000
10000000
00000000
,
00200000
00000000
00300000
00010000
00002000
00000000
00003000
00010000
,
00001000
00000000
00000100
00000000
00000001
00001000
00000001
00000000
,
00000020
00000000
00000030
00000100
00002000
00000000
00003000
00000001
,
00000100
00000000
00000010
00000000
00001000
00000100
00000010
00000000
,
00002000
00023000
02030000
23000000
,
30000000
00010000
10000000
00000000
01000000
10000000
00010000
00000000
,
00200000
00010000
01000000
00310000
,
00002000
00010000
01000000
00013000
,
00000010
00001000
00000010
00000000
00000100
00000001
00000100
00000000
,
00000010
00001000
00000001
00001000
00000010
00000000
00000000
00000000
,
00001000
00000000
00000100
00000001
00000000
00000100
00001000
00000000
,
00000001
00000000
00000100
00001000
00000000
00010000
00000000
00010000
,
00100000
01000000
00100000
00000000
10000000
00010000
10000000
00000000
,
00010000
01000000
00100000
00000000
20000000
00000000
30000000
00000000
,
01000000
00000000
00010000
00000000
00001000
00010000
00001000
00000000
,
00000010
00000001
00001001
00000000
,
00000100
00001000
00000010
00000000
00000100
00000010
00001000
00000010
,
00000000
00010000
00010000
00000000
00001000
00001000
00000000
00000000
,
00010000
00000000
01000000
10000000
00000000
01000000
00010000
00000000
,
10000000
00000000
01000000
00010000
00000000
00001000
00000000
00001000
,
00000010
00000100
00000010
00000000
00000001
00001000
00000001
00000000
,
00001000
00000100
00000010
00000000
00000002
00000000
00000003
00000000
,
00000100
00000000
00001000
00000000
00010000
00001000
00010000
00000000
,
00100000
10000000
10010000
00000000
,
01000000
00010000
00100000
00000000
01000000
00100000
00010000
00100000
,
00000000
00001000
00001000
00000000
00010000
00010000
00000000
00000010
,
00002000
00000000
00000000
00000000
,
00000000
00000000
00000000
00003000
,
00000010
00001000
00000100
00000000
00000010
00000001
00000100
00000000
,
00000010
00001000
00000100
00000000
00010000
00000000
00010000
00000000
,
00001000
00100000
00010000
00000000
00100000
00001000
00010000
00000000
,
00000010
00000000
00000100
00000000
00001000
00010000
00001000
00000000
,
00010000
00000010
00001000
00000000
00000010
00010000
00001000
00000000
,
00100000
00000000
01000000
00000000
00010000
00001000
00010000
00000000
,
00000010
00001000
00000001
00000000
00000010
00000001
00001000
00000000
,
00000010
00000000
00000100
00000000
00001000
00010000
00001000
00000000
,
00010000
00100000
10000000
01000000
,
00100000
00010000
01000000
00010000
00100000
00000000
00000000
00000000
,
00000000
00010000
00010000
00000000
10000000
10000000
00000000
00000000
,
00010000
00000000
01000000
10000000
00000000
01000000
00010000
00000000
,
10000000
00000000
01000000
00010000
00000000
00001000
00000000
00001000
,
00000010
00000100
00000010
00000000
00000001
00001000
00000001
00000000
,
00001000
00000100
00000010
00000000
00000002
00000000
00000003
00000000
,
00000100
00000000
00001000
00000000
00010000
00001000
00010000
00000000
,
00100000
10000000
10010000
00000000
,
01000000
00010000
00100000
00000000
01000000
00100000
00010000
00100000
,
00000000
00001000
00001000
00000000
00010000
00010000
00000000
00000000
,
00001000
00000000
00000100
00000001
00000000
00000100
00001000
00000000
,
00000001
00000000
00000100
00001000
00000000
00010000
00000000
00010000
,
00100000
01000000
00100000
00000000
10000000
00010000
10000000
00000000
,
00010000
01000000
00100000
00000000
20000000
00000000
30000000
00000000
,
01000000
00000000
00010000
00000000
00001000
00010000
00001000
00000000
,
00000010
00000001
00001001
00000000
,
00000100
00001000
00000010
00000000
00000100
00000010
00001000
00000010
,
00000000
00010000
00010000
00000000
00001000
00001000
00000000
00100000
,
00020000
00000000
00000000
00000000
,
00030000
00000000
00000000
00000000
,
00000000
00000000
00000000
00000000
;
#NOTES:
     dance-double:
     :
     Hard:
     12:
     :
00000000
00000000
00000000
00000000
,
00000000
00000000
00000000
00000000
,
00000000
00000000
00000000
00000000
,
00000000
00000000
00000000
00000000
,
00000010
00000001
00000010
00000001
00001000
00000100
00001000
00000100
,
00010000
00001000
00010000
00001000
00100000
00010000
01000000
00000000
,
00100000
10000000
00100000
10000000
00010000
01000000
00010000
01000000
,
00001000
00010000
00001000
00010000
00000010
00001000
00000100
00000000
,
00000020
00000000
00000030
00000001
00002000
00000000
00003000
00000001
,
00000100
00001000
00000100
00000010
00000100
00001000
00010000
00100000
,
20000000
00000000
30000000
00010000
02000000
00000000
03000000
00010000
,
00100000
01000000
00010000
01000000
10000000
01000000
00010000
00001000
,
00020000
00000000
00030000
00000010
00002000
00000000
00003000
00000010
,
00000001
00000010
00001000
00000010
00010000
00001000
00100000
00010000
,
20000000
30200000
02300000
03020000
,
00030000
10000000
00010000
10000000
01000000
00100000
00010000
00010000
,
10000000
01000000
00010000
01000000
10000000
01000000
00010000
01000000
,
10000000
01000000
00010000
00001000
00000010
00000100
00000010
00000000
,
00000001
00000100
00001000
00000100
00000001
00000100
00001000
00000100
,
00000001
00000100
00001000
00010000
00100000
01000000
01000000
01000000
,
00200000
00000000
00300000
10000000
00020000
00000000
00030000
10000000
,
01000000
00010000
01000000
00100000
01000000
00010000
00001000
00000010
,
00000002
00000000
00000003
00001000
00000200
00000000
00000300
00001000
,
00000010
00000100
00001000
00000100
00000001
00000100
00001000
00010000
,
00002000
00000000
00003000
00100000
00020000
00000000
00030000
00100000
,
10000000
00100000
00010000
00100000
00001000
00010000
00000010
00001000
,
00000002
00000023
00000230
00002300
,
00003000
00000001
00001000
00000001
00000100
00000010
00001000
00000001
,
00000101
00001100
00000101
00001100
,
00011000
00001100
00011000
00001100
,
00010000
00000010
00001000
00000100
00010000
00000010
00001000
00000100
,
00010000
00001000
00010000
00001000
00010000
00001000
00010000
00001000
00010000
00000000
00000000
00000000
00000000
00000000
00000000
00000000
,
00001000
00010000
00100000
20000000
00000000
30010000
10000000
00010000
,
10000000
00100000
00010000
00002000
00000000
00023000
00000000
00031000
,
00100000
00010000
10000000
00010000
01000000
00010000
10000000
00010000
,
10000000
01000000
00010000
00001000
00010000
00001000
00001000
00000000
,
00010000
00000010
00001000
00000000
00000001
00000010
00000100
00001000
,
00000001
00000000
00000110
00000001
00001000
00000000
00000010
00000000
,
00000100
00000010
00010000
00000010
00001000
00000010
00000100
00000010
,
00000000
00010000
00011000
00000000
00000100
00001100
00000000
00000000
,
00010000
00001000
00000010
00000002
00000000
00001003
00000001
00001000
,
00000001
00000010
00001000
00020000
00000000
00032000
00000000
00013000
,
00000010
00001000
00000001
00001000
00000100
00001000
00000001
00001000
,
00000001
00000100
00001000
00010000
00001000
00010000
00010000
00000000
,
00001000
00100000
00010000
10000000
00100000
00000000
01000000
00000000
,
10010000
01100000
10010000
00100000
,
01000000
00100000
00001000
00100000
00010000
00100000
01000000
00100000
,
00000000
00001000
00011000
00000000
01000000
01010000
00000000
01000000
,
00100000
10000000
00100000
10000000
00010000
01000000
00010000
01000000
,
00001000
00010000
00001000
00010000
00000010
00001000
00000100
00000000
,
00000010
00000001
00000010
00000001
00001000
00000100
00001000
00000100
,
00010000
00001000
00010000
00001000
00100000
00010000
00000000
00010000
,
10000000
00000000
01000000
10000000
01000000
00000000
00000000
00000000
10000000
00000000
00010000
01000000
00010000
00000000
00000000
00000000
,
10000000
01000000
00010000
01000000
10000000
01000000
00010000
00000000
,
00001000
00000000
00010000
00001000
00010000
00000000
00000000
00000000
00000010
00000000
00001000
00000010
00001000
00000000
00000000
00000000
,
00000001
00000010
00000100
00001000
00000001
00000100
00000010
00000000
,
00001000
00000000
00000010
00001000
00000010
00000000
00000000
00000000
00000100
00000000
00000010
00000100
00000010
00000000
00000000
00000000
,
00001000
00000010
00000001
00000010
00001000
00010000
00001000
00000000
,
00010000
01000000
00100000
10000000
00010000
10000000
00010000
00000000
,
10000000
00100000
00010000
00100000
10000000
00000000
00000000
00000000
,
00000000
00010000
00010000
00000000
00001000
00001000
00000000
00000000
,
00010000
00001000
00000100
00000002
00000000
00001003
00000001
00001000
,
00000001
00000100
00001000
00020000
00000000
00032000
00000000
00013000
,
00000100
00001000
00000001
00001000
00000010
00001000
00000001
00001000
,
00000001
00000010
00001000
00010000
00001000
00010000
00010000
00000000
,
00001000
01000000
00010000
00000000
10000000
01000000
00100000
00010000
,
10000000
00000000
01100000
10000000
00010000
00000000
01000000
00000000
,
00100000
01000000
00001000
01000000
00010000
01000000
00100000
01000000
,
00000000
00001000
00011000
00000000
00100000
00110000
00000000
00000000
,
00001000
00010000
01000000
20000000
00000000
30010000
10000000
00010000
,
10000000
01000000
00010000
00002000
00000000
00023000
00000000
00031000
,
01000000
00010000
10000000
00010000
00100000
00010000
10000000
00010000
,
10000000
00100000
00010000
00001000
00010000
00001000
00001000
00000000
,
00010000
00000100
00001000
00000001
00000100
00000010
00001000
00000001
,
00001001
00000110
00001001
00000100
,
00000010
00000100
00010000
00000100
00001000
00000100
00000010
00000100
,
00000000
00010000
00011000
00000000
00000010
00001010
00000000
00000001
,
00000020
00000000
00000000
00000000
,
00000030
00000000
00000000
00000000
,
00000000
00000000
00000000
00000000
;
