
//----- song ID: aiko -----//
#TITLE:愛言葉;
#ARTIST:DECO*27;
#TITLETRANSLIT:Ai kotoba;
#BANNER:Ai kotoba.png;
#BACKGROUND:Ai kotoba-bg.png;
#CDTITLE:./CDTitles/DDR A.png;
#MUSIC:Ai kotoba.ogg;
#SAMPLESTART:70.998;
#SAMPLELENGTH:15;
#BPMS:0=137;
#NOTES:
     dance-single:
     :
     Beginner:
     3:
     :
0000
0000
0000
0000
,
0000
0000
0000
0000
,
0000
0000
0000
0000
,
0000
0000
0000
0000
,
0000
0000
0000
0000
,
2000
0000
3000
0000
,
0010
0000
0010
0000
,
0002
0000
0003
0000
,
0010
0000
0010
0000
,
0001
0000
0001
0000
,
0010
0010
0010
0000
,
1000
0000
1000
0000
,
0010
0010
0010
0000
,
0001
0001
0001
0000
,
0010
0010
0010
0000
,
1000
1000
1000
0000
,
0010
0010
0010
0000
,
0001
0000
0001
0000
,
0002
0000
0003
0000
,
0010
0000
0010
0000
,
0020
0000
0030
0000
,
0001
0000
0001
0000
,
0002
0000
0003
0000
,
0020
0000
0030
0000
,
0200
0000
0300
0000
,
1000
1000
1000
0000
,
0010
0010
0010
0000
,
1000
0000
0100
0000
,
1000
0000
0010
0000
,
1000
1000
1000
0000
,
0010
0010
0010
0000
,
0020
0000
0030
0000
,
0200
0000
0300
0000
,
1001
0000
0000
0000
,
0110
0000
0000
0000
,
1001
0000
0000
0000
,
0110
0000
0000
0000
,
0002
0000
0003
0000
,
2000
0000
3000
0000
,
1000
1000
0010
0000
,
0002
0000
0003
0000
,
0001
0000
0001
0000
,
0010
0010
0010
0000
,
0001
0000
0001
0000
,
0100
0100
0100
0000
,
0010
0010
0010
0000
,
0001
0010
0001
0000
,
1001
0000
0000
0000
,
0110
0000
0000
0000
,
1000
0000
1000
0000
,
0010
0010
0010
0000
,
1000
0000
1000
0000
,
0100
0100
0100
0000
,
0010
0010
0010
0000
,
1000
0010
1000
0000
,
1001
0000
0000
0000
,
0110
0000
0000
0000
,
1001
0000
0000
0000
,
0000
0000
0000
0000
,
1000
0000
1000
0000
,
0010
0010
0010
0000
,
0001
0001
0001
0000
,
0010
0010
0010
0000
,
1000
1000
1000
0000
,
0010
0010
0100
0010
,
0000
0000
0000
0000
;
#NOTES:
     dance-single:
     :
     Easy:
     5:
     :
0000
0000
0000
0000
,
0000
0000
0000
0000
,
0000
0000
0000
0000
,
0000
0000
0000
0000
,
0000
0000
0000
0000
,
1000
0100
0001
0100
,
1000
0010
0001
0010
,
1000
0100
0010
0001
,
1000
0001
1001
0000
,
0001
0100
1000
0100
,
0001
0010
1000
0010
,
0001
1000
0100
0010
,
0001
0010
0110
0000
,
1000
0100
0001
0100
,
1000
0010
0001
0010
,
1000
0100
0010
0001
,
1000
0001
1001
0000
,
0001
0010
0001
1000
,
0100
0010
0002
0000
,
1003
0010
0100
0001
,
0010
0100
2000
0000
,
3001
0010
0001
1000
,
0010
1000
0001
0100
,
0002
0000
0013
0000
,
2000
0000
3010
0000
,
0001
1000
0100
1000
,
0001
0010
0001
0000
,
0001
0100
1000
0010
,
0001
0100
1000
0000
,
0100
0010
0100
0010
,
1001
0000
0110
0000
,
2000
0000
3010
0000
,
0002
0000
0013
0000
,
0011
0000
0000
0000
,
0110
0000
0000
0000
,
1100
0000
0000
0000
,
1001
0000
0000
0000
,
0001
0001
0100
0100
,
0010
0010
1000
1000
,
1001
1001
0110
0110
,
1001
0000
1001
0000
,
0001
1000
0100
0010
,
0002
0000
1003
0000
,
1000
0010
0100
0001
,
2000
0000
3001
0000
,
0001
0010
0100
1000
,
0200
0000
0310
0000
,
1000
1000
0001
0001
,
0100
0010
0110
0000
,
1000
0001
0100
0010
,
2000
0000
3001
0000
,
0001
0010
0100
1000
,
0002
0000
1003
0000
,
1000
0010
0100
0001
,
0200
0000
0310
0000
,
0001
0001
1000
1000
,
0100
0010
0110
0000
,
0001
0100
1000
0100
,
0001
0010
1000
0010
,
0001
1000
0100
0010
,
0001
0010
0110
0000
,
1000
0100
0001
0100
,
1000
0010
0001
0010
,
1000
0100
0010
0001
,
1000
0001
0110
1001
,
0000
0000
0000
0000
;
#NOTES:
     dance-single:
     :
     Medium:
     7:
     :
0000
0000
0000
0000
,
0000
0000
0000
0000
,
0000
0000
0000
0000
,
0000
0000
0000
0000
,
0000
0000
0000
0000
,
1000
0000
0100
0000
0010
0001
1000
0000
,
0001
0000
0100
0000
0010
1000
0001
0000
,
1000
0000
0001
0000
0010
0001
0010
0000
,
0100
1000
0100
0000
1001
0000
0000
0000
,
1000
0000
0100
0000
0010
0001
0010
0000
,
0001
0000
0100
0000
0010
1000
0010
0000
,
0100
0000
0001
0000
1000
0001
1000
0000
,
0001
0101
1000
1010
,
0001
0000
0010
0000
0100
1000
0001
0000
,
1000
0000
0010
0000
0100
0001
1000
0000
,
0001
0000
1000
0000
0100
0010
0100
0000
,
1000
0001
1000
0000
1001
0000
0000
0000
,
1000
1000
1000
1000
,
0001
0000
0001
0000
0010
0100
0010
0000
,
0100
0100
0100
0100
,
0010
0000
0010
0000
0001
1000
0001
0000
,
0100
0100
0100
0100
,
0010
0000
0010
0000
1000
0001
1000
0000
,
0002
1000
0013
0000
,
2000
0001
3010
0000
,
0001
0010
0100
0000
1000
0000
1000
0000
,
0010
1000
0001
0000
0100
0000
0100
0000
,
0001
0100
0001
0000
1000
0010
1000
0000
,
0001
0010
0001
0000
1000
0100
1000
0000
,
0100
0010
0110
1001
,
0010
0100
1001
0110
,
2000
0100
3001
0000
,
0002
0100
1003
0000
,
0020
0000
0000
0130
,
0200
0000
0000
0301
,
0002
0000
0000
1003
,
2000
0000
0000
3100
,
0010
0000
0010
0000
0001
1000
0001
0000
,
0100
0000
0100
0000
0010
1000
0010
0000
,
0100
0110
1001
1001
,
0000
0100
0100
0000
1001
0000
0110
0000
,
0001
0000
0010
0100
0000
1000
0001
1000
,
0000
0000
0001
0100
,
0010
0000
1000
0010
0000
0100
0001
0100
,
0000
0000
0000
0100
0010
0000
1000
0000
,
0001
0000
0010
0100
0000
1000
0001
1000
,
0000
0000
0000
1000
0100
0000
0010
0000
,
0001
0011
1000
1010
,
0001
0101
1000
1010
,
1000
0000
0010
0100
0000
0001
1000
0001
,
0000
0000
1000
0100
,
0010
0000
0001
0010
0000
0100
1000
0100
,
0000
0000
0000
0100
0010
0000
0001
0000
,
1000
0000
0010
0100
0000
0001
1000
0001
,
0000
0000
0000
0001
0100
0000
0010
0000
,
1000
1010
0001
0011
,
1000
1100
0001
0101
,
2002
0000
0000
0000
,
3003
0000
0000
0000
,
0100
0000
0001
0000
1000
0001
1000
0000
,
0001
0101
1000
1010
,
0001
0000
0010
0000
0100
1000
0001
0000
,
1000
0000
0010
0000
0100
0001
1000
0000
,
0001
0000
1000
0000
0100
0010
0100
0000
,
1000
0001
1000
0000
0110
0000
1001
0000
,
0000
0000
0000
0000
;
#NOTES:
     dance-single:
     :
     Hard:
     11:
     :
0000
0000
0000
0000
,
0000
0000
0000
0000
,
0000
0000
0000
0000
,
0000
0000
0000
0000
,
0000
0000
0000
0000
,
0001
1000
0010
0100
0000
0001
1000
0100
,
0000
0010
0001
1000
0000
1100
0000
0110
,
0000
0001
1000
0100
0000
0010
0001
1000
,
0010
0100
0001
0100
0010
1000
0001
1000
,
0000
0100
1000
0001
0000
0100
0010
1000
,
0000
0001
0100
0010
0000
0110
0000
1010
,
0000
0001
0010
0100
0000
1000
0001
0010
,
0000
0100
1000
0100
0010
0001
1000
0001
,
0000
1000
0100
0010
0000
0001
1000
0010
,
0000
0100
0001
1000
0000
1010
0000
0110
,
0000
0001
1000
0010
0000
0100
0001
1000
,
0100
0010
0001
0010
0100
1000
0001
1000
,
0001
0001
0100
0100
,
0010
0000
0010
0000
1000
0010
0100
0001
,
0010
0010
0100
0100
,
1000
0000
1000
0000
0001
0010
0100
1000
,
0100
0100
0010
0010
,
0001
0000
0001
0000
1000
0001
0010
0100
,
2000
0000
0000
0001
3001
0000
0000
0000
,
0200
0000
0000
0010
0310
0000
0000
0000
,
1000
0001
1000
0100
0010
0001
0000
1000
,
0001
1000
0010
0100
0010
1000
0000
0001
,
0010
0100
1000
0100
0010
0001
0010
0100
,
1000
0001
1000
0010
0100
0001
1000
0000
,
0001
0100
0010
1000
0010
0100
0001
0100
,
0010
1000
0100
0010
0001
0010
0000
0000
,
0200
0000
0000
1000
2300
0000
0001
0000
,
3002
0000
0000
0100
0103
0000
0000
0000
,
0220
0000
0330
0000
,
2002
0000
3003
0000
,
0220
0000
0330
0000
,
2002
0000
3003
1000
,
0200
0000
0010
0000
0010
0000
0310
0001
,
2000
0001
3001
1001
,
0101
1010
1100
0011
,
0000
0110
0110
0000
1001
0000
0110
0000
,
0001
0100
0010
1000
0001
0100
0010
1000
,
0001
0010
0100
1000
0001
0010
0100
1000
,
0001
0100
1000
0100
0001
0100
1000
0100
,
0001
0010
1000
0010
0001
0010
1000
0010
,
0100
0010
0100
0010
0001
1000
0001
1000
,
0010
0100
0010
0100
0001
1000
0100
0010
,
0001
0010
0100
1000
0100
0010
0001
0010
,
0100
1000
0010
0100
0001
0010
0100
0000
,
1000
0100
0010
0001
1000
0100
0010
0001
,
1000
0010
0100
0001
1000
0010
0100
0001
,
1000
0100
0001
0100
1000
0100
0001
0100
,
1000
0010
0001
0010
1000
0010
0001
0010
,
0100
0010
0100
0010
1000
0001
1000
0001
,
0010
0100
0010
0100
1000
0001
0100
0010
,
1000
0010
0100
0001
0100
0010
1000
0010
,
0100
0001
0010
0100
1000
0010
0100
0000
,
0010
0100
0001
1000
0000
0100
0010
0001
,
0000
1000
0100
0010
0000
0110
0000
0011
,
0000
1000
0010
0100
0000
0001
1000
0010
,
0000
0100
0001
0100
0010
1000
0001
1000
,
0000
0001
0100
0010
0000
1000
0001
0010
,
0000
0100
1000
0001
0000
0011
0000
0110
,
0000
1000
0001
0010
0000
0100
1000
0001
,
0100
0010
1000
0010
0100
0001
1000
0001
,
0000
0000
0000
0000
;
#NOTES:
     dance-double:
     :
     Easy:
     5:
     :
00000000
00000000
00000000
00000000
,
00000000
00000000
00000000
00000000
,
00000000
00000000
00000000
00000000
,
00000000
00000000
00000000
00000000
,
00000000
00000000
00000000
00000000
,
10000000
01000000
00010000
01000000
,
00100000
00001000
00010000
00001000
,
00000010
00000001
00000010
00000100
,
00001000
00000001
00001001
00000000
,
00000001
00000100
00001000
00000100
,
00000010
00010000
00001000
00010000
,
00100000
10000000
00010000
10000000
,
01000000
00100000
01100000
00000000
,
10000000
00100000
00010000
00100000
,
01000000
00001000
00010000
00001000
,
00000100
00000001
00000100
00000010
,
00001000
00000001
00001001
00000000
,
00000001
00000001
00000001
00000000
,
00000010
00000100
00001000
00000100
,
00010000
00010000
00010000
00000000
,
00001000
00010000
00100000
01000000
,
00010000
00010000
00010000
00000000
,
10000000
01000000
00100000
00010000
,
00200000
00000000
00301000
00000000
,
00002000
00000000
00013000
00000000
,
00010000
00001000
00000010
00000001
,
00001000
00000100
00000010
00000000
,
00000001
00000100
00001000
00010000
,
00001000
00010000
00100000
00000000
,
10000000
00100000
01000000
00010000
,
00100000
00001000
00010000
00000000
,
00002000
00000000
00003010
00000000
,
00000002
00000000
00000013
00000000
,
00000011
00000000
00000000
00000000
,
00000110
00000000
00000000
00000000
,
00001100
00000000
00000000
00000000
,
00001001
00000000
00000000
00000000
,
00000001
00000001
00000100
00000100
,
00001000
00001000
00010000
00010000
,
00011000
00011000
00110000
00110000
,
01100000
00000000
10010000
00000000
,
00010000
10000000
01000000
00010000
,
00002000
00000000
00013000
00000000
,
00010000
00001000
00000010
00000001
,
00002000
00000000
00003001
00000000
,
00000001
00000100
00001000
00010000
,
00200000
00000000
01300000
00000000
,
10000000
10000000
00100000
00010000
,
00001000
00000100
00000001
00000000
,
00001000
00000001
00000100
00001000
,
00020000
00000000
00031000
00000000
,
00001000
00010000
00100000
10000000
,
00020000
00000000
10030000
00000000
,
10000000
01000000
00010000
00001000
,
00000020
00000000
00000130
00000000
,
00000001
00000001
00000010
00001000
,
00010000
01000000
10000000
00000000
,
10000000
01000000
00010000
01000000
,
00100000
00001000
00010000
00001000
,
00000010
00000001
00001000
00000001
,
00000100
00000010
00000110
00000000
,
00000001
00000010
00001000
00000010
,
00000100
00010000
00001000
00010000
,
01000000
10000000
01000000
00100000
,
00010000
00100000
01000000
10010000
,
00000000
00000000
00000000
00000000
;
#NOTES:
     dance-double:
     :
     Medium:
     8:
     :
00000000
00000000
00000000
00000000
,
00000000
00000000
00000000
00000000
,
00000000
00000000
00000000
00000000
,
00000000
00000000
00000000
00000000
,
00000000
00000000
00000000
00000000
,
10000000
00000000
00100000
00000000
01000000
00010000
01000000
00000000
,
00010000
00000000
00100000
00000000
00001000
00010000
00001000
00000000
,
00010000
00000000
00001000
00000000
00000010
00000001
00000010
00000000
,
00000100
00001000
00000100
00000000
00001001
00000000
00000000
00000000
,
00001000
00000000
00000100
00000000
00000010
00000001
00000010
00000000
,
00001000
00000000
00010000
00000000
00001000
00010000
00001000
00000000
,
00010000
00000000
00100000
00000000
10000000
00100000
10000000
00000000
,
00100000
00010000
00001000
00000100
,
00000001
00000000
00000010
00000000
00000100
00001000
00000100
00000000
,
00001000
00000000
00000010
00000000
00010000
00001000
00010000
00000000
,
00001000
00000000
00010000
00000000
00100000
10000000
00100000
00000000
,
01000000
00010000
01000000
00000000
10010000
00000000
00000000
00000000
,
10000000
10000000
10000000
10000000
,
00010000
00000000
00010000
00000000
00100000
01000000
00100000
00000000
,
01000000
01000000
01000000
01000000
,
00010000
00000000
00010000
00000000
00001000
00010000
00001000
00000000
,
00000100
00000100
00000100
00000100
,
00000010
00000000
00000010
00000000
00001000
00000001
00001000
00000000
,
00000002
00000000
00000013
00000000
,
00002000
00000000
00003010
00000000
,
00000001
00000010
00000001
00000000
00000100
00000000
00000100
00000000
,
00000001
00000010
00001000
00000000
00010000
00000000
00010000
00000000
,
01000000
00100000
01000000
00000000
10000000
00010000
10000000
00000000
,
00100000
01000000
00100000
00000000
10000000
00010000
10000000
00000000
,
02000000
03010000
00020000
00031000
,
00001000
00000010
00000001
00000000
00000010
00000000
00000100
00000000
,
00002000
00000000
00003100
00000000
,
00000002
00000000
00000103
00000000
,
00000020
00000000
00000000
00000130
,
00000200
00000000
00000000
00001300
,
00002000
00000000
00000000
00013000
,
00020000
00000000
00000000
00130000
,
01000000
00000000
01000000
00000000
00010000
10000000
01000000
00000000
,
00100000
00000000
00100000
00000000
00001000
00010000
00001000
00000000
,
00000100
00000110
00000001
00001001
,
00000000
00001000
00000001
00000000
00001001
00000000
00000110
00000000
,
00000001
00000000
00000100
00001000
00000000
00010000
00001000
00010000
,
00000000
00000000
00100000
10000000
,
00010000
00000000
00100000
01000000
00000000
10000000
00010000
10000000
,
00000000
00000000
00000000
10000000
01000000
00000000
00100000
00000000
,
00010000
00000000
00100000
00001000
00000000
00010000
00001000
00010000
,
00000000
00000000
00000000
00010000
00001000
00000000
00000100
00000000
,
00000001
00000100
00000010
00001000
,
00010000
01000000
00100000
10000000
,
10000000
00000000
01000000
00010000
00000000
00001000
00010000
00001000
,
00000000
00000000
00000010
00000001
,
00001000
00000000
00000010
00000100
00000000
00000001
00000000
00001000
,
00000000
00000000
00000000
00000001
00000100
00000000
00000010
00000000
,
00001000
00000000
00000010
00010000
00000000
00001000
00010000
00001000
,
00000000
00000000
00000000
00001000
00010000
00000000
01000000
00000000
,
10000000
01000000
00100000
00010000
,
00001000
00000100
00000010
00000001
,
00001000
00000000
00000100
00000000
00000010
00000001
00000010
00000000
,
00001000
00000000
00010000
00000000
00001000
00010000
00001000
00000000
,
00010000
00000000
00100000
00000000
10000000
00100000
10000000
00000000
,
00100000
00010000
00001000
00000100
,
00000001
00000000
00000010
00000000
00000100
00001000
00000100
00000000
,
00001000
00000000
00000010
00000000
00010000
00001000
00010000
00000000
,
00001000
00000000
00010000
00000000
00100000
10000000
00100000
00000000
,
01000000
00010000
01000000
00000000
01100000
00000000
10010000
00000000
,
00000000
00000000
00000000
00000000
;
#NOTES:
     dance-double:
     :
     Hard:
     11:
     :
00000000
00000000
00000000
00000000
,
00000000
00000000
00000000
00000000
,
00000000
00000000
00000000
00000000
,
00000000
00000000
00000000
00000000
,
00000000
00000000
00000000
00000000
,
00010000
00001000
00100000
00000000
00010000
10000000
01000000
00000000
,
00100000
00010000
01000000
00000000
00100000
10000000
01000000
00000000
,
00010000
00001000
00100000
00000000
00010000
00001000
00000100
00000000
,
00000010
00000001
00000010
00000100
00001000
00000100
00000010
00000000
,
00000001
00000100
00000010
00000000
00001000
00000100
00010000
00000000
,
00001000
00100000
00010000
00000000
10000000
00010000
01000000
00000000
,
00100000
10000000
01000000
00000000
00100000
00010000
01000000
00000000
,
10000000
01000000
00010000
00000000
00100000
00001000
00010000
00000000
,
00001000
00010000
00000010
00000000
00001000
00000001
00000100
00000000
,
00000010
00001000
00000100
00000000
00000010
00000001
00000100
00000000
,
00001000
00010000
00000010
00000000
00001000
00010000
01000000
00000000
,
00100000
10000000
00100000
01000000
00010000
01000000
00100000
00000000
,
10000000
10000000
01000000
01000000
,
00100000
00000000
00100000
00000000
00010000
00100000
00010000
00001000
,
00010000
00010000
00001000
00001000
,
00000100
00000000
00000100
00000000
00000010
00000001
00000010
00000100
,
00001000
00001000
00000001
00000001
,
00000100
00000000
00000100
00000000
00000010
00001000
00000100
00010000
,
00002000
00100000
00203000
00010000
,
00320000
10000000
20030000
00100000
,
30010000
10000000
00010000
10000000
01000000
00100000
00000000
00001000
,
00010000
00001000
00000100
00000010
00000100
00001000
00000000
00000100
,
00000001
00000010
00000100
00001000
00000100
00000010
00000001
00000010
,
00000100
00001000
00000100
00010000
00001000
00010000
00001000
00000000
,
00010000
00100000
01000000
10000000
01000000
00100000
00010000
00100000
,
01000000
00010000
00100000
01000000
00100000
00010000
00000000
00000000
,
00002000
00000100
00003002
00000100
,
00002003
00000010
00003001
00000000
,
00000220
00000000
00000330
00000000
,
00022000
00000000
00033000
00000000
,
02200000
00000000
03300000
00000000
,
20020000
00000000
30030000
10000000
,
02000000
00000000
00000000
00010000
03010000
00000000
00001000
00000000
,
00020000
00000000
00000000
00001000
00031000
00000000
00000010
00000000
,
00000100
00000100
00000010
00000010
,
00000000
00000110
00000110
00000000
00001001
00000000
00000110
00000000
,
00000001
00000100
00001000
00000100
00000001
00000100
00001000
00000100
,
00000010
00010000
00001000
00010000
00000010
00010000
00001000
00010000
,
01000000
00010000
00001000
00010000
01000000
00010000
00001000
00010000
,
01000000
10000000
01000000
00010000
01000000
10000000
01000000
00010000
,
01000000
00100000
01000000
00100000
00010000
00100000
00010000
00100000
,
00001000
00010000
00001000
00010000
00001000
00000100
00001000
00000100
,
00000010
00000100
00001000
00000100
00000010
00000001
00000010
00000100
,
00001000
00010000
00001000
00000100
00000010
00000100
00001000
00010000
,
00001000
00000100
00001000
00010000
00001000
00000100
00001000
00010000
,
00100000
00010000
00001000
00010000
00100000
00010000
00001000
00010000
,
01000000
00010000
00001000
00010000
01000000
00010000
00001000
00010000
,
01000000
10000000
01000000
00010000
01000000
10000000
01000000
00010000
,
01000000
00100000
01000000
00100000
00010000
00100000
00010000
00100000
,
00001000
00010000
00001000
00010000
00000010
00001000
00000010
00001000
,
00000001
00000100
00000001
00000100
00000010
00001000
00010000
01000000
,
00100000
10000000
00100000
10000000
01000000
00010000
00001000
00010000
,
01000000
10000000
01000000
00100000
00010000
00100000
00001000
00010000
,
00001000
00000100
00000010
00001000
00000001
00000010
00000100
00001000
,
00000001
00000010
00000100
00000010
00000001
00000100
00001000
00010000
,
00001000
00000010
00001000
00010000
01000000
00100000
00010000
00100000
,
01000000
10000000
00010000
01000000
00100000
00010000
00001000
00010000
,
01000000
00010000
00001000
00000100
00000001
00000100
00000010
00001000
,
00000001
00000010
00000100
00001000
00010000
00100000
01000000
10000000
,
01000000
00100000
00001000
00010000
00001000
00000100
00000010
00000001
,
00000000
00000000
00000000
00000000
;
