
//----- song ID: anni -----//
#TITLE:ANNIVERSARY ∴∵∴ ←↓↑→;
#ARTIST:BEMANI Sound Team "U1 overground";
#BANNER:ANNIVERSARY.png;
#BACKGROUND:ANNIVERSARY-bg.png;
#CDTITLE:./CDTitles/DDR A.png;
#MUSIC:ANNIVERSARY.ogg;
#SAMPLESTART:97.33;
#SAMPLELENGTH:15;
#BPMS:0=180;
#NOTES:
     dance-single:
     :
     Beginner:
     4:
     :
0000
0000
0000
0000
,
0000
0000
0000
0000
,
0000
0000
0000
0000
,
0000
0000
0000
0000
,
0000
0000
0000
0000
,
0001
0000
0000
0000
,
1000
0000
0000
0000
,
0001
0000
0000
0000
,
0000
0000
0000
0000
,
0020
0000
0030
0000
,
2000
0000
3000
0000
,
0002
0000
0003
0000
,
0000
0000
0000
0000
,
0200
0000
0300
0000
,
0002
0000
0003
0000
,
2000
0000
3000
0000
,
0001
0001
0001
0001
,
0001
0000
0000
0000
,
1000
0000
0010
0000
,
1000
0000
0000
0000
,
0001
0000
0010
0000
,
0100
0000
0000
0000
,
1000
0000
0001
0000
,
0100
0000
0000
0000
,
0001
0000
1000
0000
,
0001
0000
0010
0000
,
0100
0000
1000
0000
,
0001
0000
0100
0000
,
0010
0000
0000
0000
,
1000
0000
0010
0000
,
0100
0000
0001
0000
,
1000
0000
0100
0000
,
0010
0000
0000
0000
,
0010
0000
0010
0000
,
0100
0000
0100
0000
,
0001
0000
1000
0000
,
0001
0000
0001
0000
,
1000
0000
1000
0000
,
0001
0000
0001
0000
,
0010
0000
0010
0000
,
1000
0000
0001
0000
,
0000
0000
0010
0000
,
0100
0000
0100
0000
,
0010
0010
0000
0100
,
0000
0001
0000
1001
,
0000
0000
0010
0000
,
0001
0000
0001
0000
,
0010
0010
0000
0001
,
0000
1000
0000
0100
,
0200
0000
0300
0000
,
1000
1000
1000
0000
,
0020
0000
0030
0000
,
0001
0001
0001
0000
,
1000
0000
0100
0000
,
0010
0000
0001
0000
,
0001
0000
0100
0000
,
0010
0000
1000
0000
,
0001
0000
0000
0000
,
1000
0000
0000
0000
,
1001
0000
0000
0000
,
1001
0000
0000
0000
,
1000
0000
1000
0000
,
0001
0000
0001
0000
,
0010
0000
0010
0000
,
0100
0000
0100
0000
,
2000
0000
3000
0000
,
0020
0000
0030
0000
,
0002
0000
0003
0000
,
0200
0000
0300
0000
,
2000
0000
3000
0000
,
0002
0000
0003
0000
,
2000
0000
3000
0000
,
0010
0010
0010
0010
,
0010
0000
1000
0000
,
0001
0000
0100
0000
,
0010
0000
1000
0000
,
0100
0000
0010
0000
,
0001
0000
0001
0000
,
1000
0000
1000
0000
,
0001
0000
1000
0000
,
0002
0000
0003
0000
,
0010
0010
0010
0000
,
0001
0000
0100
0000
,
0010
0010
0010
0000
,
1000
0000
0100
0000
,
1000
0000
0010
0000
,
0001
0000
0010
0000
,
1000
0000
0001
0000
,
1000
0000
0001
0000
,
1001
0000
0000
0000
,
0000
0000
0000
0000
;
#NOTES:
     dance-single:
     :
     Easy:
     7:
     :
0000
0000
0000
0000
,
0000
0000
0000
0000
,
0000
0000
0000
0000
,
0000
0000
0000
0000
,
0000
0000
0000
0000
,
1000
0010
0010
0100
,
0001
0010
0010
0100
,
1000
0010
0100
0001
,
1000
0001
1000
0000
,
2002
0000
3003
0000
,
0010
1000
0100
0010
,
0001
0001
0000
0000
0000
0000
0000
0000
,
2000
0000
3002
0000
,
1003
0100
0001
0100
,
0010
0010
0010
0000
1000
0000
0001
0000
,
0010
0000
0100
0000
,
0010
0010
0010
0010
,
1000
0001
0010
0100
,
0010
0010
1000
1000
,
0010
0100
0010
1000
,
0100
0010
0100
0010
,
0001
1000
0010
0100
,
0010
0010
0001
0001
,
0010
0100
0010
0001
,
0100
0010
0100
0010
,
0100
0100
0001
0001
,
0010
0001
1000
0001
,
1000
0010
1000
0100
,
0010
0010
0220
0330
,
0100
0100
1000
1000
,
0001
0001
0100
0100
,
0010
1000
0100
0010
,
0001
0010
0001
0000
,
0010
0000
0010
0000
,
0100
0000
0100
0000
,
0001
0000
1000
0000
,
0001
0000
0001
0000
,
1000
0000
1000
0000
,
0001
0000
0001
0000
,
0010
0000
0010
0000
,
1000
0000
0001
0000
,
0010
0000
0010
0000
,
0100
0000
0100
0000
,
0010
0010
0100
0100
,
0001
0001
1000
1001
,
0010
0000
0010
0000
,
0001
0000
0001
0000
,
0010
0010
0001
0001
,
1000
1000
0100
0100
,
1000
0100
1000
0100
,
1000
0100
0001
0010
,
0001
0100
0001
0010
,
0001
0001
0100
0010
,
0100
0001
0100
1000
,
0100
0001
0100
1000
,
1000
0010
0100
0001
,
1000
0100
0010
0001
,
2000
0000
0000
3000
,
0002
0000
0000
0003
,
0000
0010
0000
0010
0000
0010
0000
0000
,
0010
0010
0000
0000
0000
0000
0000
0000
,
1000
0010
1000
0010
,
0100
0001
0100
0001
,
1000
0100
0010
0001
,
1000
0000
0001
0000
1000
1000
0000
0000
,
0020
0000
0000
0030
,
0200
0000
0000
0300
,
0002
0003
2000
3000
,
0200
0300
0020
0030
,
0001
0000
0001
0000
,
1000
0000
1000
0000
,
0100
0000
0100
0000
,
0010
0010
0010
0010
,
0100
0010
0100
1000
,
0010
0001
0100
1000
,
1000
0010
1000
0010
,
0100
0010
1000
0100
,
0001
0010
0001
0100
,
0001
0100
0010
1000
,
0001
0010
1000
0010
,
0001
0000
0001
0000
0100
0100
0000
0000
,
0010
1000
0010
0000
1000
0000
0100
0000
,
0010
0001
1000
0010
,
0001
0100
0001
0010
,
0100
1000
0010
1000
,
0001
0010
1000
0010
,
0001
0100
1000
0100
,
0001
1000
0100
0010
,
0001
0100
0010
1000
,
0110
0000
0000
0000
,
0000
0000
0000
0000
;
#NOTES:
     dance-single:
     :
     Medium:
     12:
     :
0000
0000
0000
0000
,
0000
0000
0000
0000
,
0000
0000
0000
0000
,
0000
0000
0000
0000
,
0000
0000
0000
0000
,
1000
0000
0100
1000
0100
0000
0010
0000
,
0001
0000
0100
0001
0100
0000
0010
0000
,
1000
0001
0100
0000
0010
1000
0001
0000
,
1000
1000
0010
1000
,
1002
0000
0013
0000
,
1000
0100
0010
0001
,
0110
0110
0000
0000
0000
0000
0000
0000
,
2000
0000
3002
0000
,
1003
0000
0010
1000
0001
0100
0010
0000
,
0100
0100
0100
0000
0020
0000
2030
0000
,
3100
0010
0002
0000
0103
0000
0001
1000
,
0001
0001
0001
0001
,
1100
0000
0001
0010
0100
1000
0010
0000
,
0100
0010
0100
0010
1000
0001
1000
0000
,
0100
0000
0010
0001
0100
0010
1000
0000
,
0010
1000
0100
0000
0010
0001
0100
0000
,
0101
0000
1000
0010
0100
0001
0010
0000
,
0100
0010
0100
0010
0001
1000
0001
0000
,
0100
0000
0010
1000
0100
0010
0001
0000
,
0010
0001
0100
0000
0010
1000
0100
0000
,
0010
0000
1001
0000
0001
0100
0001
0100
,
0001
0010
0100
1000
0001
0100
0001
0000
,
1000
0000
0110
0000
1000
0100
0010
0001
,
0100
0100
0220
0330
,
0010
1000
0010
0000
1000
0100
1000
0000
,
0001
0100
0001
0000
0010
0001
0010
0000
,
0100
1000
0001
0100
0010
1000
0100
0010
,
0001
0010
0100
1000
0001
0100
0010
0000
,
0010
0001
1000
1100
,
0010
1000
0001
0101
,
0010
0001
1000
1000
,
0010
0010
2200
3300
,
1000
0000
0001
0000
0110
1000
1000
0000
,
0010
0000
0100
0000
0110
0001
0001
0000
,
1000
0000
0001
0000
1001
0100
0100
0000
,
0010
0100
0010
0100
0220
0000
0330
0000
,
0010
0001
0010
0001
,
1000
0100
1000
0100
,
0010
0001
0100
0010
,
1000
0100
0100
1001
,
0100
1000
0100
1000
,
0001
0010
0001
0010
,
0100
1000
0010
0100
,
0001
0010
0010
1001
,
1000
0100
0010
0100
1000
0100
0010
0001
,
1000
0000
0010
1000
0001
1000
0100
1000
,
0001
0100
0010
1000
0001
0010
0100
1000
,
0001
0001
0010
0100
,
0010
0001
0100
0000
0010
1000
0100
0000
,
0010
0001
0100
0000
0010
1000
0100
0000
,
1000
0100
0010
0001
,
1000
0010
0100
0001
,
2000
0000
0000
0000
,
3200
0000
0000
0000
,
0300
1001
0000
0110
0000
1001
0000
0000
,
0100
0010
0000
0000
0000
0000
0000
0000
,
2000
0010
0001
3100
,
0002
0010
1000
0103
,
1000
0010
0001
0100
,
1000
0000
0010
0000
0001
0001
0000
0000
,
2000
0000
0000
0000
,
3020
0000
0000
0000
,
0230
0000
0302
0000
,
0023
0000
0230
0000
,
2300
0010
0001
3010
,
0002
0010
1000
0013
,
0001
0100
0010
0000
1000
0100
0010
0000
,
0100
0100
0100
0100
,
0010
0001
0100
0000
0010
1000
0001
0010
,
0100
1000
0100
0010
0001
0100
0010
0000
,
1000
0001
0100
0001
1000
0010
0100
0001
,
0010
0000
0100
1000
0001
1000
0010
1000
,
0001
0010
0100
0010
0001
0100
0010
1000
,
0010
0100
0001
1000
0010
0000
0010
1000
,
0001
0010
0100
1000
0001
0100
0010
1000
,
0001
1000
0001
1000
0010
0010
0000
0000
,
0001
0001
0010
0000
0001
0100
0010
1000
,
0010
0100
0001
0000
1000
0000
0100
0010
,
0001
1000
0010
0100
0001
1000
0100
0000
,
0010
0100
1000
0010
0100
0010
1000
0000
,
0001
0100
0001
0100
1000
0100
1000
0100
,
0001
0010
0001
0010
0001
1000
0001
1000
,
0001
0100
0010
1000
0001
0010
0100
1000
,
0001
0100
0010
1000
0100
0010
0001
0100
,
0010
0000
0000
0000
,
0000
0000
0000
0000
;
#NOTES:
     dance-single:
     :
     Hard:
     16:
     :
0000
0000
0000
0000
,
0000
0000
0000
0000
,
0000
0000
0000
0000
,
0000
0000
0000
0000
,
0000
0000
0000
0000
,
0001
0000
0010
0001
1000
0000
0010
1000
,
0010
0000
0100
0001
1000
0000
0100
1000
,
0100
0010
0100
0010
0100
0001
0100
1000
,
0001
0001
0100
0001
,
2001
0000
3100
0000
,
0010
0001
0010
0100
0010
0100
1000
0100
1000
0001
0000
0000
,
1000
0000
1000
0000
0010
0000
0100
0001
0100
0001
0100
0000
0020
0000
0000
0000
,
0100
0100
0100
0130
0001
0000
0010
0000
,
0001
0000
0000
0000
1000
0100
1000
0100
1000
0000
0100
0000
0010
0000
0001
0000
,
1000
0000
1000
0000
1000
0000
0000
0000
0010
0000
0000
0000
1000
0001
1000
0001
,
0100
0010
0200
0000
0310
0000
1000
0001
,
0011
1010
1100
0101
,
0011
0000
0000
0000
1000
0000
0100
0010
0001
0000
1000
0001
1000
0000
0010
0000
,
1000
0000
0001
0100
0010
0000
1000
0000
0001
0000
1000
0100
1000
0000
0001
0000
,
0100
0000
0000
0000
0010
0000
1000
0001
0100
0000
0010
1000
0010
0000
0100
0000
,
0001
0010
0001
0000
1000
0000
0001
0000
0100
0010
1000
0010
0100
0000
0000
0000
,
1010
0000
0000
0000
0001
0000
0100
0010
1000
0000
0001
1000
0001
0000
0010
0000
,
0001
0000
1000
0100
0010
0000
0001
0000
1000
0000
0001
0100
0001
0000
1000
0000
,
0100
0000
0000
0000
0010
0000
0001
1000
0100
0000
0010
0001
0010
0000
0100
0000
,
1000
0010
1000
0000
0001
0000
1000
0000
0100
0010
0001
0010
0100
0000
0000
0000
,
0010
0000
0000
0000
0001
0010
0001
0000
1000
0010
1000
0000
0001
0010
0001
0000
,
1000
0000
0100
0000
0010
0000
0001
0000
1000
0000
0010
0100
0010
0000
1000
0000
,
0001
0000
0000
0000
1000
0100
1000
0000
0001
0100
0001
0000
1000
0100
1000
0000
,
0020
0000
0100
0000
0130
2002
0000
3003
,
0010
0000
1000
0100
1000
0000
0100
0010
0100
0000
0010
0001
0010
0000
0001
0100
,
0001
0000
0100
0010
0100
0000
0010
1000
0010
0000
1000
0100
1000
0000
0100
0010
,
0100
0000
1000
0001
0100
0000
0010
1000
0001
0000
0010
0100
0010
0000
0001
1000
,
0010
0000
0100
0001
1000
0000
0100
0010
0100
0000
1000
0001
0010
0001
0010
0001
,
0010
1000
0100
1000
0001
0010
0100
0000
,
1000
0001
0010
0100
1000
0100
1001
0000
,
0010
0100
0001
1000
0100
0010
0001
1000
,
0010
0100
0001
1000
0220
0000
0330
0000
,
0001
1000
0100
0001
0100
0010
1000
0000
,
0010
0001
0100
1000
0010
0100
0011
0000
,
0100
1000
0010
0100
0001
0010
0100
1000
,
0010
1000
0001
0100
2002
0000
3003
0000
,
1000
0100
0000
0001
0100
0000
1001
0000
,
1000
0100
0000
0001
0100
0000
1001
0000
,
1000
0010
0000
0001
0010
0000
1001
0000
,
1000
0100
1000
0000
0101
0000
1001
0000
,
0001
0100
0000
1000
0100
0000
1001
0000
,
0001
0100
0000
1000
0100
0000
1001
0000
,
0001
0010
0000
1000
0010
0000
1001
0000
,
0001
0100
0001
0000
1100
0000
0110
0000
,
0001
0000
0010
0100
0010
0000
0100
0000
1000
0000
0010
0100
0010
0000
0100
0000
,
0001
0000
0010
0100
0010
0000
0100
0000
1000
0000
0100
0000
0010
0000
0001
0000
,
1000
0000
0010
1000
0010
1000
0010
1000
0010
0000
0100
0000
0010
0000
0100
0000
,
0001
0000
1000
0010
1000
0000
0001
0010
0001
0000
0100
0000
0010
0000
1000
0000
,
0001
0000
1000
0100
0010
0100
1000
0000
0001
0000
1000
0001
0010
0001
1000
0000
,
0010
0000
0100
0010
1000
0010
0100
0000
0001
0000
1000
0001
0010
0001
1000
0000
,
0001
1000
0001
0010
0001
0010
0100
0010
0100
1000
0100
1000
,
0001
0100
0010
1000
0100
0010
0001
0100
0010
1000
0100
0010
,
0002
0000
0000
0000
,
0023
0000
0000
0000
,
0030
1010
0000
0011
0000
1010
0000
0000
,
0010
0100
0000
0000
0000
0000
0000
0000
,
0001
0010
0100
1000
,
0001
0100
0010
1000
,
0001
0010
1000
0000
0001
0100
1000
0000
,
0001
0010
1000
0000
0001
0001
0000
0000
,
2000
0000
0000
0000
,
3020
0000
0000
0000
,
0230
0000
0302
0000
,
0023
0000
0230
0000
,
1300
0010
0001
0000
0010
0100
0001
0000
,
1000
0100
0001
0000
0100
0010
0001
0000
,
1000
0100
0010
0001
0100
0010
1000
0100
,
0010
0010
0010
0010
,
0001
1000
0001
1000
0010
0000
0000
0000
0100
0001
0100
0001
1000
0100
1000
0100
,
0010
0000
0001
0010
0001
0000
0010
0100
0010
0000
0100
1000
0100
0000
0000
0000
,
1000
0000
0001
0100
0001
0100
0010
0000
1000
0100
1000
0100
0010
0000
0001
0000
,
0100
0000
0000
0000
0001
0100
0001
0000
1000
0010
1000
0000
0001
0100
0001
0000
,
1000
0000
0100
0000
0010
0001
1000
0001
0010
0000
0100
0000
1000
0001
0100
0001
,
1000
0000
0010
0000
1000
0001
0010
0001
2000
0000
0000
0000
0001
0000
3001
0000
,
1000
0000
0100
0000
0010
0001
0010
0001
1000
0000
0001
0000
0100
0010
0100
0010
,
1000
0000
0001
0000
1000
0010
1000
0010
0100
0000
0110
0000
0000
0000
0000
0000
,
1001
0000
1001
0000
0110
0000
0000
0000
1000
0001
1000
0001
0100
0000
0010
0000
,
1000
0000
0001
0010
0001
0000
0010
0100
0010
0000
0100
0010
0100
0000
1000
0001
,
1000
0000
0010
0000
0100
0001
1000
0000
0010
0000
1000
0000
0001
0010
0100
0000
,
1000
0000
0100
0000
0010
0001
1000
0000
0100
0000
1000
0000
0001
0000
0000
0000
,
0010
0001
0010
0001
1000
0000
0001
0000
0100
0001
0100
0001
1000
0000
0001
0000
,
0010
0100
0010
0100
1000
0000
0001
0000
0100
0010
0100
0010
1000
0000
0001
0000
,
1000
0100
1000
0100
0010
0001
1000
0000
0001
0100
0001
0100
0010
1000
0001
0000
,
1000
0100
1000
0100
0010
0001
0010
0001
1000
0100
0010
0001
1000
0010
0100
0001
,
1000
0000
0000
0000
,
0000
0000
0000
0000
;
#NOTES:
     dance-double:
     :
     Easy:
     7:
     :
00000000
00000000
00000000
00000000
,
00000000
00000000
00000000
00000000
,
00000000
00000000
00000000
00000000
,
00000000
00000000
00000000
00000000
,
00000000
00000000
00000000
00000000
,
00001000
00010000
00100000
00100000
,
10000000
01000000
00010000
00010000
,
00001000
00000010
00001000
00010000
,
01000000
10000000
00010000
00000000
,
02200000
00000000
03300000
00000000
,
10000000
01000000
00010000
00001000
,
00010000
00010000
00000000
00000000
00000000
00000000
00000000
00000000
,
00002000
00000000
00003020
00000000
,
00000031
00000100
00000010
00000100
,
00000010
00000010
00000010
00000000
00010000
00000000
00001000
00000000
,
00100000
00000000
01000000
00000000
,
00100000
00100000
00100000
00100000
,
00010000
10000000
01000000
00010000
,
00001000
00000100
00000001
00000010
,
00001000
00000010
00000001
00000010
,
00001000
00000010
00000100
00000000
,
00000001
00000100
00001000
00010000
,
01000000
10000000
00100000
00010000
,
00100000
01000000
00100000
00001000
,
00010000
00001000
00010000
00000000
,
00000010
00000100
00001000
00010000
,
00100000
10000000
01000000
10000000
,
00100000
00010000
00001000
00000010
,
00000001
00001000
00002002
00003003
,
00000100
00000100
00001000
00001000
,
01000000
01000000
00100000
00100000
,
10000000
01000000
00100000
00010000
,
01000000
00100000
10000000
00000000
,
00100000
00000000
10000000
00000000
,
00010000
00000000
00001000
00000000
,
00000010
00000000
00000001
00000000
,
00001000
00000000
00010000
00000000
,
00100000
00000000
01000000
00000000
,
00010000
00000000
00001000
00000000
,
00000010
00000000
00000100
00000000
,
00010000
00000000
00011000
00000000
,
10000000
00000000
10000000
00000000
,
00010000
00000000
00010000
00000000
,
01000000
00000000
00001000
00000000
,
00010000
00000000
00000010
00000110
,
00000001
00000000
00000001
00000000
,
00001000
00000000
00001000
00000000
,
00000100
00000000
00010000
00000000
,
00001000
00000000
00010000
00001000
,
00010000
01000000
00010000
01000000
,
10000000
00100000
00010000
00001000
,
00100000
00010000
00001000
00000100
,
00000010
00000001
00001000
00000001
,
00000100
00001000
00010000
00001000
,
00000100
00001000
00010000
00001000
,
00010000
00100000
10000000
01000000
,
00100000
00010000
01000000
00001000
,
00020000
00000000
00000000
00030000
,
00002000
00000000
00000000
00003000
,
00000000
00100000
00000000
00100000
00000000
00100000
00000000
00000000
,
00010000
00010000
00000000
00000000
00000000
00000000
00000000
00000000
,
10000000
01000000
00010000
00001000
,
00000100
00000001
00001000
00000001
,
00000010
00001000
00010000
00100000
,
10000000
00000000
00010000
00000000
10000000
10000000
00000000
00000000
,
00200000
00000000
00000000
00300000
,
20000000
00000000
00000000
30000000
,
02000000
03000000
00020000
00030000
,
00002000
00003000
00000200
00000300
,
00000001
00000000
00000010
00000000
,
00001000
00000000
00010000
00000000
,
00100000
00000000
10000000
00000000
,
00100000
00100000
00100000
00100000
,
10000000
00100000
01000000
00010000
,
00100000
00001000
00010000
00000010
,
00000100
00000001
00001000
00000100
,
00000020
00000000
00000100
00000130
,
00000010
00000001
00000100
00001000
,
00010000
00100000
10000000
00000000
,
00010000
10000000
00100000
01000000
,
00100000
10000000
10010000
00000000
,
10000000
01000000
00010000
00001000
,
00000100
00000001
00001000
00001000
,
00000010
00001000
00000100
00000010
,
00000001
00000100
00001000
00010000
,
01000000
10000000
01000000
00010000
,
10000000
00100000
00010000
00100000
,
10000000
01000000
00010000
00001000
,
00010000
00001000
00000010
00000001
,
00001001
00000000
00000000
00000000
,
00000000
00000000
00000000
00000000
;
#NOTES:
     dance-double:
     :
     Medium:
     12:
     :
00000000
00000000
00000000
00000000
,
00000000
00000000
00000000
00000000
,
00000000
00000000
00000000
00000000
,
00000000
00000000
00000000
00000000
,
00000000
00000000
00000000
00000000
,
00010000
00000000
00100000
00010000
01000000
00000000
00100000
00000000
,
10000000
00000000
01000000
00100000
00010000
00000000
00100000
00000000
,
10000000
01000000
00010000
00000000
00001000
00000100
00000001
00000000
,
00001000
00000100
00000010
00000001
,
00000012
00000000
00001003
00000000
,
00000001
00000100
00001000
00010000
,
00001000
00001000
00000000
00000000
00000000
00000000
00000000
00000000
,
00020000
00000000
02030000
00000000
,
13000000
00000000
00100000
10000000
01000000
00100000
00010000
00000000
,
01000000
01000000
01000000
00000000
00001000
00000000
00010000
00000000
,
00000010
00001000
00000100
00000000
00010000
00000000
00001000
00000100
,
00000001
00000001
00000001
00000001
,
00000010
00000000
00000001
00000100
00000010
00010000
00001000
00000000
,
00100000
00010000
01000000
00001000
00010000
01000000
10000000
00000000
,
00100000
00000000
01000000
00010000
00100000
01000000
10000000
00000000
,
01000000
00010000
00001000
00000000
00000100
00000001
00001000
00000000
,
00000100
00000000
00000001
00000010
00000100
00010000
00001000
00000000
,
01000000
00010000
00100000
00001000
00010000
00100000
10000000
00000000
,
01000000
00000000
00100000
00010000
01000000
00100000
10000000
00000000
,
00100000
00010000
00001000
00000000
00000010
00000001
00001000
00000000
,
00000001
00000000
00000110
00000000
00000001
00000100
00000010
00010000
,
00001000
00010000
00001000
00100000
00010000
10000000
00100000
00000000
,
10000000
00000000
01100000
00000000
10000000
01000000
00100000
00001000
,
00010000
00001000
00022000
00033000
,
00001000
00000010
00000001
00000000
00001000
00000001
00001000
00000000
,
00000001
00000100
00001000
00000000
00010000
00001000
00010000
00000000
,
00001000
00010000
00100000
01000000
00100000
10000000
01000000
00100000
,
00010000
00100000
00001000
00010000
00001000
00000100
00000001
00000000
,
00000010
00000100
00000001
00000100
,
00001000
00000100
00010000
00001000
,
00100000
01000000
10000000
00100000
,
00010000
00001000
00002000
00003000
,
00000010
00000001
00000100
00000100
,
00001000
00010000
01000000
10000000
,
10000000
01000000
00100000
00001000
,
00010000
00000100
00000220
00000330
,
00000010
00001000
00000010
00001000
,
00100000
00010000
00100000
00010000
,
01000000
10000000
01000000
00010000
,
00001000
00000100
00000001
00001001
,
00000010
00001000
00000100
00010000
,
00001000
01000000
10000000
00100000
,
00010000
01000000
00100000
00010000
,
00001000
00000010
00000100
00000010
,
00000001
00000100
00000010
00000100
00000001
00000100
00001000
00010000
,
00100000
00000000
10000000
00010000
10000000
01000000
10000000
00010000
,
10000000
01000000
00100000
01000000
10000000
01000000
00010000
00001000
,
00000010
00000001
00000100
00000010
,
00000100
00001000
00010000
00000000
01000000
00010000
00001000
00000000
,
00000010
00001000
00010000
00000000
00100000
00010000
00001000
00000000
,
00010000
00100000
10000000
01000000
,
00010000
00001000
00000100
00000001
,
00002000
00000000
00000000
00003000
,
00000200
00000000
00000000
00000000
,
00000300
00001100
00000000
00011000
00000000
00110000
00000000
00000000
,
01000000
00100000
00000000
00000000
00000000
00000000
00000000
00000000
,
00002000
00010000
00203000
00010000
,
00302000
00010000
02003000
00010000
,
03100000
10000000
01000000
00010000
,
00001000
00000000
00000010
00000000
00000001
00000001
00000000
00000000
,
00002000
00000000
00000000
00003000
,
00000020
00000000
00000000
00000030
,
00020000
00030000
00200000
00300000
,
20000000
30000000
02000000
03000000
,
00200000
00010000
01000000
00310000
,
00002000
00010000
00100000
00013000
,
00001000
00000100
00000001
00000000
00001000
00000100
00000010
00000000
,
00000100
00000100
00000100
00000100
,
00000010
00000001
00000100
00000000
00000010
00000100
00000001
00000100
,
00001000
00010000
00100000
10000000
00010000
01000000
00100000
00000000
,
10000000
00010000
01000000
00000000
00100000
10000000
01000000
00100000
,
00010000
00000000
00100000
00001000
00010000
00000010
00001000
00000000
,
00000100
00000010
00000100
00000010
00000001
00000100
00000010
00001000
,
00000001
00000100
00001000
00010000
00001000
00000000
00010000
00000000
,
01000000
00100000
00010000
01000000
00100000
10000000
01000000
00100000
,
00001000
00010000
00000010
00001000
00000100
00000100
00000000
00000000
,
00000010
00000010
00000010
00000000
00000001
00001000
00000010
00000100
,
00000001
00000100
00001000
00000000
00010000
00000000
00100000
00000000
,
10000000
00010000
01000000
00010000
10000000
00010000
00100000
00000000
,
01000000
00010000
00001000
00000000
00000010
00000001
00001000
00000000
,
00000001
00000010
00000001
00000010
00000001
00000100
00000001
00000100
,
00001000
00010000
00001000
00010000
01000000
10000000
01000000
10000000
,
00010000
01000000
00100000
10000000
01000000
00100000
00010000
10000000
,
00010000
01000000
00001000
00010000
00000100
00001000
00000010
00000100
,
00000001
00000000
00000000
00000000
,
00000000
00000000
00000000
00000000
;
#NOTES:
     dance-double:
     :
     Hard:
     16:
     :
00000000
00000000
00000000
00000000
,
00000000
00000000
00000000
00000000
,
00000000
00000000
00000000
00000000
,
00000000
00000000
00000000
00000000
,
00000000
00000000
00000000
00000000
,
00000001
00000000
00000001
00000010
00000100
00000000
00000100
00010000
,
00001000
00000000
00001000
01000000
00100000
00000000
00100000
10000000
,
00100000
01000000
00100000
00010000
00001000
00000100
00000001
00001000
,
00000001
00000100
00001000
00000010
,
00001002
00000000
00000103
00000000
,
00000010
00001000
00000010
00010000
00001000
00010000
00001000
00100000
00001000
00010000
00000000
00000000
,
00100000
00000000
00100000
00000000
01000000
00000000
00100000
01000000
00100000
01000000
00100000
00000000
20000000
00000000
00000000
00000000
,
30010000
01000000
00100000
10000000
00010000
00000000
10000000
00000000
,
01000000
00000000
00000000
00000000
00010000
00001000
00010000
00001000
00010000
00000000
00001000
00000000
00000010
00000000
00000100
00000000
,
00001000
00000000
00001000
00000000
00001000
00000000
00000000
00000000
00000001
00000000
00000000
00000000
00000100
00000010
00000100
00000010
,
00001000
00000010
00000200
00000000
00001300
00000000
00010000
00001000
,
00001010
00011000
00110000
00011000
,
00001010
00000000
00000000
00000000
00000001
00000000
00000100
00000000
00000010
00000000
00001000
00000001
00001000
00000000
00000100
00000000
,
00010000
00000000
00001000
00010000
00001000
00000000
00100000
00000000
00010000
00000000
10000000
01000000
10000000
00000000
00010000
00000000
,
01000000
00000000
00000000
00000000
00100000
00000000
10000000
00000000
01000000
00000000
00100000
00010000
00100000
00000000
00001000
00000000
,
00010000
00001000
00010000
00000000
00000010
00000000
00001000
00000000
00000001
00001000
00000010
00001000
00000001
00000000
00000000
00000000
,
00001100
00000000
00000000
00000000
00000001
00000000
00000010
00000000
00000100
00000000
00001000
00000001
00001000
00000000
00000010
00000000
,
00010000
00000000
00001000
00010000
00001000
00000000
01000000
00000000
00010000
00000000
10000000
00100000
10000000
00000000
00010000
00000000
,
00100000
00000000
00000000
00000000
01000000
00000000
10000000
00000000
00100000
00000000
01000000
00010000
01000000
00000000
00001000
00000000
,
00010000
00001000
00010000
00000000
00000100
00000000
00001000
00000000
00000001
00001000
00000100
00001000
00000001
00000000
00000000
00000000
,
00000010
00000000
00000000
00000000
00000001
00000100
00000001
00000000
00001000
00000010
00001000
00000000
00000001
00000100
00000001
00000000
,
00000100
00000000
00001000
00000000
00010000
00000000
00100000
00000000
10000000
00000000
00100000
01000000
00100000
00000000
10000000
00000000
,
00010000
00000000
00000000
00000000
10000000
01000000
10000000
00000000
00010000
00100000
00010000
00000000
10000000
01000000
10000000
00000000
,
00100000
00000000
00010000
00000000
00001000
00022000
00000000
00033000
,
00001000
00000000
00000010
00000001
00000010
00000000
00000001
00000100
00000001
00000000
00000100
00001000
00000100
00000000
00001000
00010000
,
00001000
00000000
00010000
00100000
00010000
00000000
00100000
10000000
00100000
00000000
10000000
01000000
10000000
00000000
01000000
00010000
,
01000000
00000000
00010000
00001000
00010000
00000000
00001000
00000100
00001000
00000000
00000100
00000001
00000100
00000000
00000001
00000010
,
00000001
00000000
00000010
00001000
00000010
00000000
00001000
00010000
00001000
00000000
00010000
00001000
00010000
00001000
00010000
00001000
,
00100000
00010000
01000000
00000000
00100000
10000000
01000000
00000000
,
00010000
00001000
00000100
00000000
00001000
00000001
00000100
00000000
,
00000010
00000001
00000100
00001000
00000100
00010000
00001000
00100000
,
01000000
00010000
10000000
00010000
02200000
00000000
03300000
00000000
,
00010000
00001000
00010000
00000010
00000100
00000001
00001000
00000000
,
00000100
00010000
00001000
00100000
00010000
00001000
00010000
00000000
,
00000010
00001000
00000100
00000001
00000100
00001000
00010000
00001000
,
00100000
00010000
00001000
01000000
02020000
00000000
03030000
00000000
,
00100000
10000000
00000000
00010000
00000000
10000000
01000000
10000000
,
01000000
00100000
00000000
00001000
00000000
00010000
00000100
00001000
,
00000010
00010000
00000000
00001000
00000000
00000010
00000001
00001000
,
00000001
00000100
00000000
00001000
00010000
00000000
00011000
00000000
,
00000010
00000001
00000000
00001000
00000000
00000001
00000100
00000001
,
00000100
00000010
00000000
00010000
00000000
00001000
01000000
00010000
,
00100000
00001000
00000000
00010000
00000000
00100000
10000000
00010000
,
10000000
01000000
00000000
00010000
00001000
00000000
00010000
00000000
,
00001000
00000000
00000010
00001000
00000010
00000000
00001000
00000000
00010000
00000000
00100000
00010000
00100000
00000000
00010000
00000000
,
00001000
00000000
00000010
00001000
00000010
00000000
00000100
00000000
00000010
00000000
00000001
00000000
00000100
00000000
00000010
00000000
,
00001000
00000000
00010000
00001000
00010000
00001000
00010000
00001000
00010000
00000000
01000000
00000000
00100000
00000000
01000000
00000000
,
00100000
00000000
00000000
00100000
00010000
00000000
00000000
00010000
00001000
00000000
00000000
00001000
00000010
00000000
00000000
00000010
,
00000100
00000000
00000010
00000001
00000010
00000000
00000001
00000000
00000100
00000000
00000010
00000100
00000010
00000000
00000100
00000000
,
00001000
00000000
00010000
00001000
00010000
00000000
01000000
00000000
10000000
00000000
00100000
01000000
00100000
00000000
10000000
00000000
,
01000000
10000000
01000000
10000000
00100000
10000000
00100000
00010000
00100000
00010000
00001000
00010000
,
00001000
00000010
00001000
00000010
00000001
00000010
00000001
00000100
00000001
00000100
00001000
00000100
,
00002000
00000000
00000000
00000000
,
00023000
00000000
00000000
00000000
,
00030000
00001010
00000000
00011000
00000000
00110000
00000000
00000000
,
00100000
01000000
00000000
00000000
00000000
00000000
00000000
00000000
,
10000000
01000000
00010000
00001000
,
00000010
00000001
00001000
00000010
,
00000100
00001000
00010000
00000000
00100000
00010000
00001000
00000000
,
00010000
01000000
10000000
00000000
00010000
00010000
00000000
00000000
,
20000000
00000000
00000000
00000000
,
30020000
00000000
00000000
00000000
,
00032000
00000000
00003200
00000000
,
00000320
00000000
00000032
00000000
,
00000013
00000001
00000100
00000000
00000010
00001000
00000100
00000000
,
00000010
00001000
00010000
00000000
00100000
10000000
00010000
00000000
,
01000000
00100000
10000000
00010000
10000000
01000000
00010000
00001000
,
00010000
00010000
00010000
00010000
,
00001000
00000100
00001000
00000100
00000010
00000000
00000000
00000000
00001000
00000100
00001000
00000100
00000010
00000000
00000001
00000000
,
00000100
00000000
00000010
00001000
00000010
00000000
00010000
00001000
00010000
00000000
00000010
00001000
00000010
00000000
00000000
00000000
,
00000100
00000000
00001000
00010000
00001000
00010000
00001000
00000000
00010000
01000000
00010000
01000000
00100000
00000000
00010000
00000000
,
10000000
00000000
00000000
00000000
00100000
10000000
00100000
00000000
01000000
00010000
01000000
00000000
00100000
10000000
00100000
00000000
,
10000000
00000000
01000000
00000000
00010000
00001000
00010000
00000000
00001000
00000000
00000010
00000000
00000001
00001000
00000001
00000000
,
00000001
00000000
00000100
00000000
00001000
00010000
00001000
00000000
00010000
00000000
00000000
00000000
01000000
00000000
10000000
00000000
,
00010000
00000000
01000000
00000000
00100000
10000000
00100000
10000000
00010000
00000000
10000000
00000000
01000000
00100000
01000000
00100000
,
00010000
00000000
00001000
00000000
00000100
00000010
00000100
00000010
00000001
00000000
00000001
00000000
00000000
00000000
00000000
00000000
,
00001001
00000000
00001001
00000000
00000110
00000000
00000000
00000000
00000001
00000100
00000001
00000100
00000010
00000000
00000100
00000000
,
00001000
00000000
00010000
00001000
00010000
00000000
00100000
00010000
00100000
00000000
10000000
00100000
10000000
00000000
00010000
10000000
,
00010000
00000000
01000000
00000000
00100000
10000000
00010000
00000000
10000000
00000000
01000000
00000000
00100000
00010000
10000000
00000000
,
00010000
00000000
01000000
00000000
00100000
10000000
00010000
00000000
00100000
00000000
00001000
00000000
00010000
00000000
00000000
00000000
,
00001000
00000010
00001000
00000010
00000100
00000000
00000010
00000000
00000001
00000100
00000001
00000100
00000010
00000000
00000100
00000000
,
00001000
00010000
00001000
00010000
00001000
00000000
00010000
00000000
00100000
10000000
00100000
10000000
00010000
00000000
10000000
00000000
,
01000000
00100000
01000000
00100000
01000000
00100000
00010000
00000000
00001000
00000100
00001000
00000100
00001000
00000100
00000010
00000000
,
00000001
00000100
00000001
00000100
00000010
00001000
00000010
00001000
00000010
00010000
00000010
00010000
00001000
00010000
00001000
00010000
,
00001000
00000000
00000000
00000000
,
00000000
00000000
00000000
00000000
;
