
//----- song ID: algo -----//
#TITLE:ALGORITHM;
#ARTIST:SOUND HOLIC feat. Nana Takahashi;
#BANNER:ALGORITHM.png;
#BACKGROUND:ALGORITHM-bg.png;
#CDTITLE:./CDTitles/DDR A.png;
#MUSIC:ALGORITHM.ogg;
#SAMPLESTART:67.833;
#SAMPLELENGTH:15;
#BPMS:0=130;
#STOPS:218=0.231,218.5=0.231;
#STAGE:15;
#NOTES:
     dance-single:
     :
     Beginner:
     5:
     :
0000
0000
0000
0000
,
0000
0000
0000
0000
,
0000
0000
0000
0000
,
0000
0000
0000
0000
,
0000
0000
0000
1000
,
0010
0010
0000
0000
,
0000
0000
0000
0001
,
0010
0010
0001
0010
,
0001
0001
0001
0000
,
1000
1000
0010
0010
,
1000
0100
1000
0000
,
0001
0001
0010
0010
,
0001
0100
0001
0000
,
2000
0000
3000
0000
,
0002
0000
0003
0000
,
0001
0001
0010
0010
,
0001
0010
0100
0000
,
1000
1000
0010
0010
,
1000
0010
0100
0000
,
0001
0001
0100
0100
,
0010
0001
0100
0000
,
1000
1000
0100
0100
,
0010
1000
0100
0000
,
0001
0001
0010
0010
,
0002
0003
0001
0000
,
1000
1000
0010
0010
,
0200
0000
0000
0300
,
0000
0001
0001
0001
,
0010
0000
0010
0000
,
0000
1000
1000
1000
,
0010
0000
0010
0000
,
1001
0000
0000
0000
,
0000
0000
0000
0000
,
1001
0000
1001
0000
,
0110
0000
0110
0000
,
0002
0003
0020
0030
,
0001
0001
0001
0000
,
1000
1000
0010
1000
,
0100
1000
0010
1000
,
0010
0010
1000
0010
,
1000
0100
1000
0000
,
0001
0001
0010
0001
,
0100
0001
0010
0001
,
0010
0010
0001
0010
,
0001
0100
0001
0000
,
0001
0001
0001
0000
,
0010
0010
0010
0000
,
1000
1000
1000
0000
,
0010
0010
0010
0000
,
1001
0000
0110
0000
,
1001
0000
0000
0000
,
0001
0001
0010
0010
,
0001
0010
0100
0000
,
1000
1000
0010
0010
,
1000
0010
0100
0001
,
0001
0001
0001
0010
,
0010
0010
0000
1000
,
1000
0010
0010
1000
,
0100
1000
1001
0000
,
0000
0000
0000
0000
;
#NOTES:
     dance-single:
     :
     Easy:
     7:
     :
0000
0000
0000
0000
,
0000
0000
0000
0000
,
0000
0000
0000
0000
,
0000
0000
0000
0000
,
0000
0000
0000
1001
,
0010
0200
0000
0300
,
0000
0000
0000
1001
,
0010
0200
0310
0002
,
1003
0001
0100
0110
,
0001
1000
0100
0000
0010
0000
0001
0000
,
0101
0110
1001
0000
,
1000
0001
0100
0000
0010
0000
0100
0000
,
0110
1010
1001
0000
,
1000
0000
0100
0000
0010
0001
1000
0000
,
0010
0100
0002
1003
,
0001
0010
0100
0000
0010
0000
0001
0000
,
0101
0110
1001
0000
,
1000
0010
0100
0000
0001
0000
1000
0000
,
1100
0110
1001
0000
,
1000
0100
0010
0000
0001
0000
1000
0000
,
0011
0110
1001
0000
,
0001
0100
0010
0000
1000
0000
0001
0000
,
1010
0110
1001
0000
,
0101
0101
1010
1010
,
1000
0001
0010
0100
,
1100
1100
0011
0011
,
0002
2003
3020
0130
,
0000
0001
0100
0010
,
1000
0001
1000
0000
,
0000
1000
0100
0010
,
0001
1000
0010
0100
,
2002
0000
0000
0000
,
0000
0000
0000
3003
,
0000
0000
0000
0000
,
0000
0000
0000
0000
,
0101
0101
1010
1010
,
0001
1000
0001
1000
0001
0000
0000
0000
,
1000
0000
0010
0000
0100
0001
1000
0000
,
0001
0010
0100
1000
,
0001
0000
1000
0000
0010
0100
0001
0000
,
1000
0001
1001
0000
,
0001
0000
0010
0000
0100
1000
0001
0000
,
0010
0100
1000
0001
,
0100
0000
0010
0000
1000
0001
0100
0000
,
0010
0100
1001
0000
,
1001
1001
1100
1100
,
0001
0010
0100
1000
,
1001
1001
0101
0101
,
1000
0010
0100
0001
,
1001
0101
1001
1100
,
0002
0000
1003
0000
,
0001
0000
0010
0000
0100
1000
0100
0000
,
0010
0000
0001
0000
1000
0001
0100
0000
,
0010
0000
1000
0000
0001
1000
0100
0000
,
0010
0000
0001
0000
0110
1001
1000
0000
,
0100
0000
0010
0001
1000
0000
0010
0000
,
0010
0000
0100
0001
1000
0000
0010
0000
,
0110
1000
1001
0011
,
0110
1100
1001
0000
,
0000
0000
0000
0000
;
#NOTES:
     dance-single:
     :
     Medium:
     11:
     :
0000
0000
0000
0000
,
0000
0000
0000
0000
,
0000
0000
0000
0000
,
0000
0000
0000
0000
,
0000
0000
0000
0000
0000
0000
1000
0100
,
0010
0011
0000
0000
,
0000
0000
0000
0000
0000
0000
0001
0100
,
0010
2010
3001
0012
,
1003
0000
0001
1000
1001
0000
0110
0000
,
1000
0001
1000
0100
0010
0001
0010
0100
,
0001
0100
1000
0100
0001
0000
0000
0000
,
0100
1000
0001
0100
0010
0100
1000
0100
,
0001
0010
0100
1000
0001
0000
0000
0000
,
1100
1100
0110
0110
,
0001
0100
0010
1000
0100
0000
1001
0000
,
0001
0100
0001
0010
0100
1000
0100
0010
,
0001
0100
1000
0100
0001
0000
0000
0000
,
1000
0010
0100
0001
0010
0100
0001
0100
,
1000
0001
0010
1000
0010
0000
0000
0000
,
0001
0100
0010
1000
0001
0010
0100
1000
,
0100
0001
0100
1000
0001
0000
0000
0000
,
1000
0010
0100
0001
0010
1000
0010
0001
,
0100
1000
0100
0001
1000
0000
0000
0000
,
0011
0011
1100
1100
,
0001
0010
0100
0000
1000
0010
0100
0000
,
1010
1010
0101
0101
,
1000
0010
0100
0001
1000
0100
0010
0001
,
0000
0000
0001
0010
0100
0000
1000
0001
,
1000
0000
0010
1000
0001
0000
0010
0100
,
1000
0000
0001
0100
0010
0000
1000
0001
,
1000
0000
0100
0010
0001
0000
0110
0000
,
2002
0000
0000
0000
,
3003
0000
0000
0000
,
0010
0010
0100
0100
,
0001
0000
0001
0000
1000
0001
1000
0000
,
0001
0100
0001
0100
0010
1000
0010
1000
,
0001
0010
0100
0000
1001
0000
0110
0000
,
1000
0100
0001
0000
0100
1000
0001
1000
,
0010
0100
0001
0000
0010
0100
1000
0001
,
0100
0010
1000
0000
0001
0010
1000
0000
,
0010
0001
0010
0100
1000
0010
0100
0001
,
1000
0100
0001
0000
0100
1000
0100
0010
,
0001
0010
0100
0000
1000
0001
0100
0010
,
1000
0001
0010
0000
1000
0010
0001
0010
,
0100
1000
0100
0000
0110
0000
1001
0000
,
1000
0100
0001
1000
0010
0001
1000
0000
,
0001
0100
1000
0001
0010
1000
0001
0000
,
1000
0010
0001
1000
0100
0001
1000
0000
,
0001
0010
1000
0001
0100
1000
0001
1000
,
0200
0310
0002
1003
,
0110
0000
0000
0000
0001
1000
0001
0000
,
1000
0100
0001
0100
0010
0001
0010
1000
,
0001
0100
1000
0001
1000
0010
0001
0000
,
0001
0010
1000
0001
1000
0100
0001
0100
,
1000
0001
0010
0100
0110
1001
1000
0010
,
0100
0001
1000
0100
0010
0001
0010
0100
,
1000
0001
1000
0010
0100
0001
0100
0010
,
0110
0000
1001
0000
0110
0000
0001
0010
,
0100
1000
0010
0100
0001
1001
0000
0000
,
0000
0000
0000
0000
;
#NOTES:
     dance-single:
     :
     Hard:
     13:
     :
0000
0000
0000
0000
,
0000
0000
0000
0000
,
0000
0000
0000
0000
,
0000
0000
0000
0000
,
0000
0000
0000
0000
0000
0000
1000
0100
,
0020
0000
0000
0002
0000
0000
0000
0000
0000
0000
0000
0000
0000
0000
0000
0000
,
0033
0000
0000
0000
0000
0000
0001
0100
,
0020
0000
0000
0000
1030
0001
1000
0001
0020
0000
0000
0000
0130
1000
0100
1000
,
0001
0000
0020
0000
0031
1000
0001
1000
0010
0100
0000
0100
0001
0000
1000
0100
,
1000
0000
0100
0010
0000
0001
0010
0000
0100
0000
0100
1000
0000
1000
0100
0000
,
0010
0000
0001
1000
0000
0010
0100
0000
0002
0000
0000
0000
0003
0000
0000
0000
,
0010
0000
0001
0100
0000
1000
0100
0000
0001
0000
0001
1000
0000
1000
0001
0000
,
0010
0000
0100
1000
0000
0001
0100
0000
0020
0000
0000
0000
0030
0000
0000
0000
,
1010
0110
0101
1001
,
0001
0010
0100
1000
0001
0100
0010
0000
0110
0000
0110
0000
1001
0000
1000
0001
,
1000
0000
0100
0010
0000
0001
0010
0000
0100
0000
1000
0001
0000
0100
0010
0000
,
0001
0000
0010
1000
0000
0001
0100
0000
0020
0000
0000
0000
0030
0000
0000
0000
,
1000
0000
0010
0100
0000
0001
0010
0000
1000
0000
0001
0000
1000
0000
0010
0000
,
0001
0000
1000
0010
0000
0100
0001
0000
2000
0000
0000
0000
3000
0000
0000
0000
,
0001
0000
0010
0100
0000
1000
0001
0000
0100
0000
0010
1000
0000
0001
0100
0000
,
0001
0000
1000
0100
0000
0001
0100
0000
0020
0000
0000
0000
0030
0000
0000
0000
,
0001
0000
1000
0100
0000
0010
0100
0000
0001
0000
1000
0000
0001
0000
0100
0000
,
1000
0000
0001
0100
0000
0010
1000
0000
0002
0000
0000
0000
0003
0000
0000
0000
,
0101
0000
0000
0000
0110
0000
0000
0000
1001
0000
0000
0110
0000
0000
1001
0000
,
0011
0000
1100
0000
0110
0000
0000
0000
1001
0000
0000
0110
0000
0000
1001
0000
,
0101
0000
0000
0000
0110
0000
0000
0000
1010
0000
0000
1001
0000
0000
0000
0000
,
1000
0010
1000
0010
0100
0001
0100
0001
1000
0100
0010
0001
1000
0010
0100
0001
,
0000
0000
0000
0000
1000
0000
0100
0000
0010
0000
0000
0001
0000
0000
0100
0000
,
0010
0000
0000
1000
0000
0000
0001
0000
2000
0000
0000
0000
0000
0000
0000
0000
,
3000
0000
0000
0000
0010
0000
0100
0000
0001
0000
0000
0010
0000
0000
0100
0000
,
1000
0000
0000
0100
0000
0000
0010
0000
0001
0000
0000
0000
0010
0000
0000
0000
,
2002
0000
0000
0000
,
0000
0000
0000
3003
,
0100
0100
0100
0100
,
0010
0000
0010
0000
0010
0100
1001
0000
,
0001
0100
0010
1000
0100
0010
0001
0010
,
0100
1000
0001
0100
0010
1000
0001
0010
0100
0000
0110
0000
1001
0000
0110
0000
,
1000
0000
0001
0010
0000
0100
0010
0000
0001
0000
1000
0010
0000
0001
0010
0000
,
1000
0000
0010
0100
0001
0000
1000
0001
0010
0000
0100
1000
0001
0000
0100
0000
,
0010
0000
1000
0001
0000
0010
0100
0000
0010
0000
0001
1000
0000
0010
0100
0000
,
0001
0000
1000
0001
0010
0000
0100
1000
0001
0000
0100
0010
1000
0001
1000
0000
,
0100
0000
0010
0001
0000
0010
0100
0000
1000
0000
0001
0100
0000
0010
1000
0000
,
0001
0000
0100
0001
0010
0000
0100
1000
0001
0000
0100
0010
1000
0000
0100
0000
,
0010
0000
0001
0100
0000
0010
1000
0000
0001
0000
0010
1000
0000
0010
0001
0000
,
1000
0001
0100
0000
0010
1000
0001
0000
0010
0001
0010
0100
1000
0000
0000
0000
,
0001
0000
0100
0000
0010
1000
0010
1000
0000
0001
0010
0000
0110
0000
0000
0000
,
1000
0100
0010
0000
0001
1000
0001
1000
0000
0010
0100
0000
0102
0000
0000
0000
,
0103
0000
0100
0000
0010
1000
0001
1000
0000
0001
0010
0000
0110
0000
0000
0000
,
0010
0001
1000
0001
0100
0000
0010
0100
0000
0001
1000
0000
1200
0000
0000
0000
,
0310
0000
0000
0000
0011
0000
0000
0000
0110
0000
0000
1100
0000
0000
0011
0000
,
1001
0000
0000
0000
0000
0000
0001
1000
0100
0000
0010
0000
0002
0000
0000
0000
,
0013
0000
0100
1000
0000
0001
0100
0000
0010
0000
1000
0001
0000
0100
0010
0000
,
1000
0000
0100
0001
0000
0100
1000
0000
0001
0000
0100
1000
0000
0100
0001
0000
,
0010
0000
0100
1000
0000
0001
0010
0000
0100
0000
1000
0001
0000
0100
0010
0000
,
1000
0000
0001
0010
0000
0100
0010
0000
0110
0000
1001
0000
1000
0000
0100
0000
,
1000
0100
0010
0001
0010
0001
1000
1000
,
0010
0000
0010
0000
0100
0000
0100
0000
0001
0000
0001
0000
0010
0100
1000
0001
,
1000
0000
0000
0000
0010
0100
0000
0001
1000
0000
0110
0000
0000
0000
1000
0001
,
1000
1100
0011
0110
1001
0110
0000
0000
,
0000
0000
0000
0000
;
#NOTES:
     dance-single:
     :
     Challenge:
     15:
     :
0000
0000
0000
0000
,
0000
0000
0000
0000
,
0000
0000
0000
0000
,
0000
0000
0000
0000
,
0000
0000
0000
0000
,
2000
0000
0000
0020
0000
0000
0000
0000
,
0000
0000
0000
0000
3030
0000
1000
0001
,
0200
0000
0320
0000
,
2030
0000
0000
0000
3002
0000
0000
0000
1003
0100
0000
0010
0001
0000
1000
0010
,
1000
0000
0001
0010
0000
0100
1000
0010
1000
0000
0100
0010
0000
0001
0100
0001
,
0010
0000
0100
1000
0000
0001
0100
1000
0200
0000
0000
0000
0310
0000
0000
0000
,
0010
0000
1000
0001
0000
0100
0001
0010
0001
0000
0100
0010
0000
1000
0100
1000
,
0010
0000
0100
0001
0000
0010
1000
0010
0002
0000
0000
0000
1003
0000
0000
0000
,
1000
0100
1000
0100
0010
0001
0100
0001
0000
0001
0010
0100
1000
0010
1000
0000
,
0001
0010
0001
0010
0100
1000
0010
1000
0100
0000
0100
0000
0010
0000
0010
0001
,
1000
0000
0001
0100
0000
1000
0100
0001
0100
0000
0001
0010
0000
1000
0010
0001
,
0010
0000
0001
1000
0000
0100
0010
0100
2000
0000
0010
0000
3002
0000
0100
0000
,
1003
0000
0001
0010
0000
1000
0010
0001
0010
0000
0001
0100
1000
0000
0100
0001
,
0010
0000
0100
0010
0000
0001
1000
0001
2000
0000
0010
0000
3001
0000
1000
0000
,
0001
0000
1000
0010
0000
0001
0010
1000
0010
0000
1000
0100
0000
0001
0100
1000
,
0100
0000
1000
0001
0000
0010
0100
0010
0002
0000
0100
0000
2003
0000
0010
0000
,
3001
0000
1000
0100
0000
0001
0100
1000
0100
0000
1000
0010
0001
0000
0010
1000
,
0100
0000
0010
0100
0000
1000
0001
1000
0002
0000
0100
0000
1003
0000
0001
0000
,
1001
0000
0000
0000
0110
0000
0000
0000
1000
0010
0000
0100
0001
0000
1000
0000
,
1010
0000
0001
0000
0101
0000
0000
0000
0001
0010
0000
0100
1000
0000
0110
0000
,
1001
0000
1000
0000
0010
0000
0010
0000
0100
0001
0000
0010
0001
0000
1000
0000
,
0001
0010
0100
1000
0000
0000
0001
0100
0010
1000
0000
0000
1000
0010
0100
0001
0000
0000
1000
0100
0010
0001
0000
0000
,
2000
0000
3200
0000
,
0320
0000
0000
0030
,
0002
0000
0203
0000
,
0320
0000
0000
0030
,
2002
0000
0000
0000
,
0000
0000
0000
3003
,
1000
0000
0000
1000
0000
0000
0100
0000
0000
0000
0000
0000
0001
0100
0000
0100
,
0010
0000
0000
0000
0000
0000
0000
0000
0000
0010
0000
0000
0000
0000
0000
0000
0000
0000
0100
0000
0000
0000
0000
0000
0010
0000
0000
0000
1000
0000
0000
0000
0001
0000
0000
0000
0100
0000
0000
0000
0000
0000
0000
0000
0000
0000
0000
0000
,
0001
0010
0001
0000
1000
0100
1000
0000
0010
1000
0010
0000
0100
0001
0100
0000
,
0001
0010
0100
1000
0010
0100
0001
0010
0100
0000
1000
0000
1001
0000
0000
0000
,
1001
0000
0001
0010
0100
0000
1100
0000
1000
0010
0100
0000
0001
1000
0001
0000
,
1000
0000
0010
0100
0001
0000
0010
0001
0000
0001
1000
0000
0100
0010
0100
0000
,
0110
0000
0010
0001
1000
0000
1001
0000
0001
0100
0010
0000
1000
0001
1000
0000
,
0001
0010
0000
0001
0100
0000
0010
1000
0000
0000
0010
1000
0100
0010
0001
0000
,
1001
0000
1000
0100
0010
0000
0011
0000
0001
0100
0010
0000
1000
0001
1000
0000
,
0001
0000
0100
0010
1000
0000
0100
1000
0000
1000
0001
0000
0010
0100
0010
0000
,
0110
0000
0100
1000
0001
0000
1001
0000
1000
0010
0100
0000
0001
1000
0001
0000
,
1000
0100
0000
1000
0010
0000
0100
0001
0000
0000
0100
0001
0010
0100
1000
0000
,
0001
0010
0001
0100
0010
1000
0100
0010
0000
0100
1000
0000
1001
0000
0000
0000
,
1000
0010
1000
0100
0010
0001
0100
0010
0000
0100
0001
0000
2002
0000
3003
0000
,
0001
0100
1000
0100
0001
0100
1000
0100
0000
0010
0100
0001
0100
0000
0001
0000
,
1000
0100
0001
0100
1000
0100
0001
0100
0000
0010
0100
1000
0100
0000
1000
0000
,
1010
0000
0010
0100
0001
0000
0010
0100
1000
0000
0100
0010
0000
0001
1000
0000
,
0002
0000
0000
0003
,
0001
0010
0001
0010
0000
0000
1100
0000
1000
0010
1000
0010
0000
0000
0101
0000
,
1001
0000
0001
1000
0100
0000
0001
0100
1000
0000
0001
0010
0100
1000
0001
0000
,
1000
0100
1000
0100
0000
0000
0011
0000
0001
0100
0001
0100
0000
0000
1010
0000
,
1001
0000
0000
0000
0000
0000
0000
0000
0001
0000
0000
0000
1000
0000
0000
0000
0010
0000
0000
0000
0000
0000
0000
0000
1000
0000
0000
0000
0001
0000
0000
0000
0200
0000
0000
0000
0000
0000
0000
0000
0020
0330
0000
0000
0000
0000
0000
0000
1000
0000
0000
0000
0000
0000
0000
0000
0001
0000
0000
0000
0100
0000
0000
0000
,
0000
0100
0001
0000
1000
0000
0100
0010
0000
0010
0100
0000
1000
0000
0001
0010
,
0000
0010
0100
0000
1000
0100
1000
0000
0001
0100
0001
0000
0110
0000
0010
0000
,
1001
0000
0000
0000
1000
0100
0010
0001
0000
0000
1001
0000
0000
0000
1000
0010
,
0001
0000
0001
0010
1000
0000
1010
0000
0110
0000
1001
0000
0000
0000
0000
0000
,
0000
0000
0000
0000
;
#NOTES:
     dance-double:
     :
     Easy:
     7:
     :
00000000
00000000
00000000
00000000
,
00000000
00000000
00000000
00000000
,
00000000
00000000
00000000
00000000
,
00000000
00000000
00000000
00000000
,
00000000
00000000
00000000
10010000
,
00100000
00002000
00000000
00003000
,
00000000
00000000
00000000
00101000
,
00010000
00000200
00000310
00000002
,
00001003
00000001
00000100
00000110
,
00000001
00001000
00000100
00000000
00000010
00000000
00000100
00000000
,
00010100
00011000
00101000
00000000
,
00010000
10000000
01000000
00000000
00100000
00000000
01000000
00000000
,
01100000
00110000
10010000
00000000
,
10000000
00000000
01000000
00000000
00010000
00001000
00010000
00000000
,
00001000
00000010
00000002
00001003
,
00000001
00000010
00000100
00000000
00000010
00000000
00000001
00000000
,
00000101
00001100
00011000
00000000
,
00010000
00100000
10000000
00000000
00010000
00000000
10000000
00000000
,
11000000
01100000
10010000
00000000
,
10000000
01000000
00100000
00000000
00010000
00000000
10000000
00000000
,
11000000
01010000
00011000
00000000
,
00001000
00000010
00000001
00000000
00000100
00000000
00001000
00000000
,
00000110
00000101
00001001
00000000
,
00000101
00000101
00001100
00001100
,
00001000
00010000
00100000
10000000
,
11000000
11000000
01010000
01010000
,
00020000
00032000
00003020
00000031
,
00000000
00000001
00000100
00001000
,
00010000
01000000
10000000
00000000
,
00000000
10000000
00100000
00010000
,
00001000
00000010
00000001
00001000
,
00002002
00000000
00000000
00000000
,
00000000
00000000
00000000
00003003
,
00000000
00000000
00000000
00000000
,
00000000
00000000
00000000
00000000
,
00000101
00000101
00001010
00001010
,
00010000
00001000
00010000
00001000
00010000
00000000
00000000
00000000
,
00010000
00000000
00100000
00000000
10000000
00100000
01000000
00000000
,
00010000
00100000
00001000
00000000
,
00001000
00000000
00000010
00000000
00000001
00000010
00000100
00000000
,
00010000
00001000
00010000
00100000
,
00010000
00000000
00001000
00000000
00000100
00000001
00001000
00000000
,
00000010
00010000
00001000
00000000
,
00010000
00000000
01000000
00000000
10000000
01000000
00100000
00000000
,
00001000
00010000
00011000
00000000
,
00011000
00011000
00001100
00001100
,
00000001
00000010
00001000
00000000
,
00011000
00011000
01010000
01010000
,
10000000
00100000
00010000
00000000
,
00011000
00010010
00011000
00101000
,
00020000
00000000
00031000
00000000
,
00010000
00000000
00100000
00000000
10000000
00100000
10000000
00000000
,
01000000
00000000
00010000
00000000
00001000
00000010
00000001
00000000
,
00000001
00001000
00010000
10000000
,
10000000
00000000
00010000
00000000
00001000
00000001
00000100
00000000
,
00000100
00000000
00000010
00001000
00000001
00000000
00000010
00000000
,
00000010
00000000
00000100
00010000
00001000
00000000
00100000
00000000
,
01100000
10000000
01000000
00010000
,
00011000
00001010
00001001
00000000
,
00000000
00000000
00000000
00000000
;
#NOTES:
     dance-double:
     :
     Medium:
     10:
     :
00000000
00000000
00000000
00000000
,
00000000
00000000
00000000
00000000
,
00000000
00000000
00000000
00000000
,
00000000
00000000
00000000
00000000
,
00000000
00000000
00000000
00000000
00000000
00000000
10000000
01000000
,
00100000
00110000
00000000
00000000
,
00000000
00000000
00000000
00000000
00000000
00000000
00001000
00000010
,
00000100
00000102
00001003
00001020
,
00000130
00000000
00001000
00010000
00011000
00000000
01100000
00000000
,
10000000
00010000
10000000
01000000
00010000
00001000
00010000
00100000
,
00010000
00001000
00000100
00000001
00000010
00000000
00000000
00000000
,
00000100
00001000
00000001
00000100
00001000
00010000
00001000
00000010
,
00001000
00010000
01000000
10000000
00010000
00000000
00000000
00000000
,
11000000
11000000
01100000
01100000
,
00100000
00001000
00010000
00001000
00000100
00000000
00001001
00000000
,
00000001
00000100
00000001
00000010
00001000
00010000
00100000
00010000
,
00001000
00010000
01000000
10000000
00010000
00000000
00000000
00000000
,
10000000
00100000
01000000
00010000
00100000
01000000
00010000
00001000
,
00000100
00000001
00000010
00000100
00001000
00000000
00000000
00000000
,
00000001
00000100
00000010
00001000
00000001
00000010
00001000
00010000
,
01000000
10000000
01000000
00100000
00010000
00000000
00000000
00000000
,
10000000
01000000
00010000
00001000
00010000
00100000
00010000
00001000
,
00000010
00000001
00000010
00000100
00001000
00000000
00000000
00000000
,
00000011
00000011
00001100
00001100
,
00000001
00000010
00001000
00000000
00010000
00100000
10000000
00000000
,
10100000
10100000
01010000
01010000
,
10000000
01000000
00010000
00001000
00010000
00001000
00000100
00000001
,
00000000
00000000
00000001
00000100
00001000
00000000
00010000
00001000
,
00010000
00000000
00100000
10000000
00010000
00000000
10000000
00010000
,
10000000
00000000
10000000
01000000
00010000
00000000
00001000
00010000
,
00001000
00000000
00000100
00000001
00001000
00000000
00000110
00000000
,
00002002
00000000
00000000
00000000
,
00003003
00000000
00000000
00000000
,
00000010
00000010
00000100
00000100
,
00000001
00000000
00000001
00000000
00001000
00000001
00001000
00000000
,
00000001
00000100
00000001
00000100
00001000
00010000
00001000
00010000
,
00100000
01000000
00100000
00000000
10010000
00000000
01100000
00000000
,
10000000
01000000
00010000
00000000
00001000
00010000
00001000
00000000
,
00000100
00000010
00001000
00000001
00000010
00000100
00001000
00000001
,
00000100
00000010
00001000
00000000
00000001
00000010
00001000
00000000
,
00010000
00001000
00010000
01000000
10000000
00100000
01000000
00010000
,
10000000
01000000
00010000
00000000
00001000
00010000
00001000
00000000
,
00000010
00000001
00000010
00000100
00001000
00000001
00000100
00000010
,
00001000
00000001
00000010
00000000
00001000
00010000
00001000
00000000
,
00010000
00100000
01000000
00000000
10010000
00000000
01100000
00000000
,
10000000
01000000
00010000
00001000
00000010
00000001
00001000
00000000
,
00000001
00000100
00001000
00010000
00100000
10000000
00010000
00000000
,
10000000
00100000
00010000
00001000
00000100
00000001
00001000
00000000
,
00000001
00000010
00001000
00010000
01000000
10000000
00010000
10000000
,
02000000
03100000
00020000
10030000
,
01100000
00000000
00000000
00000000
00010000
10000000
00010000
00000000
,
10000000
01000000
00010000
01000000
00100000
00001000
00010000
00001000
,
00000100
00000001
00001000
00000010
00000100
00001000
00000100
00000000
,
00000001
00000010
00001000
00000010
00000001
00000100
00001000
00010000
,
00100000
00010000
00001000
00010000
00011000
01100000
10000000
00100000
,
01000000
00010000
10000000
01000000
00100000
00010000
00001000
00000100
,
00000010
00000001
00001000
00000010
00000100
00000001
00000100
00000010
,
00000110
00000000
00001001
00000000
00000110
00000000
00000001
00000010
,
00001000
00010000
00100000
00010000
00001000
00011000
00000000
00000000
,
00000000
00000000
00000000
00000000
;
#NOTES:
     dance-double:
     :
     Hard:
     13:
     :
00000000
00000000
00000000
00000000
,
00000000
00000000
00000000
00000000
,
00000000
00000000
00000000
00000000
,
00000000
00000000
00000000
00000000
,
00000000
00000000
00000000
00000000
00000000
00000000
10000000
01000000
,
00020000
00000000
00000000
00002000
00000000
00000000
00000000
00000000
00000000
00000000
00000000
00000000
00000000
00000000
00000000
00000000
,
00033000
00000000
00000000
00000000
00000000
00000000
00000001
00000100
,
00002000
00000000
00000000
00003000
00010000
00001000
00010000
00001000
00200000
00000000
00000000
00000000
01300000
00100000
01000000
00100000
,
00010000
00000000
20000000
00000000
30010000
01000000
00010000
01000000
00100000
10000000
00000000
10000000
00010000
00000000
10000000
01000000
,
10000000
00000000
01000000
00100000
00000000
00010000
00100000
00000000
00001000
00000000
00001000
00010000
00000000
00010000
00001000
00000000
,
00000100
00000000
00000010
00000100
00000000
00000001
00001000
00000000
00000200
00000000
00000000
00000000
00000300
00000000
00000000
00000000
,
00000001
00000000
00000010
00000100
00000000
00001000
00000100
00000000
00010000
00000000
00010000
00001000
00000000
00001000
00010000
00000000
,
00100000
00000000
10000000
00100000
00000000
01000000
00010000
00000000
20000000
00000000
00000000
00000000
30000000
00000000
00000000
00000000
,
11000000
01100000
00101000
00011000
,
00000100
00000010
00000100
00000010
00001000
00000001
00001000
00000000
00000011
00000000
00000011
00000000
00000100
00000000
00001000
00000001
,
00000010
00000000
00000100
00001000
00000000
00000001
00000100
00000000
00001000
00000000
00010000
00001000
00000000
00000100
00001000
00000000
,
00010000
00000000
00100000
10000000
00000000
00010000
00100000
00000000
02000000
00000000
00000000
00000000
03000000
00000000
00000000
00000000
,
10000000
00000000
00100000
01000000
00000000
00010000
00100000
00000000
01000000
00000000
00010000
00000000
00001000
00000000
00000100
00000000
,
00000010
00000000
00001000
00000001
00000000
00000010
00000100
00000000
00002000
00000000
00000000
00000000
00003000
00000000
00000000
00000000
,
00000001
00000000
00000010
00000100
00000000
00001000
00000001
00000000
00000100
00000000
00001000
00010000
00000000
00000010
00001000
00000000
,
00010000
00000000
01000000
00100000
00000000
10000000
00010000
00000000
00200000
00000000
00000000
00000000
00300000
00000000
00000000
00000000
,
01000000
00000000
10000000
01000000
00000000
00010000
01000000
00000000
00100000
00000000
00001000
00000000
00010000
00000000
00001000
00000000
,
00000100
00000000
00000010
00001000
00000000
00000001
00000100
00000000
00000020
00000000
00000000
00000000
00000030
00000000
00000000
00000000
,
00000101
00000000
00000000
00000000
00000110
00000000
00000000
00000000
00001001
00000000
00000000
00000100
00000010
00000000
00000001
00000000
,
00000011
00000000
00001100
00000000
00000110
00000000
00000000
00000000
00011000
00000000
00000000
01100000
00000000
00000000
10010000
00000000
,
01010000
00000000
00000000
00000000
01100000
00000000
00000000
00000000
10100000
00000000
00000000
10010000
00000000
00000000
00000000
00000000
,
10000000
01000000
00100000
00010000
01000000
00000000
00001000
00000000
00010000
00000100
00000010
00000000
00000001
00001000
00000100
00000000
,
00000000
00000000
00000000
00000000
00000010
00000000
00000100
00000000
00001000
00000000
00000000
00000001
00000000
00000000
00000100
00000000
,
00000010
00000000
00000000
00000100
00000000
00000000
00001000
00000000
00020000
00000000
00000000
00000000
00000000
00000000
00000000
00000000
,
00030000
00000000
00000000
00000000
00100000
00000000
10000000
00000000
00010000
00000000
00000000
00100000
00000000
00000000
01000000
00000000
,
10000000
00000000
00000000
01000000
00000000
00000000
00010000
00000000
00001000
00000000
00000000
00000000
00000010
00000000
00000000
00000000
,
00002002
00000000
00000000
00000000
,
00000000
00000000
00000000
00003003
,
00000100
00000100
00000100
00000100
,
00000010
00000000
00000010
00000000
00000010
00000100
00001001
00000000
,
00000001
00000100
00000010
00001000
00010000
01000000
00100000
10000000
,
01000000
00100000
00010000
00100000
00001000
00010000
00000100
00010000
00001000
00000000
00010000
00000000
00011000
00000000
00001000
00000000
,
00000100
00000000
00000001
00000010
00000000
00001000
00000010
00000000
00000100
00000000
00010000
00001000
00000000
00010000
00100000
00000000
,
10000000
01000000
00010000
00001000
00010000
00100000
00010000
00001000
,
00000100
00000000
00000001
00001000
00000000
00000100
00000010
00000000
00001000
00000000
00000010
00000100
00000000
00000010
00000001
00000000
,
00000100
00000000
00001000
00000000
00010000
00000000
00100000
00000000
10000000
00000000
01000000
00000000
00100000
00001000
00010000
00000000
,
00001000
00000000
00000100
00000010
00000000
00001000
00000001
00000000
00000010
00000000
00001000
00010000
00000000
01000000
00100000
00000000
,
00010000
10000000
01000000
00100000
00001000
00010000
01000000
10000000
,
01000000
00000000
00010000
00001000
00000000
00100000
00010000
00000000
00001000
00000000
00000100
00000010
00000000
00000001
00000100
00000000
,
00000001
00000000
00001000
00000000
00000100
00000000
00000010
00000000
00000001
00000000
00000100
00000010
00000100
00000000
00000000
00000000
,
00000001
00000000
00000100
00000000
00000010
00001000
00000010
00001000
00000000
00000001
00000010
00000000
00001000
00000000
00000000
00000000
,
00010000
00000000
00001000
00000000
01000000
00010000
01000000
00010000
00000000
10000000
00100000
00000000
02000000
00000000
00000000
00000000
,
03010000
00000000
10000000
00000000
01000000
00010000
01000000
00010000
00000000
00001000
00010000
00000000
00000100
00000000
00000000
00000000
,
00000010
00000001
00001000
00000001
00000100
00000000
00000010
00000100
00000000
00001000
00010000
00000000
00200000
00000000
00000000
00000000
,
10300000
00000000
00000000
00000000
01010000
00000000
00000000
00000000
01100000
00000000
00000000
10100000
00000000
00000000
10010000
00000000
,
01100000
00000000
00000000
00000000
00000000
00000000
00010000
00100000
01000000
00000000
10000000
00000000
00020000
00000000
00000000
00000000
,
10030000
00000000
01000000
00100000
00000000
00010000
00100000
00000000
00001000
00000000
00010000
00001000
00000000
00000100
00001000
00000000
,
00000100
00000000
00000001
00001000
00000000
00000010
00000100
00000000
00000001
00000000
00000010
00001000
00000000
00010000
00001000
00000000
,
00010000
00000000
00100000
10000000
00000000
00010000
01000000
00000000
00100000
00000000
10000000
01000000
00000000
00100000
00010000
00000000
,
00001000
00000000
00000100
00000010
00000000
00000001
00000100
00000000
00000110
00000000
00011000
00000000
10000000
00000000
01000000
00000000
,
10000000
01000000
00010000
00001000
00010000
00001000
00000010
00000001
,
00000010
00000000
00000001
00000000
00000100
00000000
00001000
00000000
00000100
00000000
00001000
00000000
00010000
00100000
01000000
00100000
,
10000000
00000000
00000000
00000000
00010000
10000000
00000000
01000000
00100000
00000000
00110000
00000000
00000000
00000000
00001000
00010000
,
00001000
00001010
00000010
00000110
00001001
00000110
00000000
00000000
,
00000000
00000000
00000000
00000000
;
#NOTES:
     dance-double:
     :
     Challenge:
     15:
     :
00000000
00000000
00000000
00000000
,
00000000
00000000
00000000
00000000
,
00000000
00000000
00000000
00000000
,
00000000
00000000
00000000
00000000
,
00000000
00000000
00000000
00000000
,
00000002
00000000
00000000
00002000
00000000
00000000
00000000
00000000
,
00000000
00000000
00003003
00000000
,
20000000
00000000
30020000
00000000
,
20030000
00000000
00000000
00000000
30020000
00000000
00000000
00000000
10030000
00010000
00000000
00010000
10000000
00000000
00100000
10000000
,
01000000
00000000
00100000
01000000
00000000
01000000
00010000
00000000
00001000
00000000
00000010
00000100
00000000
00000100
00001000
00000000
,
00000001
00000000
00000100
00001000
00000000
00001000
00000100
00000001
00000200
00000000
00000000
00000000
00000310
00000000
00000000
00000000
,
00000010
00000000
00001000
00000001
00000000
00000001
00000010
00000000
00001000
00000000
00010000
01000000
00000000
01000000
00100000
00000000
,
00010000
00000000
10000000
00010000
00000000
00010000
01000000
10000000
02000000
00000000
00000000
00000000
03100000
00000000
00000000
00000000
,
10000000
00100000
10000000
00100000
01000000
00010000
01000000
00010000
00000000
00010000
00100000
00001000
00010000
00001000
00010000
00000000
,
00001000
00010000
00001000
00010000
00000100
00001000
00000100
00001000
00000010
00000000
00000010
00000000
00000100
00000000
00000100
00000001
,
00001000
00000000
00000001
00000010
00000000
00000100
00001000
00000100
00010000
00000000
00001000
00010000
00000000
00100000
01000000
00100000
,
10000000
00000000
00010000
01000000
00000000
10000000
01000000
00100000
01000000
00000000
00010000
00100000
01000000
00000000
10000000
00100000
,
01000000
00000000
00010000
01000000
00000000
00010000
00100000
00001000
00010000
00000000
00010000
00000010
00001000
00000000
00001000
00000100
,
00000010
00000000
00000001
00001000
00000000
00000100
00000010
00000100
00000010
00000000
00000001
00000100
00000010
00000000
00001000
00000100
,
00000010
00000000
00000001
00000100
00000000
00000001
00000010
00000100
00001000
00000000
00000100
00010000
00000000
00001000
00010000
00001000
,
01000000
00000000
00010000
00100000
00000000
00010000
01000000
00100000
10000000
00000000
00010000
01000000
00010000
00000000
10000000
01000000
,
10000000
00000000
00100000
10000000
00000000
01000000
00100000
00010000
10000000
00000000
01000000
00100000
01000000
00000000
00010000
00001000
,
00010000
00000000
00000100
00001000
00000000
00001000
00000010
00001000
00000200
00000000
00000000
00000000
00000300
00000000
00000000
00000000
,
00000110
00000000
00000000
00000000
00001001
00000000
00000000
00000000
00000001
00000100
00000000
00001000
00010000
00000000
00100000
00000000
,
10100000
00000000
10000000
00000000
10010000
00000000
00000000
00000000
10000000
01000000
00000000
00010000
00001000
00000000
00000010
00000000
,
00000011
00000000
00000001
00000000
00000100
00000000
00000100
00000000
00000001
00000010
00000000
00000001
00001000
00000000
00001000
00000000
,
00000001
00000010
00000100
00001000
00000010
00000100
00001000
00010000
00100000
01000000
10000000
01000000
00100000
10000000
01000000
00100000
,
00020000
00000000
00100000
00000000
,
00032000
00000000
00000100
00000010
,
00023000
00000000
01000000
00000000
,
00030100
00000001
00000010
00000000
,
00002002
00000000
00000000
00000000
,
00000000
00000000
00000000
00003003
,
00000001
00000000
00000000
00000001
00000100
00000000
00000010
00000000
00000100
00000000
00000000
00000000
00000010
00001000
00000000
00001000
,
00000100
00000000
00000000
00000000
00000000
00000000
00000000
00000000
00000000
00000100
00000000
00000000
00010000
00000000
00000000
00000000
00000000
00000000
00001000
00000000
00000000
00000000
00000000
00000000
00100000
00000000
00000000
00000000
00010000
00000000
00000000
00000000
01000000
00000000
00000000
00000000
00100000
00000000
00000000
00000000
00000000
00000000
00000000
00000000
00000000
00000000
00000000
00000000
,
10000000
00100000
10000000
00000000
01000000
00100000
01000000
00000000
00100000
00001000
00100000
00000000
00001000
00010000
00001000
00000000
,
00010000
00000010
00001000
00000100
00010000
00000010
00001000
00000100
00000010
00000001
00000100
00000010
00001000
00000000
00000000
00000000
,
00001001
00000000
00000001
00000100
00000010
00000000
00000110
00000000
00000100
00000010
00001000
00000000
00000100
00010000
00001000
00000000
,
00010000
00000000
00100000
01000000
00010000
00000000
00100000
01000000
00010000
00000000
01000000
00100000
00010000
10000000
01000000
00000000
,
01100000
00000000
00100000
00010000
10000000
00000000
10010000
00000000
00010000
01000000
00100000
00000000
00010000
00001000
00010000
00000000
,
00001000
00000010
00000000
00000010
00000001
00000000
00001000
00000100
00000000
00000000
00000001
00000100
00001000
00000001
00000100
00000000
,
00000110
00000000
00000010
00001000
00000001
00000000
00000101
00000000
00000100
00001000
00010000
00000000
00010000
00100000
01000000
00000000
,
10000000
00000000
01000000
00100000
10000000
00000000
01000000
00100000
00000000
00100000
00010000
00000000
10000000
01000000
10000000
00000000
,
10010000
00000000
00010000
00100000
01000000
00000000
01100000
00000000
00100000
00001000
00010000
00000000
00001000
00010000
00001000
00000000
,
00010000
00000100
00000000
00001000
00000100
00000000
00000010
00000001
00000000
00000000
00000001
00000010
00000100
00001000
00000010
00000000
,
00000100
00000001
00000010
00000001
00000100
00000010
00001000
00000100
00000000
00000100
00010000
00001000
00010000
00000000
00000000
00000000
,
00001000
00100000
00010000
00100000
01000000
10000000
00010000
01000000
00000000
00100000
01000000
00000000
02200000
00000000
03300000
00000000
,
10000000
01000000
00100000
00010000
10000000
01000000
00010000
00001000
00000000
00001000
00010000
00000010
00001000
00000000
00000100
00000000
,
00001000
00000010
00000100
00000001
00001000
00000001
00000100
00001000
00000000
00001000
00010000
00001000
01000000
00010000
01000000
00000000
,
01100000
00000000
00100000
10000000
01000000
00000000
00100000
00010000
01000000
00000000
00100000
10000000
00000000
00100000
00010000
00000000
,
00002000
00000000
00000000
00003000
,
00010000
00000010
00010000
00000010
00000000
00000000
00001100
00000000
00000001
00000100
00000001
00000100
00000000
00000000
00001010
00000000
,
00010010
00000000
00000010
00010000
00001000
00000000
01000000
00001000
00010000
00000000
00000100
00010000
00001000
00100000
00001000
00000000
,
01000000
00010000
01000000
00010000
00000000
00000000
10100000
00000000
10000000
01000000
10000000
01000000
00000000
00000000
00110000
00000000
,
00101000
00000000
00000000
00000000
00000000
00000000
00000000
00000000
00001000
00000000
00000000
00000000
00010000
00000000
00000000
00000000
00000010
00000000
00000000
00000000
00000000
00000000
00000000
00000000
00010000
00000000
00000000
00000000
00001000
00000000
00000000
00000000
02000000
00000000
00000000
00000000
00000000
00000000
00000000
00000000
00200000
03300000
00000000
00000000
00000000
00000000
00000000
00000000
10000000
00000000
00000000
00000000
00000000
00000000
00000000
00000000
00100000
00000000
00000000
00000000
01000000
00000000
00000000
00000000
,
00000000
00010000
10000000
00000000
01000000
00000000
00100000
00001000
00000000
00010000
00001000
00000000
00000010
00000000
00000001
00000100
,
00000000
00001000
00000100
00000000
00000001
00000010
00000100
00000000
00001000
00000010
00010000
00000000
00011000
00000000
00001000
00010000
,
00100000
00000000
01000000
00100000
10000000
00000000
01000000
00100000
00000000
00100000
01000000
00000000
00000000
00000000
10000000
01000000
,
00010000
00000000
00001000
00000010
00000001
00000000
00000011
00000000
00001000
00000000
00001001
00000000
00000000
00000000
00000000
00000000
,
00000000
00000000
00000000
00000000
;
