
//----- song ID: thnk -----//
#TITLE:39;
#ARTIST:sasakure.UK×DECO*27;
#BANNER:39.png;
#BACKGROUND:39-bg.png;
#CDTITLE:./CDTitles/jubeat festo.png;
#MUSIC:39.ogg;
#SAMPLESTART:47.462;
#SAMPLELENGTH:15;
#BPMS:0=175;
#TIMESIGNATURES:4=3=4,10=4=4,14=3=4,20=4=4,24=3=4,30=4=4,34=3=4,46=4=4,70=3=4,76=4=4,100=3=4,103=4=4,195=3=4,201=4=4,205=3=4,223=4=4,227=3=4,245=4=4,249=3=4;
#NOTES:
     dance-single:
     :
     Beginner:
     4:
     :
0000
0000
0000
0000
,
0000
0000
0000
0000
,
0000
0000
0000
0000
,
0000
0000
0000
0000
,
0000
0000
0000
0000
,
0000
0000
0000
0000
,
1000
0000
0000
1000
,
0000
0000
0010
0000
,
0010
0000
0001
0000
,
0000
0001
0000
0000
,
0010
0000
0010
0000
,
0010
0000
0002
0000
,
0003
0000
0001
0000
,
0000
0000
0020
0000
,
0030
0000
0010
0000
,
0000
0000
0001
0000
,
0001
0000
0010
0000
,
0000
0000
0001
0000
,
0000
1001
0000
0000
,
2000
0000
3000
0000
,
1000
0000
0000
0000
,
0020
0000
0030
0000
,
0010
0000
0000
0000
,
1000
0000
1000
0000
,
0010
0000
0000
0000
,
1000
0000
1000
0000
,
1001
0000
0000
0000
,
0000
0001
0000
0010
,
0000
0001
0000
0100
,
0000
0001
0000
0010
,
0000
0010
0000
0001
,
0000
0001
0000
0002
,
0000
0003
0000
1001
,
0000
0000
0000
0110
,
0000
0000
0000
1000
,
1000
1000
0000
0010
,
0010
0010
0000
1000
,
0000
0100
0000
1000
,
1000
1000
0000
0001
,
0001
0001
0000
0010
,
0000
0010
0000
1001
,
0000
0000
0000
0020
,
0000
0030
0010
0010
,
0000
1000
0000
1000
,
0000
0010
0000
1000
,
0000
0100
0000
1000
,
0000
1000
0000
2000
,
0000
3000
0000
0002
,
0000
0003
0000
0001
,
0000
0000
0001
0000
,
0000
0001
0000
0001
,
0000
0010
0000
0000
,
0010
0000
0000
0010
,
0000
0000
0010
0000
,
0000
1000
0000
0000
,
1000
0000
0000
1000
,
0000
1000
0000
0010
,
0000
0000
0010
0000
,
0000
0010
0000
0000
,
0010
0000
0000
0001
,
0000
0000
0001
0000
,
0000
0001
0000
0001
,
0000
1000
0000
0000
,
1000
0000
0000
1000
,
0000
0000
1000
0000
,
0000
0000
0000
0000
;
#NOTES:
     dance-single:
     :
     Easy:
     6:
     :
0000
0000
0000
0000
,
0000
0000
0000
0000
,
0000
0000
0000
0000
,
0000
0000
0000
0000
,
0000
0000
0000
0000
,
0000
0000
0000
0000
,
2000
0000
0000
3002
,
0000
0000
0103
0000
,
0110
0000
2000
0000
,
0000
3002
0000
0000
,
0013
0000
0100
1000
,
1001
0000
0000
0000
,
1000
0100
1000
0001
,
0010
0100
0000
0000
,
0001
0010
0001
1000
,
0001
1000
0000
0000
,
0010
0100
0010
0001
,
1000
0100
0010
0010
,
0100
2002
0000
3003
,
0000
0000
0001
0100
,
0001
1000
0010
0100
,
0000
0000
1000
0010
,
1000
0001
1000
0001
,
0000
0000
0010
0100
,
0010
1000
0100
0010
,
1001
0000
0110
0000
,
1001
0000
0000
0002
,
0000
1003
0000
2000
,
0000
3100
0000
0200
,
0000
0310
0000
0020
,
0000
0031
0000
0002
,
0000
0023
0000
0230
,
0000
1300
0000
2002
,
0000
3003
0000
0110
,
0000
1001
0000
0001
,
1000
0100
0000
0010
,
0001
1000
0000
0001
,
1000
0010
0000
0100
,
0010
0100
0000
0001
,
1000
0100
0000
0110
,
0000
1001
0000
0110
,
0000
0000
0000
0020
,
0000
0030
0010
1001
,
0000
0002
0000
2003
,
0000
3020
0000
2030
,
0000
3002
0000
0013
,
0100
1000
0000
2000
,
0000
3002
0000
1003
,
0100
0010
0000
0001
,
0000
0001
0100
0000
,
0100
0010
0000
1000
,
0000
0100
0000
0100
,
0010
0000
0010
0001
,
0000
0001
1000
0001
,
0000
1000
0000
1000
,
0100
0000
0100
0010
,
0000
0001
0000
0010
,
0000
0010
0100
0000
,
0100
1000
0000
1000
,
0001
1000
0001
2000
,
0000
0000
3002
0000
,
0000
0103
0000
0110
,
0000
0200
0000
0000
,
0320
0000
0000
2030
,
0000
0000
3001
0000
,
0000
0000
0000
0000
;
#NOTES:
     dance-single:
     :
     Medium:
     8:
     :
0000
0000
0000
0000
,
0000
0000
0000
0000
,
0000
0000
0000
0000
,
0000
0000
0000
0000
,
0000
0000
0000
0000
,
0000
0000
0000
0000
,
1000
0000
0000
1010
0000
0000
0001
0000
,
0000
0101
0000
0000
0010
0000
0000
0110
,
0000
1000
0001
0000
1000
0000
0000
1100
,
0000
0000
0001
0000
0000
0011
0000
0000
,
0100
0000
0000
0110
0000
0001
1000
0001
,
1000
0001
0000
0000
1000
0000
1000
0000
,
0001
0000
0001
0000
0100
0000
0100
0010
,
0100
0110
0001
0001
,
1000
0000
1000
0000
0001
0000
0010
0100
,
1000
0100
0010
0010
,
0100
0000
0100
0000
1000
0100
1000
0000
,
0001
0010
0001
0000
0110
0000
0000
1100
,
0000
0000
1001
0000
0000
0110
0000
1001
,
0000
0000
0000
1000
0001
0010
0000
0100
,
0000
1000
0000
0001
0000
0100
0010
0000
,
0000
0000
0000
0100
0001
1000
0000
0010
,
0000
0010
0000
0100
0000
0100
0010
0000
,
0000
0000
0000
0100
0001
0100
0000
0010
,
0000
1000
0000
0001
0000
0010
0100
0000
,
1001
0000
0000
0000
1000
0100
0000
0010
,
0000
0001
0010
0000
0100
1000
0200
0000
,
0000
0320
0000
0032
,
0000
2003
0000
3020
,
0000
0230
0000
0302
,
0000
0000
2003
0000
0000
3100
0010
0000
,
0001
0010
0000
0100
0000
1000
0000
0001
,
0010
0001
0000
0110
0000
0000
2002
0000
,
0000
0000
3003
0000
0000
1000
0100
0010
,
0000
0011
0000
1100
0000
0001
0000
0010
,
0100
1000
0000
1000
0000
0001
0000
0100
,
0010
1000
0000
1000
0000
0001
1000
0001
,
1000
0010
0000
0010
0000
0100
0010
0000
,
1000
0001
0000
0001
1000
0000
1000
0000
,
0100
0010
0000
0010
0000
0001
0000
1000
,
0000
0010
0000
0100
0000
2002
0000
0000
,
0000
0000
3003
0000
0000
0001
0000
0010
,
0100
1000
0000
0001
0010
0000
0110
0000
,
0000
1000
0001
0000
0000
0001
0100
0000
,
0000
0100
0010
0000
0000
0010
1000
0000
,
0000
1000
0001
0000
0000
0001
0010
0000
,
0100
1000
0001
1000
,
0000
0100
0010
0000
0000
0001
1000
0000
,
0010
0100
0110
0001
,
0001
0011
1000
1000
,
1100
0000
0010
0000
0010
0100
1000
0000
,
1001
0001
0001
0110
,
1000
1000
0110
0010
,
0010
0000
0101
0000
0010
1000
0010
0000
,
0110
0000
1000
0000
1000
0010
1000
0000
,
0001
0000
0001
0100
0001
0000
0010
0000
,
0010
0100
1000
0000
1001
0000
1000
0000
,
1000
0010
1000
0000
0001
0000
0001
0100
,
0001
0000
0100
0000
0100
1000
0100
0000
,
0110
0000
1000
0010
0100
0001
1000
0000
,
0000
1000
0000
0000
0001
0000
0000
0001
,
0000
0000
0100
0000
0000
0100
0000
0010
,
0000
1000
0001
0000
0000
0001
0000
0000
,
0010
0000
0000
0010
0000
0000
0100
0000
,
0000
0100
0000
0000
1000
0000
0000
1001
,
0000
0000
0000
0000
;
#NOTES:
     dance-single:
     :
     Hard:
     12:
     :
0000
0000
0000
0000
,
0000
0000
0000
0000
,
0000
0000
0000
0000
,
0000
0000
0000
0000
,
0000
0000
0000
0000
,
0000
0000
0000
0000
,
1000
0100
0010
0001
0000
0010
0100
1000
,
0001
0100
0000
0010
1000
0001
0100
0010
,
1000
0001
0010
0100
1000
0001
1000
0100
,
0000
0010
0001
0010
0100
1000
0000
0001
,
1000
0010
0100
0001
1000
0001
1000
0100
,
0010
0001
0000
0000
0010
0100
1000
0001
,
0100
0010
0000
1010
0000
0110
0000
0101
,
0000
0001
1000
0000
1000
0100
0010
0100
,
0001
0100
0000
1100
0000
0110
0000
0011
,
0000
1001
0000
0000
1000
0010
0100
0001
,
1000
0010
0000
0110
0000
0101
0000
1100
,
0000
0001
1000
0000
1100
0000
0100
0010
,
0000
0000
0011
0000
0001
1000
0000
0110
,
0000
0000
0001
1000
0100
0010
0000
0011
,
0000
0110
0000
1100
0000
1000
0001
0000
,
0001
0100
0010
0100
1000
0100
0000
0101
,
0000
0110
0000
1010
0000
1001
0000
0000
,
0001
0010
0100
1000
0001
0010
0000
0110
,
0000
1100
0000
0101
0000
1000
0001
0000
,
0101
0000
0010
1000
0001
0100
0000
0110
,
0000
1000
0001
0010
0100
1000
0002
0000
,
0100
2003
0010
3200
,
0010
2300
0001
3020
,
0100
2030
0100
3002
,
0010
0000
0103
0000
0010
1000
1001
0000
,
0001
0100
0000
0110
0000
1100
0000
0100
,
0010
1000
0000
1001
0000
0000
0220
0000
,
0000
0000
0000
0000
0330
1000
0001
1000
,
0000
0110
0000
1001
0000
1000
0100
0001
,
0100
1000
0000
0110
0000
0001
0100
1000
,
0100
0001
0000
0110
0000
1000
0010
0001
,
0010
1000
0000
0110
0000
1000
0001
1000
,
0100
0010
0000
0001
1000
0001
0010
1000
,
0010
0001
0000
0110
0000
1100
0000
1001
,
0000
0101
0000
0110
0000
2020
0000
0000
,
0000
0000
3030
0000
0000
0001
0100
0001
,
1000
0100
0010
0001
0110
0000
1001
0000
,
0001
0100
0001
0000
0100
1000
0100
0000
,
1000
0010
1000
0000
0010
0001
0010
0000
,
0001
0100
0001
0000
1000
0010
1000
0000
,
0001
0100
0010
1001
,
1000
0100
1000
0000
0001
0010
0001
0000
,
1001
0000
1010
0000
0110
0000
0001
0100
,
0010
1000
0000
0010
0100
0001
1000
0100
,
0000
0010
0001
1000
0100
0010
0001
1000
,
0010
0100
0001
1000
0001
0100
0000
0010
,
1000
0010
0100
0001
0000
1000
0001
0010
,
0100
1000
0001
1000
0001
0100
0010
1000
,
0001
0000
1000
0010
0100
0001
0000
0100
,
0010
1000
0001
0010
0000
0100
1000
0001
,
0010
0100
1000
0001
0100
0010
1000
0001
,
1000
0010
0000
0100
0001
0100
0010
1000
,
0000
0001
1000
0100
0010
0001
1000
0001
,
1000
0010
0100
0001
1000
0010
0110
0000
,
0001
0100
0000
0000
0110
0000
1000
0100
,
0000
0000
0110
0000
0001
0010
0000
1000
,
0010
0100
0001
0010
0100
0010
0000
0100
,
1000
0100
0010
0001
0000
0100
0010
1000
,
0001
1000
0100
0010
0001
1000
0001
1000
,
0001
1000
0000
0000
0000
0000
0000
0000
,
0000
0000
0000
0000
;
#NOTES:
     dance-double:
     :
     Easy:
     6:
     :
00000000
00000000
00000000
00000000
,
00000000
00000000
00000000
00000000
,
00000000
00000000
00000000
00000000
,
00000000
00000000
00000000
00000000
,
00000000
00000000
00000000
00000000
,
00000000
00000000
00000000
00000000
,
20000000
00000000
30000000
02000000
,
00000000
03000000
00010000
00000000
,
00001000
00000000
00000200
00000000
,
00000300
00000020
00000000
00000030
,
00001000
00000000
00001000
00000001
,
00001001
00000000
00000000
00000000
,
00000001
00000100
00001000
00010000
,
00001000
00100000
00000000
00000000
,
01000000
10000000
01000000
00010000
,
00001000
00010000
00000000
00000000
,
00001000
00000100
00000010
00001000
,
00000001
00000010
00000100
00000000
,
00000010
00002002
00000000
00003003
,
00000000
00000000
00000001
00000010
,
00001000
00010000
00001000
00100000
,
00000000
00000000
01000000
10000000
,
00010000
01000000
00100000
00010000
,
00000000
00000000
00001000
00010000
,
00001000
00000010
00000001
00001000
,
00001001
00000000
00000110
00000000
,
00001001
00000000
00000000
00000002
,
00000000
00000003
00000000
00000200
,
00000000
00000300
00000000
00002000
,
00000000
00003000
00000000
00020000
,
00000000
00030000
00000000
00200000
,
00000000
20300000
00000000
32000000
,
00000000
03020000
00000000
00031000
,
00000000
00000000
00000000
00022000
,
00000000
00033000
00000000
00010000
,
00001000
00000010
00000000
00000001
,
00000100
00001000
00000000
00010000
,
00100000
10000000
00000000
01000000
,
00100000
01000000
00000000
00100000
,
00001000
00010000
00000000
00011000
,
00000000
00000110
00000000
00001001
,
00000000
00000000
00000000
00000001
,
00000100
00001000
00000000
00011000
,
00000000
00020000
00000000
00230000
,
00000000
10300000
00000000
20000000
,
00000000
32000000
00000000
03010000
,
00001000
00010000
00000000
00020000
,
00000000
00032000
00000000
00003010
,
00000001
00001000
00000000
00000001
,
00000000
00000001
00000100
00000000
,
00000100
00000010
00010000
00001000
,
00010000
01000000
00000000
01000000
,
00100000
00000000
00100000
00010000
,
00000000
00010000
10000000
10000000
,
00010000
10000000
00000000
10000000
,
01000000
00000000
01000000
00100000
,
00001000
00010000
00001000
00000100
,
00000000
00000100
00000010
00000000
,
00000010
00001000
00000000
00001000
,
00000001
00001000
00000001
00002000
,
00000000
00000000
00003002
00000000
,
00000000
00000103
00000000
00001000
,
00000000
00020000
00000000
00000000
,
00230000
00000000
00000000
20300000
,
00000000
00000000
30010000
00000000
,
00000000
00000000
00000000
00000000
;
#NOTES:
     dance-double:
     :
     Medium:
     9:
     :
00000000
00000000
00000000
00000000
,
00000000
00000000
00000000
00000000
,
00000000
00000000
00000000
00000000
,
00000000
00000000
00000000
00000000
,
00000000
00000000
00000000
00000000
,
00000000
00000000
00000000
00000000
,
10000000
00000000
00000000
10100000
00000000
00000000
00010000
00000000
,
00000000
01010000
00000000
00000000
00100000
00000000
00000000
00101000
,
00000000
00001000
00010000
00000000
00001000
00000000
00000000
00001010
,
00000000
00000000
00000001
00000000
00000000
00000011
00000000
00000000
,
00001000
00000000
00000000
00001010
00000000
00000001
00001000
00000001
,
00001000
00000001
00000000
00000000
00001000
00000000
00001000
00000000
,
00000001
00000000
00000001
00000000
00000100
00000000
00000100
00000010
,
00000100
00001000
00010000
00010000
,
00001000
00000000
00001000
00000000
00010000
00000000
00100000
10000000
,
00010000
01000000
00100000
00100000
,
10000000
00000000
10000000
00000000
00010000
01000000
00010000
00000000
,
00100000
00001000
00010000
00000000
00011000
00000000
00000000
00000100
,
00000000
00000000
00000101
00000000
00000000
00001000
00000000
00001001
,
00000000
00001000
00000001
00000010
,
00001000
00000000
00010000
00000000
00100000
10000000
00100000
00000000
,
01000000
00100000
10000000
01000000
,
00010000
00000000
00001000
00010000
00001000
00000000
00000010
00000000
,
00000001
00000001
00000010
00000100
,
00001000
00000001
00000100
00001000
,
00011000
00000000
00000000
00000000
00001000
00010000
00000000
00010000
,
00000000
01000000
00100000
00000000
00010000
10000000
02000000
00000000
,
00000000
03020000
00000000
00032000
,
00000000
00003020
00000000
00000032
,
00000000
00002003
00000000
00003020
,
00000000
00000000
00000230
00000000
00000000
00001300
00010000
00000000
,
00010000
01000000
00000000
10000000
00000000
01000000
00000000
00100000
,
00010000
00100000
00000000
00010000
00000000
00000000
00022000
00000000
,
00000000
00000000
00033000
00000000
00000000
00010000
00001000
00010000
,
00000000
00001000
00000000
00000110
00000000
00000001
00000000
00000010
,
00000100
00001000
00000000
00001000
00000000
00000001
00000000
00000100
,
00001000
00010000
00000000
00010000
00000000
00001000
00010000
00001000
,
00010000
00100000
00000000
00100000
00000000
10000000
00100000
00000000
,
01000000
00010000
00000000
10010000
00000000
00000000
10000000
00000000
,
01000000
00010000
00000000
00010000
00000000
00001000
00000000
00000010
,
00000000
00000001
00000000
00001000
00000000
00002002
00000000
00000000
,
00000000
00000000
00003003
00000000
00000000
00000001
00000000
00001000
,
00000010
00001000
00000000
00000001
00000010
00000000
00000110
00000000
,
00000000
00001000
00000001
00000000
00000000
00000001
00000100
00000000
,
00000000
00000100
00001000
00000000
00000000
00010000
00001000
00000000
,
00000000
00001000
00010000
00000000
00000000
00010000
00100000
00000000
,
10000000
00010000
10000000
01000000
,
00000000
01000000
00010000
00000000
00000000
00010000
00001000
00000000
,
00000010
00000100
00001000
00000001
,
00000001
00000011
00001000
00001000
,
00001100
00000000
00000010
00000000
00000010
00010000
00001000
00000000
,
00011000
00010000
00010000
00110000
,
00100000
00100000
10100000
01000000
,
01000000
00000000
01010000
00000000
00100000
10000000
00100000
00000000
,
01100000
00000000
10000000
00000000
10000000
00100000
10000000
00000000
,
00010000
00000000
00010000
01000000
00010000
00000000
00100000
00000000
,
00100000
00001000
00010000
00000000
00011000
00000000
00001000
00000000
,
00001000
00000010
00001000
00000000
00000010
00000000
00000010
00000001
,
00000010
00000000
00000100
00000000
00000100
00001000
00000100
00000000
,
00000110
00000000
00001000
00000100
00000010
00000001
00001000
00000000
,
00000000
00001000
00000000
00000000
00000001
00000000
00000000
00000001
,
00000000
00000000
00000100
00000000
00000000
00000100
00000000
00001000
,
00000000
00010000
00001000
00000000
00000000
00001000
00000000
00000000
,
00010000
00000000
00000000
00010000
00000000
00000000
00100000
00000000
,
00000000
00100000
00000000
00000000
10000000
00000000
00000000
10010000
,
00000000
00000000
00000000
00000000
;
#NOTES:
     dance-double:
     :
     Hard:
     13:
     :
00000000
00000000
00000000
00000000
,
00000000
00000000
00000000
00000000
,
00000000
00000000
00000000
00000000
,
00000000
00000000
00000000
00000000
,
00000000
00000000
00000000
00000000
,
00000000
00000000
00000000
00000000
,
00000001
00000100
00000010
00001000
00000000
00000010
00010000
00001000
,
00010000
01000000
00000000
10000000
01000000
00100000
00010000
01000000
,
00100000
10000000
00100000
01000000
00010000
00001000
00000010
00000100
,
00000000
00000001
00000100
00001000
00000100
00000001
00000000
00000010
,
00000001
00001000
00000100
00000010
00001000
00010000
01000000
00100000
,
01000000
01000000
00000000
00000000
01000000
10000000
00010000
10000000
,
01000000
00100000
00000000
00110000
00000000
01100000
00000000
00101000
,
00000000
00010000
00001000
00000000
00001000
00000100
00000010
00000100
,
00000001
00001000
00000000
00000110
00000000
00000101
00000000
00001001
,
00000000
00001010
00000000
00000000
00000100
00000010
00001000
00000001
,
00000100
00001000
00000000
00011000
00000000
00110000
00000000
10100000
,
00000000
00010000
10000000
00000000
11000000
00000000
01000000
00010000
,
00000000
00000000
00011000
00000000
00001000
00000100
00000000
00000101
,
00000000
00000000
00001000
00000001
00000100
00000010
00000000
00001010
,
00000000
00000110
00000000
00010010
00000000
00001000
00010000
00000000
,
00010000
01000000
00100000
01000000
10000000
00010000
00000000
01100000
,
00000000
11000000
00000000
10010000
00000000
00110000
00000000
00000000
,
00010000
00100000
01000000
10000000
01000000
00010000
00000000
00011000
,
00000000
00001010
00000000
00000011
00000000
00001000
00000001
00000000
,
00000101
00000000
00000010
00001000
00000001
00000100
00000000
00001100
,
00000000
00001000
00010000
00100000
01000000
10000000
02000000
00000000
,
00100000
00010000
00100000
03020000
,
10000000
00100000
10000000
00230000
,
01000000
00001000
01000000
00302000
,
00010000
00000000
00000010
00000000
00013000
00001000
00000100
00000000
,
00000010
00000100
00000000
00001100
00000000
00000101
00000000
00000001
,
00000010
00001000
00000000
00011000
00000000
00000000
02200000
00000000
,
00000000
00000000
00000000
00000000
03300000
10000000
00010000
10000000
,
00000000
01100000
00000000
10010000
00000000
10000000
01000000
00010000
,
00001000
00000010
00000000
00000011
00000000
00000001
00000100
00001000
,
00010000
00100000
00000000
10100000
00000000
10000000
00100000
01000000
,
00010000
00100000
00000000
00110000
00000000
00001000
00010000
00001000
,
00000100
00000010
00000000
00001000
00000001
00001000
00000001
00000010
,
00001000
00010000
00000000
01010000
00000000
11000000
00000000
10100000
,
00000000
00110000
00000000
00011000
00000000
00002200
00000000
00000000
,
00000000
00000000
00003300
00000000
00000000
00000001
00000100
00000001
,
00001000
00000100
00000010
00000001
00000110
00000000
00001001
00000000
,
00000100
00000001
00000100
00000000
00001000
00000100
00001000
00000000
,
00010000
00001000
00010000
00000000
00100000
00010000
00100000
00000000
,
10000000
00100000
10000000
00000000
00010000
10000000
00010000
00000000
,
00100000
01000000
10000000
10010000
,
01000000
10000000
01000000
00000000
00010000
01000000
00010000
00000000
,
00011000
00000000
00001010
00000000
00000011
00000000
00000001
00000010
,
00000100
00001000
00000000
00000100
00010000
00001000
00010000
00100000
,
00000000
10000000
00100000
01000000
00010000
00100000
01000000
10000000
,
01000000
00100000
00010000
00001000
00000100
00000010
00000000
00000001
,
00000010
00001000
00000010
00000001
00000000
00000100
00000001
00001000
,
00000010
00000100
00001000
00010000
00100000
01000000
00100000
10000000
,
00010000
00000000
10000000
00100000
01000000
00010000
00000000
01000000
,
00001000
00010000
00001000
00000010
00000000
00000001
00000010
00000100
,
00001000
00000010
00000100
00000001
00000100
00000010
00001000
00010000
,
01000000
00100000
00000000
10000000
00100000
00010000
00100000
10000000
,
00000000
01000000
10000000
00010000
00100000
01000000
00010000
00001000
,
00000010
00000100
00000010
00000001
00001000
00000100
00000110
00000000
,
00000010
00000001
00000000
00000000
00000101
00000000
00000100
00001000
,
00000000
00000000
00011000
00000000
00010000
00100000
00000000
10000000
,
00100000
01000000
00010000
00100000
01000000
00100000
00000000
01000000
,
10000000
01000000
00100000
00010000
00000000
01000000
00100000
00010000
,
00001000
00010000
00001000
00000100
00000010
00001000
00000001
00001000
,
00000001
00001000
00000000
00000000
00000000
00000000
00000000
00000000
,
00000000
00000000
00000000
00000000
;
