
//----- song ID: mine2 -----//
#TITLE:starmine;
#ARTIST:Ryu☆;
#BANNER:starmine.png;
#BACKGROUND:starmine-bg.png;
#CDTITLE:./CDTITLES/beatmania IIDX 4th style.png;
#MUSIC:starmine.ogg;
#SAMPLESTART:83.08;
#SAMPLELENGTH:15;
#DISPLAYBPM:182;
#BPMS:0=182;
#STOPS:228=0.33;
#STAGE:18;
#NOTES:
     dance-single:
     :
     Beginner:
     3:
     :
0000
0000
0000
0000
,
0000
0000
0000
0000
,
0000
0000
0000
0000
,
0000
0000
0000
0000
,
0000
0000
0000
0000
,
0000
0000
0000
0000
,
0000
0000
0000
0000
,
1000
0000
1000
0000
,
1000
0000
0000
0000
,
1000
0000
1000
0000
,
1000
0000
0000
0000
,
1001
0000
0000
0000
,
0000
0000
0000
0000
,
0000
0000
0000
0000
,
0000
0000
0000
0000
,
1001
0000
0000
0000
,
0000
0000
0000
0000
,
0000
0000
0000
0000
,
0000
0000
0000
0000
,
0001
0000
0001
0000
,
0001
0000
0000
0000
,
1000
0000
1000
0000
,
1000
0000
0000
0000
,
0001
0000
0001
0000
,
0001
0000
0000
0000
,
1000
0000
0001
0000
,
1001
0000
0000
0000
,
0001
0000
0001
0000
,
0001
0000
0001
0000
,
1000
0000
1000
0000
,
1000
0000
0000
0000
,
0001
0000
0001
0000
,
0001
0000
0001
0000
,
1000
0000
1000
0000
,
1000
0000
0000
0000
,
0001
0000
0001
0000
,
0001
0001
0001
0000
,
1000
0000
1000
0000
,
1000
1000
1000
0000
,
0001
0000
0001
0000
,
0001
0000
0001
0000
,
0100
0000
0100
0000
,
0100
0000
0000
0000
,
1000
0000
0000
0000
,
1000
0000
0000
0000
,
1000
0000
0000
0000
,
1000
1000
1000
0000
,
0001
0000
0001
0000
,
1000
0000
1000
0000
,
0001
0000
0001
0000
,
0010
0010
0010
0000
,
0001
0000
0001
0000
,
1000
0000
1000
0000
,
0001
0000
0001
0000
,
0100
0100
0100
0000
,
0100
0000
0000
0000
,
0100
0000
0000
0000
,
0100
0000
0000
0100
,
0100
0100
0000
1001
,
0000
0000
0000
0000
,
0000
0000
0000
0010
,
0000
0010
0000
0010
,
0010
0010
0000
0001
,
0000
0001
0000
0001
,
0001
0001
0000
1000
,
0000
1000
0000
1000
,
1000
1000
0000
0001
,
0000
0001
0000
0001
,
0001
0001
0000
1000
,
0000
1000
0000
1000
,
1000
1000
0000
0001
,
0000
0100
0000
0010
,
0000
1000
0000
0001
,
0000
0001
0000
1000
,
0000
1000
0000
0001
,
0000
0010
0000
0100
,
0000
1000
0000
0001
,
0000
0001
0000
0010
,
0000
0100
0100
0100
,
0000
0000
0000
0000
;
#NOTES:
     dance-single:
     :
     Easy:
     7:
     :
0000
0000
0000
0000
,
0000
0000
0000
0000
,
0000
0000
0000
0000
,
0000
0000
0000
0000
,
0000
0000
0000
0000
,
0000
0000
0000
0000
,
0000
0000
0000
0000
,
1001
0010
0000
0010
,
0000
0010
0000
0010
,
0000
0010
0000
0010
,
1000
1000
1000
1000
,
1001
0000
0000
0000
,
0000
0000
0000
0000
,
0000
0000
0000
0000
,
0000
0000
0000
0000
,
1001
0000
0000
0000
,
0000
0000
0000
0000
,
0000
0000
0000
0000
,
1000
0000
0001
0000
,
1000
0010
0000
0010
,
1000
0100
0000
0100
,
0001
0010
0000
0010
,
0001
0100
0000
0100
,
0001
0001
1000
0000
,
0100
0100
0010
0000
,
0100
0000
0100
0000
,
1000
0001
1001
0000
,
1000
1000
0100
0100
,
1000
0100
2000
3000
,
0001
0001
0010
0010
,
0001
0010
0002
0003
,
0100
0100
0001
0001
,
0100
0001
0200
0300
,
0010
0010
1000
1000
,
0001
0010
0100
1000
,
0001
0001
0100
0100
,
0001
0100
0010
1000
,
0010
0010
0100
0100
,
0010
0100
0001
1000
,
0010
0010
1000
1000
,
0010
1000
0001
0010
,
0100
0100
0010
0010
,
0220
0000
0000
0330
,
1001
0010
0000
0010
,
0000
0010
0000
0010
,
0000
0010
0000
0010
,
1000
0100
0020
0030
,
0010
0001
0100
1000
,
0010
0001
0100
1000
,
0010
0001
0100
1000
,
0010
0010
0010
0010
,
0010
1000
0100
0001
,
0010
1000
0100
0001
,
0010
1000
0100
0001
,
0010
0010
0010
0010
,
0100
0010
0000
0010
,
0100
0010
0000
0010
,
0000
0000
0110
0001
,
0001
0001
0001
1001
,
0000
0000
0000
0000
,
0000
0000
0000
0110
,
0000
1001
0000
0001
,
0010
0100
1000
0001
,
0001
1000
1000
0001
,
0100
0010
1000
0010
,
0010
0100
0100
0010
,
1000
0001
0100
0001
,
0001
0010
0010
0001
,
0100
1000
0010
0100
,
0100
0010
0010
0001
,
1000
1001
0000
0002
,
0103
0020
0130
2000
,
3100
0020
0130
2000
,
0001
0001
3001
0002
,
0013
0200
1300
2000
,
3100
0020
0130
0002
,
0103
0020
0130
0002
,
1000
1003
0000
0001
,
0010
0100
1000
2002
,
0000
0000
0000
3003
,
0000
0000
0000
0000
;
#NOTES:
     dance-single:
     :
     Medium:
     11:
     :
0000
0000
0000
0000
,
0000
0000
0000
0000
,
0000
0000
0000
0000
,
0000
0000
0000
0000
,
0000
0000
0000
0000
,
0000
0000
0000
0000
,
0000
0000
0000
0000
,
1000
0100
1000
0001
,
0010
0000
0100
0000
1000
0000
0010
0100
,
0100
1010
0100
0011
,
2002
0000
0000
3003
,
0000
0000
0010
0000
0000
1000
0000
0000
0010
0000
0000
1000
0000
0000
0010
0000
,
0000
0000
0100
0000
0000
0010
0000
0000
0100
0000
0000
0010
0000
0000
0100
0000
,
0000
0000
0001
0000
0000
0010
0000
0000
0001
0000
0000
0010
0000
0000
0001
0000
,
0000
0000
1000
0000
0000
0010
0000
0000
1000
0000
0000
0010
0000
0000
1000
0000
,
0000
0000
0001
0000
0000
0001
0000
0000
0100
0000
0000
0010
0000
0000
1000
0000
,
0000
0000
0100
0000
0000
0100
0000
0000
1000
0000
0000
0010
0000
0000
0100
0000
,
0000
0000
0001
0000
0000
0001
0000
0000
0100
0000
0000
0001
0000
0000
1000
0000
,
0000
0010
0000
0010
1000
0001
0010
0100
,
1000
0000
1000
0000
0001
0000
0001
0100
,
0000
0100
0000
0100
0010
0000
0010
0000
,
1000
0000
0100
0000
0001
0000
0100
0010
,
0000
0010
0000
0010
0001
1000
0001
0000
,
0100
0000
0100
0000
0010
0000
0010
1000
,
0000
1000
0000
1000
0001
0000
0001
0000
,
0110
0000
1000
0000
1001
0000
0000
0010
,
0000
0010
0000
0010
0001
0010
0100
1000
,
0001
0000
0100
0000
0010
0000
1000
0001
,
0000
0010
0000
0100
1000
0000
0001
0000
,
0201
0000
1000
0000
0301
0000
1000
0010
,
0000
0010
0000
0010
0100
0001
1000
0000
,
0100
0000
1000
0000
0010
0000
0100
0001
,
0000
0010
0000
0001
1000
0000
0100
0000
,
1200
0000
0001
0000
1300
0000
0001
0010
,
0000
0010
0000
0010
0001
0100
0010
1000
,
0100
0000
0110
0000
1000
0000
0010
0100
,
0000
0110
0000
0001
1000
0000
0001
0000
,
0021
0000
1000
0000
0031
0000
0100
1000
,
0000
1001
0000
0010
0100
0001
1000
0000
,
0001
0000
0001
0000
1000
0000
1000
0100
,
0000
0100
0000
0100
0010
0000
0010
0000
,
0002
0000
0100
0000
1003
0000
0000
0010
,
0000
0010
0000
0010
0100
0001
0010
0100
,
1000
0001
0000
0001
,
0100
1000
0000
1000
,
0100
0001
0000
0001
,
1001
1100
0110
0011
,
0001
0000
0010
0000
0001
0000
0000
0000
0001
0000
0000
0001
0000
0000
0001
0000
,
1000
0000
0010
0000
1000
0000
0000
0000
1000
0000
0000
1000
0000
0000
1000
0000
,
0100
0000
0010
0000
0100
0000
0000
0000
0100
0000
0000
0100
0000
0000
0100
0000
,
1000
0011
1100
0011
,
0100
0000
1000
0000
0010
0000
0000
0000
0010
0000
0000
1000
0000
0000
0100
0000
,
0010
0000
0001
0000
0100
0000
0000
0000
0100
0000
0000
0001
0000
0000
0010
0000
,
0001
0000
0100
0000
0010
0000
0000
0000
1000
0000
0000
0100
0000
0000
0010
0000
,
0001
0010
0001
0000
1000
0010
1000
0000
,
0100
0000
0010
0100
0000
0000
0010
0000
,
0100
0000
0010
0100
0000
0000
0100
0100
,
0000
0001
0000
0000
1000
0000
1010
0000
,
0101
1010
0101
2002
,
0000
0000
0000
3003
,
0000
0000
0000
0110
,
0001
0000
1001
0000
0000
0001
0000
0001
,
0000
0001
0010
0100
1000
0001
0100
0000
,
0001
0000
1100
0000
1000
0001
0000
0110
,
0000
1000
0001
0000
0100
0000
1020
0000
,
0001
0000
1030
0000
0100
0010
0100
0010
,
0000
0010
0100
1000
0001
0000
0100
0000
,
0010
0000
0101
0000
0010
0100
0000
1001
,
0000
0010
0100
0000
1001
0000
0021
0000
,
1000
0000
0031
0000
0100
0010
1000
0100
,
0000
0010
0100
1000
0010
0100
0002
0000
,
0013
0021
0130
2000
,
3010
1020
0130
0002
,
1000
0000
0010
0000
1003
0000
0100
0020
,
0000
0031
0000
0001
0010
0100
1000
0000
,
1000
0000
0001
0000
0001
1000
0100
1000
,
0100
1000
0010
0000
0100
0000
1001
0000
,
0110
0000
1001
0000
0000
0010
0100
0010
,
0100
0010
0001
0100
0010
1000
2002
0000
,
0000
0000
0000
3003
,
0000
0000
0000
0000
;
#NOTES:
     dance-single:
     :
     Hard:
     15:
     :
0000
0000
0000
0000
,
0000
0000
0000
0000
,
0000
0000
0000
0000
,
0000
0000
0000
0000
,
0000
0000
0000
0000
,
0000
0000
0000
0000
,
0000
0000
0000
0000
,
1100
0001
1000
0100
,
0010
0000
0001
0000
0100
0000
0010
1000
,
0100
0000
0000
0100
0010
0000
0001
0000
0100
0000
0000
0100
0010
0000
1000
0000
,
1001
1001
1001
1001
,
0001
0000
1000
0000
0001
1000
0000
0001
1000
0000
0001
1000
0000
0001
1000
0000
,
0100
0000
0010
0000
0100
0010
0000
0100
0010
0000
0100
0010
0000
0100
0010
0000
,
0001
0000
0010
0000
0001
0010
0000
0001
0010
0000
0001
0010
0000
0001
0010
0000
,
0100
0000
1000
0000
0100
1000
0000
0100
1000
0000
0100
0010
0000
0000
0100
0000
,
1000
0000
0001
0000
1000
0001
0000
1000
0001
0000
1000
0100
0000
1000
0100
0000
,
0010
0000
0100
0000
0010
0001
0000
0010
0001
0000
1000
0001
0000
1000
0001
0000
,
0100
0000
0001
0000
0100
0010
0000
0100
0010
0000
1000
0010
0000
1000
0010
0000
,
0100
0010
0000
0010
1000
0001
0010
0100
,
1000
0000
1100
0000
0101
0000
0010
0100
,
0000
0101
0000
0010
0100
0000
1100
0000
,
0021
0000
1000
0000
0031
0000
0100
0010
,
1000
0100
0010
0100
1000
0010
0100
0000
,
0001
0000
0101
0000
1100
0000
0010
0100
,
0001
0010
0100
0010
0001
0100
0010
1000
,
1010
0000
0100
0000
0022
0000
0033
0010
,
0100
0010
0100
0010
0001
0010
0100
1000
,
1001
0000
1001
0000
0012
0000
0013
0100
,
1000
0001
1000
0001
0100
0010
0100
0010
,
1000
0100
0001
0100
1000
0100
0001
0100
,
1000
0010
0100
0001
0101
0100
0110
0000
,
1100
0000
0101
0000
2100
0000
3100
1000
,
0010
0100
0001
0100
0010
0100
1000
0100
,
0010
0100
0010
1000
0100
0001
0100
1000
,
0001
1000
0001
1000
1001
0010
0100
1000
,
1200
0000
0310
0000
0201
0000
0310
1000
,
0001
0010
0001
0100
0010
0100
0010
0100
,
0001
0010
1000
0010
0001
0010
1000
0010
,
0001
0100
0010
0100
0101
0001
0011
0000
,
2001
0000
3100
0000
1002
0000
0013
1000
,
0010
0100
0010
0100
1000
0100
0010
0001
,
0011
0000
0110
0000
1020
0000
0000
0031
,
0000
0001
0000
0001
0010
0001
0100
0010
,
1000
0000
0010
0100
0000
0100
0001
0010
,
0100
0000
0010
0100
0000
0100
1000
0010
,
0100
0000
0010
0100
0000
0100
0010
0000
,
1000
0100
0010
0001
1000
0010
0100
0001
,
1000
0000
0001
0000
0100
0001
0100
0000
0001
0000
1000
0001
0000
0000
0001
0000
,
0010
0000
0100
0000
1000
0100
1000
0000
0001
0000
0100
0001
0000
0000
0001
0000
,
1000
0000
0010
0000
0100
0001
0100
0000
0010
0000
1000
0001
0000
0000
0001
0000
,
0101
1100
1010
0011
,
0100
0000
0100
0000
0010
0001
0010
0000
0100
0000
1000
0100
0000
1000
0100
0000
,
0010
0000
0010
0000
0001
0100
0001
0000
1000
0000
0010
1000
0000
0010
1000
0000
,
0100
0000
0100
0000
1000
0010
1000
0000
0001
0000
0010
0001
0000
0010
0001
0000
,
1000
0100
1000
0000
0100
0010
0100
0000
0010
0001
0010
0000
0001
1000
0001
0000
,
0100
0000
0010
0100
0000
0000
1010
0000
,
0100
0000
0010
0100
0000
0100
0010
0022
,
0033
0100
0000
0000
0110
0000
1001
0000
,
1001
0000
0000
0000
1001
0000
0000
0001
1000
0000
0010
0000
0220
0000
0000
0000
,
0000
0000
0000
0330
,
0000
0000
0000
1010
,
1001
0000
0022
0000
0033
0110
0000
0110
,
0000
0110
0001
0010
0100
1000
1001
0100
,
0010
0100
1000
0001
1000
0001
0100
1000
,
0100
0001
1000
0010
1000
0010
0100
0001
,
0010
0001
0100
0001
0010
0100
1000
0001
,
1000
0001
1001
1000
1010
0000
1100
0001
,
0100
0001
0100
1000
0001
0100
0010
0100
,
0010
0100
0001
1000
0010
1000
0001
0010
,
0100
0010
0001
0010
0100
1000
0010
0001
,
0010
1000
0110
0001
0010
0100
2000
0100
,
3100
0010
0002
0100
0103
0010
2000
0001
,
3001
0100
0002
0010
0013
0100
1200
0000
,
0301
0000
1020
0000
0031
0100
0001
0010
,
0100
1000
0001
0010
0001
0100
2010
0000
,
3001
0100
0021
0000
0130
1000
0210
0000
,
0301
1000
0102
0000
1003
0010
0201
0000
,
1000
0000
0301
0000
0000
1000
0100
0010
,
0001
0010
0011
0010
0110
0100
2200
0000
,
0000
0000
0000
3300
,
0000
0000
0000
0000
;
#NOTES:
     dance-single:
     :
     Challenge:
     17:
     :
0000
0000
0000
0000
,
0000
0000
0000
0000
,
0000
0000
0000
0000
,
0000
0000
0000
0000
,
0000
0000
0000
0000
,
0000
0000
0000
0000
,
0000
0000
0000
0000
,
1001
0000
0000
1000
0100
0000
0010
0000
0011
0000
0000
0001
0100
0000
0010
0000
,
1010
0000
0000
0001
0100
0000
0001
0000
0011
0000
0000
1000
0100
0000
1000
0010
,
1000
0000
0000
0100
0010
0000
0010
0001
0010
0000
0000
0001
0100
0000
0100
0010
,
0200
0001
1000
0301
,
1000
0000
0100
0000
0001
0100
0000
1000
0100
0000
0001
0100
0000
1000
0100
0000
,
0010
0000
0001
0000
0100
0001
0000
0010
0001
0000
0100
0001
0000
0010
0001
0000
,
1000
0000
0010
0000
0001
0010
0000
1000
0010
0000
0001
0010
0000
1000
0010
0000
,
1000
0000
0100
0000
1000
0010
0000
1000
0100
0000
0010
0001
1000
0010
0100
0000
,
0001
0000
0100
0000
1000
0100
0000
0001
0100
0000
1000
0100
0000
0001
0100
0000
,
0010
0000
1000
0000
0100
1000
0000
0010
1000
0000
0100
1000
0000
0010
1000
0000
,
0001
0000
0010
0000
1000
0010
0000
0001
0010
0000
1000
0010
0000
0001
0010
0000
,
0001
0000
0101
0000
0000
0000
1010
0000
1000
0100
1000
0100
0010
0001
0010
0100
,
1000
0000
1010
0000
0001
0000
0010
0011
,
0000
0001
0100
0001
0101
0000
1100
0000
,
2010
0000
3100
0000
0012
0000
0103
0011
,
0000
0001
0000
0001
0001
0010
0100
0000
,
1000
0000
1100
0000
0001
0000
0100
0101
,
0000
0001
0010
0001
0011
0000
1010
0000
,
2100
0000
3010
0000
0102
0000
0003
0011
,
0000
0000
0011
0000
0000
0000
0001
0000
0010
0100
0010
0100
1000
0001
1000
0001
,
1000
0000
0001
0100
0010
0000
1000
0100
0010
0000
0001
0010
0100
0000
1100
0000
,
0000
0000
1000
0001
0100
0010
0100
0001
1000
0000
1000
0000
0110
0000
0000
0000
,
0101
0000
0001
0100
1000
0000
1000
0100
0001
0000
0001
0100
1000
0000
0110
0000
,
0000
0000
0001
1000
0010
0100
0001
1000
0100
0010
0001
0000
1000
0000
0000
0000
,
0001
0000
1000
0100
0010
0000
0001
0100
0010
0000
1000
0010
0100
0000
0101
0000
,
0000
0000
0001
1000
0100
0010
0100
1000
0001
0000
0001
0000
0110
0000
0000
0000
,
1100
0000
1000
0100
0001
0000
0001
0100
1000
0000
1000
0100
0001
0000
0110
0000
,
0000
0000
1000
0001
0010
0100
1000
0001
0100
0010
1000
0001
0010
0000
0100
0000
,
1100
0000
1000
0100
0001
0000
1000
0000
1010
0000
1000
0010
0001
0000
1001
0000
,
0000
0000
0001
0010
0001
1000
0100
1000
0100
0000
0000
0000
0110
0000
0000
0000
,
1001
0000
0100
0001
0010
0000
0100
1000
0010
0000
0100
0001
0010
0000
1001
0000
,
0000
0000
1000
0010
0100
0010
1000
0001
0010
0100
1000
0001
1000
0000
0000
0000
,
0101
0000
0001
0100
1000
0000
0001
0000
0011
0000
0001
0010
1000
0000
1001
0000
,
0000
0000
1000
0010
1000
0001
0100
0001
0100
0000
0000
0000
0110
0000
0000
0000
,
1001
0000
0100
1000
0010
0000
0100
0001
0010
0000
0100
1000
0010
0000
1001
0000
,
0000
0000
0001
0010
0100
0010
0001
1000
0010
0100
0001
1000
0001
0000
0100
0000
,
0110
0000
1000
1001
0000
0000
1001
0000
,
0110
0000
0001
1001
0000
0000
1000
0001
,
0101
0000
1000
1010
0000
0000
1001
0000
,
1000
0010
1000
0010
0100
0001
0100
0001
1000
0100
1000
0100
0010
0001
0010
0001
,
1000
0000
1000
0000
0001
0010
0001
0000
1000
0100
0010
0001
0000
0010
0100
1000
,
0001
0000
0001
0000
1000
0010
1000
0000
0001
0100
0010
1000
0000
0010
0100
0001
,
1000
0000
1000
0000
0001
0100
0001
0000
1000
0010
0100
0001
0000
0100
0010
1000
,
0001
0000
0001
0000
1000
0100
1000
0000
0001
0010
0100
1000
0000
0100
0010
0001
,
1000
0100
0001
0000
0001
0100
1000
0000
0100
0010
0001
0100
0000
0010
1000
0000
,
0001
0100
1000
0000
1000
0100
0001
0000
0100
0010
1000
0100
0000
0010
0001
0000
,
1000
0010
0001
0000
0001
0010
1000
0000
0010
0100
0001
0010
0000
0100
1000
0000
,
0001
0010
0100
1000
0001
0100
0010
1000
0001
0010
0100
1000
0001
0100
0010
1000
,
0001
0000
0000
1000
0100
0000
1010
0000
0000
0000
0000
0000
1001
0000
0000
0000
,
1000
0000
0000
1000
0100
0000
0011
0000
0000
0000
0000
0001
1000
0000
2002
0000
,
3003
1001
0000
0000
0000
0000
1001
0000
,
0110
0000
0000
0000
1001
0000
0000
0010
0100
0000
0100
0000
2002
0000
0000
0000
,
0000
0000
0000
3003
,
0000
0000
0000
1010
,
1100
0000
0000
0000
0022
0000
0000
0000
0033
0000
1001
0000
0000
0000
1000
0010
,
1000
0000
0001
0010
0001
0000
0100
0000
0010
0000
1000
0000
1001
0000
0001
0100
,
0010
0000
1010
0000
1001
0000
0001
0010
0100
0000
0110
0000
0000
0000
1000
0001
,
0010
0001
1000
0010
0100
0000
0100
0000
0110
0000
0000
0000
0101
0000
0001
1000
,
0010
0000
1000
0001
0010
0000
0001
1000
0010
1000
0001
0000
0011
0000
0010
0100
,
1000
0000
0010
0100
0001
0000
0001
0000
1001
0000
0000
0000
1001
0000
1000
0010
,
0100
0000
0101
0000
1001
0000
1000
0100
0010
0000
0110
0000
0000
0000
0001
1000
,
0100
1000
0001
0100
0010
0000
0010
0000
0110
0000
0000
0000
1010
0000
1000
0001
,
0100
0000
0001
1000
0100
0000
1000
0001
0100
0001
1000
0000
0000
0000
1000
0100
,
0010
0001
0100
0010
1000
0001
0010
0000
0100
1000
0001
0000
1002
0000
1003
0010
,
0001
0010
1000
0000
2001
0000
3001
0010
1000
0010
0001
0000
1002
0000
1003
0100
,
1000
0000
0100
0010
0200
0000
0310
0001
0010
0000
0000
0000
0002
0000
0010
0000
,
1003
0000
1000
0000
2000
0000
0010
0000
3001
0000
0001
0000
1000
0000
0010
1000
,
0100
0000
0010
0001
0010
0000
0100
1000
0010
0000
0100
0000
2001
0000
3001
0100
,
1000
0100
0001
0000
1002
0000
1003
0100
0001
0100
1000
0000
2001
0000
3001
0010
,
0001
0000
0010
0100
0020
0000
0130
1000
0100
0000
0000
0000
2000
0000
0000
0000
,
3100
0000
0000
0000
0002
0000
0000
0000
0003
0000
1001
0000
0000
0000
0001
0010
,
0100
1000
0001
0010
0100
1000
0010
1000
0100
0000
0010
0000
0220
0000
0000
0000
,
0000
0000
0000
0330
,
0000
0000
0000
0000
;
#NOTES:
     dance-double:
     :
     Easy:
     7:
     :
00000000
00000000
00000000
00000000
,
00000000
00000000
00000000
00000000
,
00000000
00000000
00000000
00000000
,
00000000
00000000
00000000
00000000
,
00000000
00000000
00000000
00000000
,
00000000
00000000
00000000
00000000
,
00000000
00000000
00000000
00000000
,
00011000
00100000
00000000
00100000
,
00000000
00100000
00000000
00100000
,
00000000
01000000
00000000
01000000
,
10000000
00010000
10000000
00010000
,
20020000
00000000
00000000
30030000
,
02000000
00000000
00000000
03000000
,
00002000
00000000
00000000
00003000
,
00000200
00000000
00000000
00000300
,
00002002
00000000
00000000
00003003
,
00000020
00000000
00000000
00000030
,
00020000
00000000
00000000
00030000
,
00001000
00000000
00010000
00000000
,
00001000
00001000
00010000
00010000
,
00001000
01000000
00010000
00000000
,
01000000
01000000
00010000
00010000
,
01000000
00010000
00100000
00000000
,
01000000
01000000
10000000
10000000
,
01000000
10000000
00010000
00000000
,
01000000
00000000
00100000
00000000
,
00010000
00001000
00010000
00000000
,
00000100
00000100
00000010
00000010
,
00010000
00001000
01000000
00010000
,
00100000
00100000
01000000
01000000
,
10000000
00010000
01000000
00001000
,
00010000
00010000
00001000
00001000
,
00010000
00000100
00000010
00000001
,
00001000
00001000
00000001
00000001
,
00001000
00000010
00000100
00000001
,
00001000
00001000
00000010
00000010
,
00010000
00001000
00100000
00010000
,
10000000
10000000
00010000
00010000
,
01000000
00001000
00010000
00000010
,
00001000
00001000
00000001
00000001
,
00000010
00000001
00001000
00000010
,
00010000
00010000
00001000
00001000
,
00022000
00000000
00000000
00000000
,
00033000
00100000
00000000
00100000
,
00000000
00100000
00000000
00100000
,
00000000
01000000
00000000
01000000
,
10000000
01000000
00100000
00010000
,
00001000
00010000
01000000
10000000
,
00100000
00010000
00001000
00000100
,
00000001
00000010
00001000
00010000
,
00001000
00001000
00010000
00010000
,
00001000
00010000
00001000
00000100
,
00000001
00000010
00001000
00010000
,
01000000
10000000
00100000
00010000
,
00001000
00010000
00011000
00011000
,
00000000
00000010
00000000
00000010
,
00000000
00001000
00000000
00001000
,
00000000
00000000
00010000
00001000
,
00010000
00001000
00010000
00011000
,
00000000
00000000
00000000
00000000
,
00000000
00000000
00000000
00000010
,
00000000
00000100
00000000
00000001
,
00001000
00000100
00010000
00001000
,
00001000
00010000
00010000
00001000
,
00010000
01000000
10000000
00100000
,
00100000
01000000
01000000
00100000
,
00010000
00001000
00000100
00000010
,
00000010
00001000
00001000
00000001
,
00000010
00001000
00010000
00000100
,
00000100
00010000
00010000
00001000
,
00010000
01000000
10000000
00200000
,
00000000
00320000
00000000
00032000
,
00000000
00003020
00000000
00000032
,
00000000
00000000
00000003
00001000
,
00000100
00010000
00001000
02000000
,
03100000
00020000
10030000
02000000
,
03100000
00020000
01030000
00002000
,
00010000
00013000
00000000
00010000
,
00001000
00000100
00000001
00002002
,
00000000
00000000
00000000
00003003
,
00000000
00000000
00000000
00000000
;
#NOTES:
     dance-double:
     :
     Medium:
     11:
     :
00000000
00000000
00000000
00000000
,
00000000
00000000
00000000
00000000
,
00000000
00000000
00000000
00000000
,
00000000
00000000
00000000
00000000
,
00000000
00000000
00000000
00000000
,
00000000
00000000
00000000
00000000
,
00000000
00000000
00000000
00000000
,
00001000
00000100
00000010
00001000
,
00010000
00000000
01000000
00000000
00100000
00000000
00010000
00001000
,
00010000
00011000
00000100
00001100
,
00000022
00000000
00000000
00000033
,
00000000
00000000
00000001
00000000
00000000
00000001
00000000
00000000
00000100
00000000
00000000
00000100
00000000
00000000
00000010
00000000
,
00000000
00000000
00001000
00000000
00000000
00001000
00000000
00000000
00000100
00000000
00000000
00000100
00000000
00000000
00010000
00000000
,
00000000
00000000
00001000
00000000
00000000
00001000
00000000
00000000
00100000
00000000
00000000
00100000
00000000
00000000
01000000
00000000
,
00000000
00000000
10000000
00000000
00000000
10000000
00000000
00000000
00010000
00000000
00000000
00010000
00000000
00000000
01000000
00000000
,
00000000
00000000
00100000
00000000
00000000
10000000
00000000
00000000
01000000
00000000
00000000
00100000
00000000
00000000
00010000
00000000
,
00000000
00000000
01000000
00000000
00000000
00010000
00000000
00000000
00001000
00000000
00000000
00000100
00000000
00000000
00000010
00000000
,
00000000
00000000
00000001
00000000
00000000
00001000
00000000
00000000
00000010
00000000
00000000
00000100
00000000
00000000
00000001
00000000
,
00000000
00000001
00000000
00000001
00000100
00000001
00000010
00000100
,
00001000
00000000
00001000
00000000
00000010
00000000
00000010
00010000
,
00000000
00010000
00000000
00010000
00001000
00000000
00001000
00000000
,
00100000
00000000
01000000
00000000
00100000
00000000
01000000
10000000
,
00000000
10000000
00000000
10000000
00100000
01000000
00010000
00000000
,
01000000
00000000
01000000
00000000
00100000
00000000
00100000
00010000
,
00000000
00001000
00000000
00001000
00010000
00000000
00001000
00000000
,
00011000
00000000
00000100
00000000
00000110
00000000
00000000
00000010
,
00000000
00000010
00000000
00000010
00000001
00000010
00000100
00001000
,
00000001
00000000
00000001
00000000
00001000
00000000
00001000
00000100
,
00000000
00000001
00000000
00000001
00000100
00000000
00001000
00000000
,
00020000
00000000
01000000
00000000
00031000
00000000
00010000
00100000
,
00000000
00100000
00000000
00100000
01000000
00010000
10000000
00000000
,
01000000
00000000
01000000
00000000
00100000
00000000
00100000
01000000
,
00000000
01000000
00000000
01000000
00010000
00000000
00010000
00000000
,
00002000
00000000
00000100
00000000
00013000
00000000
00010000
00000010
,
00000000
00000010
00000000
00000010
00001000
00000001
00000100
00000010
,
00001000
00000000
00001100
00000000
00010000
00000000
00001000
01000000
,
00000000
01010000
00000000
00010000
10000000
00000000
00100000
00000000
,
02001000
00000000
00010000
00000000
03001000
00000000
00010000
00000010
,
00000000
00000010
00000000
00000010
00001000
00000100
00010000
00000000
,
00000100
00000000
00000100
00000000
00000010
00000000
00000010
00000001
,
00000000
00000001
00000000
00000001
00000100
00000000
00000010
00000000
,
00002000
00000000
00010000
00000000
00003010
00000000
00000100
00001000
,
00000000
00001000
00000000
00001000
00010000
00100000
01000000
10000000
,
01000000
00100000
00000000
00100000
,
00001000
00000010
00000000
00000010
,
00010000
00100000
00000000
00100000
,
02000000
03020000
00032000
00003020
,
00000031
00001000
00000001
00000000
00000100
00000000
00001010
00000000
,
00000100
00001000
00000100
00000000
00010000
00000000
00011000
00000000
,
01000000
00001000
01000000
00000000
00010000
00000000
10100000
00000000
,
00200000
00320000
00032000
00003200
,
00000301
00000000
00000010
00000000
00000100
00000000
00000000
00000000
00001000
00000000
00000000
00000010
00000000
00000000
00000100
00000000
,
00000010
00000000
00001000
00000000
00000100
00000000
00000000
00000000
00010000
00000000
00000000
00001000
00000000
00000000
00100000
00000000
,
01000000
00000000
10000000
00000000
00100000
00000000
00000000
00000000
01000000
00000000
00000000
00010000
00000000
00000000
00100000
00000000
,
01000000
00110000
00011000
00001010
,
00000101
00000000
00000010
00000100
00000000
00000000
00000010
00000000
,
00011000
00000000
00001000
00010000
00000000
00000000
01000000
01000000
,
00000000
01000000
00000000
00000000
00100000
00000000
11000000
00000000
,
01010000
00011000
00001100
00002002
,
00000000
00000000
00000000
00003003
,
00000000
00000000
00000000
00000010
,
00000100
00000000
00000010
00000000
00001000
00000001
00000000
00000001
,
00000000
00000001
00000010
00000100
00001000
00000010
00000100
00000000
,
00000110
00000000
00001000
00000000
00010000
01000000
00000000
11000000
,
00000000
00100000
00010000
00000000
01000000
00000000
00020000
00000000
,
00100000
00000000
00031000
00000000
00001000
00000100
00000000
00000010
,
00000001
00000100
00000010
00001000
00000100
00000000
00000010
00000000
,
00000001
00000000
00001001
00000000
00000010
00001000
00000000
00011000
,
00000000
00010000
00100000
00000000
01100000
00000000
10020000
00000000
,
01000000
00000000
10030000
00000000
01000000
00100000
00000000
01000000
,
00000000
00100000
00001000
00010000
00000100
00001000
00000020
00000000
,
00000001
00002030
00000001
00003200
,
00000001
00000320
00000001
00002030
,
00010000
00000000
00100000
00000000
00013000
00000000
00001000
00010000
,
00000000
01000000
00000000
00100000
00010000
10000000
02000000
00000000
,
10000000
03200000
10000000
00320000
,
10000000
02030000
10000000
03002000
,
00010000
00000000
00000100
00000000
00013000
00000010
00000000
00000010
,
00000000
00000010
00000100
00001000
00010000
00100000
02200000
00000000
,
00000000
00000000
00000000
03300000
,
00000000
00000000
00000000
00000000
;
#NOTES:
     dance-double:
     :
     Hard:
     14:
     :
00000000
00000000
00000000
00000000
,
00000000
00000000
00000000
00000000
,
00000000
00000000
00000000
00000000
,
00000000
00000000
00000000
00000000
,
00000000
00000000
00000000
00000000
,
00000000
00000000
00000000
00000000
,
00000000
00000000
00000000
00000000
,
00100000
00010000
01000000
00001000
,
00010000
00000000
00001000
00000000
00000010
00000000
00000001
00000100
,
00000010
00000000
00000000
00000100
00001000
00000000
00010000
00000000
01000000
00000000
00000000
00100000
01000000
00000000
10000000
00000000
,
10010000
01001000
00010010
00001001
,
00000100
00000000
00000001
00000000
00000100
00000001
00000000
00000100
00000001
00000000
00000100
00000001
00000000
00000100
00000001
00000000
,
00001000
00000000
00000100
00000000
00001000
00000100
00000000
00001000
00000100
00000000
00001000
00000100
00000000
00001000
00000100
00000000
,
00010000
00000000
00001000
00000000
00010000
00001000
00000000
00010000
00001000
00000000
00010000
00001000
00000000
00010000
00001000
00000000
,
01000000
00000000
00010000
00000000
01000000
00010000
00000000
01000000
00010000
00000000
01000000
00010000
00000000
01000000
00010000
00000000
,
10000000
00000000
00010000
00000000
10000000
00010000
00000000
10000000
00010000
00000000
10000000
00010000
00000000
10000000
00100000
00000000
,
00010000
00000000
00001000
00000000
00010000
00001000
00000000
00010000
00001000
00000000
00010000
00001000
00000000
00010000
00000010
00000000
,
00001000
00000000
00000001
00000000
00001000
00000001
00000000
00001000
00000001
00000000
00001000
00000001
00000000
00001000
00000001
00000000
,
00000100
00000010
00000000
00000010
00001000
00000100
00010000
00001000
,
00011000
00000000
01000000
00000000
00011000
00000000
00000100
00000001
,
00000000
00001001
00000000
00000001
00000010
00000000
00001100
00000000
,
00011000
00000000
01000000
00000000
00011000
00000000
01000000
10000000
,
00000000
10000000
01000000
10000000
00100000
00010000
00001000
00000000
,
00011000
00000000
00000010
00000000
00011000
00000000
00000010
00000100
,
00000000
00000100
00000010
00000100
00000001
00000010
00001000
00010000
,
00011000
00000000
00001000
00000000
00001010
00000000
00000000
00000011
,
00000000
00000011
00000000
00000011
00000100
00000010
00001000
00000100
,
00010100
00000000
00011000
00000000
00100000
00001000
00100000
01000000
,
00010000
01000000
10000000
01000000
00010000
00001000
01000000
00001000
,
00010000
00000010
00001000
00010000
00001000
00000010
00010000
00000100
,
00000010
00000100
00000010
00000001
00000100
00000010
00001000
00000100
,
00001100
00000000
00011000
00000000
00010000
01000000
00100000
00010000
,
00001000
00010000
00001000
01000000
00100000
10000000
01000000
10000000
,
00010000
00100000
00010000
00100000
01000000
00010000
00001000
00010000
,
00000010
00010000
00000010
00001000
00010000
00100000
01000000
10000000
,
11000000
00000000
00110000
00000000
01000000
00010000
00100000
01000000
,
00010000
01000000
00010000
00001000
00000010
00001000
00000010
00001000
,
00010000
00001000
00000100
00001000
00010000
00001000
00000100
00000001
,
00000010
00001000
00010000
00001000
00000010
00000001
00000100
00000010
,
00001010
00000000
00001100
00000000
00110000
00000000
01010000
00100000
,
10000000
01000000
10000000
01000000
00100000
00010000
00100000
00010000
,
00110000
00000000
00011000
00000000
00001100
00000000
00000000
00000001
,
00000000
00000001
00000000
00000001
00000010
00001000
00010000
01000000
,
10000000
00000000
00100000
01000000
00000000
01000000
00100000
00010000
,
00001000
00000000
00000010
00000100
00000000
00000100
00000010
00001000
,
00010000
00000000
00100000
01000000
00000000
01000000
00100000
00000000
,
10000000
01000000
00100000
00010000
00001000
00000100
00000010
00000001
,
00000100
00000000
00000010
00000000
00001000
00000001
00001000
00000000
00000001
00000000
00000000
00000100
00000000
00000000
00001000
00000000
,
00010000
00000000
00001000
00000000
00100000
00010000
00100000
00000000
00010000
00000000
00000000
00100000
00000000
00000000
10000000
00000000
,
00010000
00000000
01000000
00000000
00100000
01000000
00100000
00000000
00010000
00000000
00000000
10000000
00000000
00000000
00010000
00000000
,
10010000
00101000
00010100
00001001
,
00000100
00000000
00000001
00000000
00001000
00000100
00001000
00000000
00000100
00000000
00000100
00010000
00000000
00010000
00001000
00000000
,
01000000
00000000
00010000
00000000
10000000
01000000
10000000
00000000
00010000
00000000
00010000
00100000
00000000
00100000
00001000
00000000
,
00010000
00000000
00000010
00000000
00010000
00001000
00010000
00000000
00001000
00000000
00001000
01000000
00000000
01000000
00010000
00000000
,
10000000
01000000
00100000
00010000
00001000
00000100
00000010
00000001
,
00001000
00000000
00000010
00000100
00000000
00001000
00010000
00000000
,
00000100
00000000
00000010
00000100
00000000
00001000
00010000
00022000
,
00033000
01000000
00000000
00000000
01100000
00000000
10010000
00000000
,
01100000
00011000
00000110
00002002
,
00000000
00000000
00000000
00003003
,
00000000
00000000
00000000
00002001
,
00000010
00000000
00013000
00000000
00000000
00011000
00000000
00011000
,
00000000
00000000
00001000
00000000
00010000
00000000
01000000
00000000
10000000
00000000
00010000
00000000
10010000
00000000
00000000
00100000
,
00010000
00000000
10000000
00000000
00010000
00000000
00100000
00000000
01000000
00100000
01000000
00000000
10000000
00000000
00000000
00010000
,
10000000
00000000
00100000
00000000
01000000
00000000
00001000
00000000
00010000
00001000
00010000
00000000
00000100
00000000
00000000
00001000
,
00000010
00000000
00000100
00000000
00000001
00000000
00000010
00000000
00000100
00001000
00000100
00000000
00010000
00000000
00000000
00001000
,
00010000
00000000
00000100
00000000
00000010
00000000
00001000
00000000
00010000
00001000
00010000
00000000
00001000
00000000
00000000
00100000
,
00010000
00000000
00100000
00000000
01000000
00000000
00100000
00000000
00010000
10000000
00010000
00000000
10000000
00000000
00000000
00100000
,
01000000
00000000
00010000
00000000
00100000
00000000
01000000
00000000
00100000
00010000
00100000
00000000
00001000
00000000
00000000
00010000
,
00001000
00000000
00000100
00000000
00000010
00000000
00001000
00000000
00000001
00000100
00000001
00000000
00001001
00000000
00000000
00000000
,
00010010
00000000
00000000
00000000
01001000
00000000
00000000
00010000
10000000
00000000
00010000
00000000
10000000
00000000
01000000
00000000
,
10000000
01000000
00100000
00010000
01000000
00100000
00010000
00100000
,
00010000
00100000
00010000
00001000
00010000
00001000
00000100
00000001
,
00000100
00000010
00000100
00001000
00000100
00000001
00000010
00000100
,
00001000
00001000
00010000
00100000
00010000
00010000
00011000
00000000
,
00000100
00011000
01000000
00011000
,
00000010
00000000
00011000
00000000
00100000
00010000
00011000
00000000
,
00001010
00000000
00000201
00000000
00000000
00001300
00010000
01000000
,
00010000
00001000
00000100
00000001
00000010
00001000
00020000
00000000
,
00000000
00000000
00000000
00030000
,
00000000
00000000
00000000
00000000
;
#NOTES:
     dance-double:
     :
     Challenge:
     17:
     :
00000000
00000000
00000000
00000000
,
00000000
00000000
00000000
00000000
,
00000000
00000000
00000000
00000000
,
00000000
00000000
00000000
00000000
,
00000000
00000000
00000000
00000000
,
00000000
00000000
00000000
00000000
,
00000000
00000000
00000000
00000000
,
00000011
00000000
00000000
00000001
00000100
00000000
00000010
00000000
00001010
00000000
00000000
00001000
00000100
00000000
00010000
00000000
,
00011000
00000000
00000000
00001000
01000000
00000000
00010000
00000000
00110000
00000000
00000000
00100000
01000000
00000000
10000000
00010000
,
10000000
00000000
00000000
01000000
00010000
00000000
00010000
00000000
00011000
00000000
00000000
00001000
00000010
00000000
00000010
00000000
,
00000002
00000203
00000320
00002030
,
00003001
00000000
00000010
00000000
00000001
00000100
00000000
00000100
00001000
00000000
00001000
00010000
00000000
00010000
00100000
00000000
,
01000000
00000000
00001000
00000000
00100000
00010000
00000000
01000000
00001000
00000000
00100000
00001000
00000000
01000000
00010000
00000000
,
10000000
00000000
00100000
00000000
10000000
01000000
00000000
01000000
00010000
00000000
00010000
00001000
00000000
00001000
00000010
00000000
,
00000100
00000000
00010000
00000000
00000010
00001000
00000000
00000100
00010000
00000000
00000010
00010000
00000000
00000100
00001000
00000000
,
00000001
00000000
00001000
00000000
00000100
00000010
00000100
00000010
00000100
00000000
00010000
00000000
00011000
00000000
00000000
00000000
,
00001000
00000000
00010000
00000000
00100000
01000000
00100000
01000000
00100000
00000000
10000000
00000000
10010000
00000000
00000000
00000000
,
10000000
00000000
01000000
00000000
00100000
01000000
00010000
00000000
00001000
00000000
00010000
00000000
00000100
00001000
00000010
00000000
,
00000001
00000000
00000010
00000100
00000010
00000000
00000001
00000000
00000010
00000000
00001000
00000000
00010000
00000000
01000000
00000000
,
01100000
00000000
10010000
00000000
10000000
00100000
00010000
00001000
,
00000000
00001000
00000010
00000001
00000011
00000000
00001001
00000000
,
00000001
00000100
00001000
00001000
00010000
00001000
00000010
00000010
,
00000001
00000000
00000100
00000010
00000100
00000000
00000001
00001000
00000001
00000000
00000010
00000000
00000110
00000000
00000000
00000000
,
00000110
00000000
00001001
00000000
00000001
00000010
00001000
00010000
,
00000000
00010000
00100000
10000000
10100000
00000000
10010000
00000000
,
10000000
01000000
00010000
00010000
00001000
00010000
00100000
00100000
,
10000000
00000000
01000000
00100000
01000000
00000000
10000000
00010000
10000000
00000000
00100000
01000000
00100000
00010000
00001000
00010000
,
00001000
00000000
00010000
00000010
00010000
00000000
00000100
00001000
00000100
00000000
00000010
00000001
00000010
00000000
00000110
00000000
,
00000000
00000000
00000001
00001000
00000100
00001000
00000001
00000000
00000100
00000010
00001000
00000010
00001000
00000000
00000000
00000000
,
00000001
00000000
00000100
00001000
00010000
00000000
00010000
00000000
00100000
00000000
00010000
00001000
00010000
00000000
00011000
00000000
,
00000000
00000000
00001000
00010000
00000100
00010000
00001000
00010000
00001000
01000000
00001000
00010000
00001000
00000000
00000000
00000000
,
00010000
00000000
00001000
00100000
00001000
00000000
01000000
00010000
01000000
00000000
00100000
10000000
00100000
00000000
01100000
00000000
,
00000000
00000000
10000000
00010000
01000000
00010000
10000000
00000000
01000000
00100000
00010000
00100000
00010000
00000000
00000000
00000000
,
10000000
00000000
01000000
00010000
00001000
00000000
00001000
00000000
00000010
00000000
00001000
00010000
00001000
00000000
00011000
00000000
,
00000000
00000000
00010000
00001000
01000000
00001000
00010000
00001000
00010000
00000100
00010000
00001000
00010000
00000000
00000000
00000000
,
00001000
00000000
00000010
00000001
00000100
00000000
00000010
00001000
00000100
00000000
00000001
00000100
00001000
00000000
00001001
00000000
,
00000000
00000000
00000001
00000100
00001000
00000000
00010000
00100000
10000000
00000000
10000000
00000000
10010000
00000000
00000000
00000000
,
00010000
01000000
00001000
00010000
00000100
00001000
00000010
00001000
,
00010000
00000000
01000000
00100000
01000000
00000000
10000000
01000000
00010000
00000000
10000000
00000000
00010000
00000000
00000000
00000000
,
10000000
00000000
00100000
10000000
01000000
00000000
00100000
00010000
01000000
00000000
10000000
01000000
00010000
00000000
10010000
00000000
,
00000000
00000000
10000000
01000000
00010000
00000000
00001000
00000010
00000001
00000000
00000001
00000000
00001001
00000000
00000000
00000000
,
00001000
00000100
00010000
00001000
01000000
00010000
00100000
00010000
,
00001000
00000000
00000100
00000010
00000100
00000000
00000001
00000100
00001000
00000000
00000001
00000000
00001001
00000000
00000000
00000000
,
00000001
00000010
00001000
00011000
00000000
00000000
01100000
00000000
,
10000000
00100000
00010000
00011000
00000000
00000000
00000110
00000000
,
00000001
00000100
00001000
00011000
00000000
00000000
01100000
00000000
,
10000000
01000000
00100000
00010000
01000000
00100000
00010000
00001000
00100000
00001000
00010000
00000100
00001000
00000010
00000100
00000001
,
00001000
00000000
00001000
00000000
00000001
00000010
00000001
00000000
00001000
00000100
00001000
00000100
00010000
00001000
00100000
00010000
,
00100000
00000000
00100000
00000000
01000000
10000000
01000000
00000000
10000000
00100000
10000000
00100000
01000000
00010000
01000000
00001000
,
00010000
00000000
00010000
00000000
00000100
00000010
00000100
00000000
00000010
00000001
00000100
00000010
00001000
00000100
00000010
00000001
,
00001000
00000000
00001000
00000000
00000100
00000010
00000100
00000000
00010000
00001000
00100000
00010000
01000000
00010000
00100000
01000000
,
10000000
00000000
01000000
00000000
00010000
00001000
00000010
00000000
00000001
00001000
00000100
00000001
00000000
00000100
00001000
00000000
,
00000001
00000000
00000100
00000000
00001000
00010000
00100000
00000000
10000000
00010000
01000000
10000000
00000000
01000000
00010000
00000000
,
10000000
00000000
01000000
00000000
00010000
00001000
00000010
00000000
00000001
00001000
00000100
00000001
00000000
00000100
00001000
00000000
,
00000001
00000100
00000010
00001000
00000100
00000010
00001000
00010000
00000010
00010000
00001000
01000000
00010000
00100000
01000000
10000000
,
00010000
00000000
00000000
10010000
00000000
00000000
00000000
00000000
,
00010000
00000000
00000000
00011000
00000000
00000000
00001000
00000002
,
00000003
00001001
00000000
00000000
00000000
00000000
00000001
00000000
,
00000100
00000000
00000000
00000000
00001000
00000000
00000000
00001000
00010000
00000000
00000000
00000000
00022000
00000000
00000000
00000000
,
00000000
00000000
00000000
00033000
,
00000000
00000000
00000000
00000000
00000000
00000000
00001000
00010000
,
00100000
00000000
02200000
00000000
03300000
01100000
00000000
10000000
,
01000000
00000000
00100000
00000000
00010000
00000000
00001000
00000000
00000100
00000000
00000010
00000000
00000001
00000000
00001000
00000010
,
00001000
00000000
00000001
00000010
00000001
00000000
00000100
00000010
00000100
00000000
00000110
00000000
00000000
00000000
00000001
00001000
,
00000001
00001000
00000010
00001000
00000010
00000000
00010000
00000000
00011000
00000000
00000000
00000000
00021000
00000000
00000000
00000000
,
00100000
00000000
00032000
00000000
00003010
00001000
00000000
00011000
,
00000000
00000000
00010000
00100000
01000000
00010000
00100000
00001000
00010000
00000000
00000000
00000000
00010000
00000000
00000010
00001000
,
00000010
00000000
00001000
00000100
00001000
00000000
00000001
00000100
00000001
00000000
00001001
00000000
00000000
00000000
00001000
00000010
,
00001000
00000010
00010000
00001000
00010000
00000000
00001000
00000000
00011000
00000000
00000000
00000000
00021000
00000000
00000000
00000000
,
01000000
00000000
00032000
00000000
00003100
00001000
00000000
00011000
,
00000000
00000000
00011000
00000000
00010000
00001000
01000000
00010000
00100000
01000000
00100000
00010000
10000000
00000000
00100000
01000000
,
00100000
01000000
00010000
00000000
10000000
00000000
01000000
00100000
01000000
00100000
00010000
00000000
00100000
00000000
00001000
00010000
,
00001000
00000000
00010000
00000010
00010000
00000000
00000010
00000100
00000010
00000000
00001000
00000000
00000001
00000000
00000010
00000000
,
00001000
00000000
00001000
00000000
00010000
00000000
00100000
00000000
10000000
00000000
10000000
00000000
00010000
00000000
00100000
01000000
,
10000000
00000000
00100000
01000000
00010000
00000000
00100000
00001000
00010000
00000010
00001000
00000000
00000001
00000000
00000010
00000100
,
00000010
00000100
00001000
00000000
00000001
00000000
00000100
00000010
00000100
00000010
00001000
00000000
00000010
00000000
00010000
00001000
,
00010000
00000000
00001000
00100000
00001000
00000000
00100000
01000000
00100000
00000000
00010000
00000000
10000000
00000000
00100000
00000000
,
00010000
00000000
00010000
00000000
00001000
00000000
00000010
00000000
00000001
00000000
00000001
00000000
00001000
00000000
00000010
00000100
,
00000001
00000000
00000010
00000100
00001000
00000000
00000010
00010000
00001000
00100000
00010000
01000000
00200000
00000000
00000000
00000000
,
00000000
00000000
00000000
00300000
,
00000000
00000000
00000000
00000000
;
