
//----- song id: ssst
#TITLE:second spring storm;
#ARTIST:Spacelectro;
#BANNER:second spring storm.png;
#BACKGROUND:second spring storm-bg.png;
#CDTITLE:./CDTitles/SOUND VOLTEX FLOOR.png;
#MUSIC:second spring storm.ogg;
#SAMPLESTART:76.947;
#SAMPLELENGTH:15;
#DISPLAYBPM:131;
#BPMS:0=131;
#NOTES:
     dance-single:
     :
     Beginner:
     2:
     :
0000
0000
0000
0000
,
0000
0000
0000
0000
,
0000
0000
0000
0000
,
0001
0000
0001
0000
,
0100
0000
0100
0000
,
1000
0000
1000
0000
,
0010
0010
0010
0000
,
0001
0000
0001
0000
,
0100
0000
0100
0000
,
1000
0000
1000
0000
,
0010
0010
0010
0000
,
0001
0000
0001
0000
,
0010
0000
0010
0000
,
1000
0000
1000
0000
,
0010
0010
0010
0000
,
1000
1000
1000
0000
,
0001
0001
0001
0000
,
1000
1000
1000
0000
,
0100
0100
0100
0000
,
0001
0000
0001
0000
,
1000
0000
1000
0000
,
0001
0000
0001
0000
,
0100
0100
0100
0000
,
1000
0000
0000
0000
,
1000
0000
0100
0000
,
0010
0000
0000
0000
,
0010
0000
0100
0000
,
0001
0000
0001
0000
,
1000
0000
0001
0000
,
1000
0000
1000
0000
,
0100
0100
0100
0000
,
0001
0000
0100
0000
,
0001
0000
0100
0000
,
1000
0000
0100
0000
,
1000
0000
0100
0000
,
1000
0000
0001
0000
,
1000
0000
0001
0000
,
1000
0000
0010
0000
,
0100
0000
0000
0000
,
1000
0000
1000
0000
,
0100
0000
0100
0000
,
0010
0000
0000
0000
,
1001
0000
0001
0000
,
1000
0000
1000
0000
,
0001
0000
0001
0000
,
1000
0000
0100
0000
,
0001
0000
0001
0000
,
1000
0000
1000
0000
,
0001
0000
0010
0000
,
0100
0000
0000
0000
,
0001
0001
0001
0000
,
1000
1000
1000
0000
,
0100
0100
0100
0000
,
1000
1000
1000
0000
,
0001
0000
0001
0000
,
1000
0000
1000
0000
,
0001
0000
0010
0000
,
0100
0100
0100
0000
,
1001
0000
0000
0000
,
0000
0000
0000
0000
;
#NOTES:
     dance-single:
     :
     Easy:
     6:
     :
0000
0000
0000
0000
,
0000
0000
0000
0000
,
0000
0000
0000
0000
,
0001
0010
0100
0000
,
1000
0100
0010
0000
,
0100
0010
0001
0000
,
0100
0100
0001
0100
,
0001
0010
0100
0000
,
1000
0100
0010
0000
,
0010
0100
1000
0000
,
0100
0010
0001
0100
,
0010
0001
0100
0100
,
1000
1000
0010
0010
,
0001
0100
1000
0010
,
0001
0100
1000
0000
,
0001
0010
0011
0000
,
1000
0100
1100
0000
,
0001
0100
0101
0000
,
1000
0010
1010
0000
,
0001
0010
0100
0001
,
0100
0010
1000
0100
,
1000
0100
0010
1000
,
0020
0000
0100
0130
,
0010
0100
0001
0100
,
0010
0000
1000
0000
0001
0000
0001
0010
,
0001
0100
0001
0010
,
0001
0100
0020
0030
,
0001
0010
0010
0100
,
1000
0000
0010
0000
1000
0000
1000
0100
,
1000
0100
0001
0010
,
0100
0000
0000
0200
0000
0000
0300
0000
,
0001
0010
0010
0001
,
1000
0000
0100
0000
0001
0000
0010
0001
,
0010
0100
0001
0010
,
0100
0000
0000
0100
0000
0000
0100
0000
,
0001
0001
0010
0100
,
0010
0000
1000
0000
0100
1000
0100
0000
,
0010
0100
0001
1000
,
0100
0000
0000
0100
0000
0000
0000
0000
,
2002
0000
0000
3003
,
0100
0100
0010
1000
,
0210
0010
0010
0310
,
1001
0000
0001
0010
,
1000
0100
0010
0100
,
0001
0100
0010
0001
,
0100
0010
1000
0100
,
1000
0010
0010
0100
,
0010
1000
0100
0010
,
0001
0100
1000
0100
,
0010
0020
0000
0030
,
1001
0000
0000
1000
0000
0000
1000
0000
,
0001
0000
0000
0001
0000
0000
0001
0000
,
0100
0000
0000
0100
0000
0000
0100
0000
,
0001
0001
1000
0100
,
0001
0010
0011
0000
,
1000
0100
1100
0000
,
0001
0100
0101
0000
,
1000
0010
1010
0000
,
2002
0000
0000
0000
,
0000
0000
0000
0000
,
3003
0000
0000
0000
,
0000
0000
0000
0000
;
#NOTES:
     dance-single:
     :
     Medium:
     9:
     :
0000
0000
0000
0000
,
0000
0000
0000
0000
,
0000
0000
0000
0000
,
0001
0000
0000
0000
1000
0000
0001
0000
0000
0001
0000
0000
0001
0000
0000
0000
,
1000
0000
0000
0000
0001
0000
1000
0000
0000
1000
0000
0000
1000
0000
0000
0000
,
0001
0000
0000
0000
1000
0000
0100
0000
0000
0100
0000
0000
0100
0000
0000
0000
,
1000
0000
1000
0000
1000
0100
0010
0000
,
0001
0000
0000
0000
0001
0000
0000
0001
0000
0000
0001
0000
0001
0000
0000
0000
,
1000
0000
0000
0000
1000
0000
0000
1000
0000
0000
1000
0000
1000
0000
0000
0000
,
0001
0000
0000
0000
1000
0000
0000
1000
0000
0000
0100
0000
0100
0000
0000
0000
,
1000
0000
0000
0000
0010
0000
0000
0010
1000
0000
0100
0000
0010
0000
0001
0000
,
0101
0101
1100
1100
,
1010
1010
0011
0011
,
0101
1100
1010
0011
,
0101
0000
1100
0000
1000
1000
0100
0010
,
0001
0001
0100
0010
0000
0100
0100
0000
,
1000
1000
0100
0010
0000
0100
0100
0000
,
0001
0001
1000
0001
0000
0010
0010
0000
,
1001
0000
0000
0000
1001
0000
0000
0001
0000
0000
0001
0000
1000
0000
1000
0000
,
0010
0010
1000
0100
0000
0100
0100
0000
,
0001
0001
0100
0010
0000
0010
0010
0000
,
1000
1000
0100
0010
0000
0001
0001
0000
,
1001
0000
1001
0000
1000
1000
0010
0001
,
1000
1000
0100
1000
0000
0001
0010
0001
,
0000
1000
0010
1000
0000
0001
0100
0001
,
1000
1000
0100
0010
0000
0001
0100
0010
,
0000
1000
0010
0100
0000
0010
0100
0001
,
1000
1000
0001
0001
0000
1000
0100
0100
,
0000
0010
0001
0001
0000
1000
0001
1000
,
0002
0023
0230
2300
,
3001
0100
0010
2000
0000
0000
3100
0100
,
2000
0100
0000
0100
0000
0001
0000
3100
,
0002
0100
0000
0100
0000
1000
0000
0103
,
0200
0010
0000
0010
0000
0001
0000
0310
,
0010
1000
0001
0100
0000
0001
0001
0100
,
0002
0010
0000
0100
0000
1000
1003
0000
,
2000
0010
0000
0100
0000
0001
3001
0000
,
0200
0001
0000
1000
0000
0010
0310
0000
,
1000
1000
0001
0001
0000
0100
0010
0000
,
2002
0000
0000
0000
3003
0100
0010
0001
,
1000
0000
0000
0000
0001
0000
0000
0001
0100
0000
0001
0000
1000
0000
0000
0000
,
1002
1000
1000
1003
,
0110
0000
0100
0100
0010
1000
0100
0000
,
0110
0000
0100
0100
0010
0001
0100
0000
,
1001
0000
0010
0010
1000
0001
0010
0100
,
2000
3020
2030
3100
,
0101
0000
0001
0001
0010
0100
1000
0000
,
1100
0000
1000
1000
0100
0010
0001
0000
,
1001
0110
1001
0110
,
0102
0103
0011
1100
,
0002
0000
0000
1000
0000
0100
0103
0000
,
2000
0000
0000
0001
0000
0010
3010
0000
,
0020
0000
0000
0100
0000
1000
1030
0000
,
1010
0000
1010
0000
0100
0001
0100
0000
,
0010
1000
0000
0100
0000
0010
0010
0000
,
0100
1000
0000
0010
0000
0100
0100
0000
,
0001
0010
0000
1000
0000
0010
0010
0000
,
1000
0010
0001
0100
0000
0100
0010
0100
,
0001
0010
0200
0000
0000
0000
0000
0000
,
0000
0000
0000
0000
,
0300
0000
0000
0000
,
0000
0000
0000
0000
;
#NOTES:
     dance-single:
     :
     Hard:
     14:
     :
0000
0000
0000
0000
,
0000
0000
0000
0000
,
0000
0000
0000
0000
,
0000
0000
0001
0010
0001
0000
1000
0100
0000
1000
0100
0000
0200
0000
0000
0000
,
0300
0000
1000
0010
1000
0000
0001
0100
0000
0001
0100
0000
0200
0000
0000
0000
,
0300
1010
1000
0100
0000
0110
0010
0001
,
0101
0000
0000
0000
0101
0000
0000
0001
1000
0000
0100
1000
0100
0000
1000
0000
,
1010
0000
0000
0000
0010
0000
1000
0001
0000
0100
0010
0000
0010
0000
0000
0000
,
0101
0000
0000
0000
0100
0000
0001
1000
0000
0100
0010
0000
0010
0000
0000
0000
,
0110
0000
0000
0000
1000
0000
0001
0100
0000
0010
0100
0000
0100
0000
0010
0000
,
1100
0000
0000
0000
0101
0000
0000
0001
0010
0000
0001
0100
0010
0000
0100
0000
,
0101
0001
0101
0100
1100
0100
1100
1000
,
1010
1000
1010
0010
0011
0010
0011
0001
,
0101
0100
1100
1000
1010
0010
0011
0001
,
0001
0100
0001
0100
0010
1000
0010
1000
0100
0000
1001
0000
1010
0000
0011
0000
,
0001
0000
0001
0010
0001
0000
1000
0010
1000
0000
0010
0000
1010
0000
0000
0000
,
1000
0000
1000
0100
1000
0000
0001
0100
0001
0000
0010
0000
0011
0000
0000
0000
,
0010
0000
0100
0010
0100
0000
1000
0001
1000
0000
0100
0000
1100
0000
0000
0000
,
1001
0000
0000
0000
0101
0000
0000
0010
1000
0000
1000
0000
0001
0000
0100
0000
,
0001
0000
0010
0001
0100
0000
0010
1000
0100
0000
0010
0000
1001
0000
0000
0000
,
1000
0000
0010
1000
0100
0000
0010
0001
0100
0000
0010
0000
1001
0000
0000
0000
,
0100
0000
0100
0000
0010
0000
0010
0000
0000
0010
1000
0000
0101
0000
0000
0000
,
1010
0000
0000
0000
1010
0000
0000
0100
0000
0000
0001
0100
0010
0000
0010
0000
,
0100
0000
0001
0010
0000
0000
0001
0010
0000
0000
0001
0010
0000
0000
0001
0010
,
0000
0000
1000
0100
0000
0000
1000
0100
0000
0000
1000
0100
1000
0100
0010
0001
,
0000
0000
1000
0010
0000
0000
1000
0100
0000
0000
1000
0001
0000
0000
1000
0100
,
0000
0000
0001
0010
0000
0000
0001
0100
0000
0000
0001
1000
0100
0010
0001
0010
,
0000
0000
0001
0010
0000
0000
0100
1000
0000
0000
0010
0100
0000
0000
0001
1000
,
0000
0000
0100
0001
0000
0000
0010
0100
0000
0000
1000
0100
0000
0000
0010
0100
,
0000
0000
0001
0010
0000
0000
1000
0010
0000
0000
0100
0001
0000
0000
0100
1000
,
0010
0000
0101
0000
0010
0000
1100
0000
0000
0101
0000
0000
1001
0000
0010
0000
,
0100
0000
1100
0000
0000
0000
1100
0000
0000
0000
0101
0000
0000
0000
0010
0001
,
0100
1100
0000
0110
0000
0101
1000
0010
,
0100
0000
1010
0000
0000
0000
0110
0000
0000
0000
1001
0000
0000
0000
0010
1000
,
0100
0000
0101
0000
0010
0000
1100
0000
0000
1000
0000
1000
0100
1000
0100
1000
,
0001
0000
0001
0010
0001
0000
1000
0010
1000
0000
0010
0000
1001
0000
0000
0000
,
1000
0000
0010
1000
0010
0000
0100
0001
0100
0000
0010
0000
1001
0000
0000
0000
,
0010
0000
0100
0010
0001
0000
0010
0100
1000
0000
0001
1000
0010
0000
0000
0000
,
0001
0010
1000
0100
0000
0001
0110
0000
,
2002
0000
0000
0000
3000
0100
0100
1003
,
0101
0000
0000
0000
1100
0000
0000
1000
0100
0000
0001
0010
0001
0000
0000
0000
,
1002
0000
1000
0000
1000
0000
1000
0003
,
1100
0000
1000
0100
0010
0000
0001
0010
0000
0010
0001
0000
1001
0000
1000
0000
,
0011
0000
0001
0010
0100
0000
1000
0100
0000
0100
1000
0000
1001
0000
0001
0000
,
1010
0100
1000
1000
0000
0100
0011
0100
,
0001
0000
0000
0000
0001
0000
0000
0100
0010
0000
1000
0100
1000
0000
0010
0000
,
0101
0000
0001
0010
0001
0000
1000
0100
0000
0010
0001
0000
0101
0000
0000
0000
,
0110
0000
1000
0010
0100
0000
0001
0010
0000
0100
0010
0000
1000
0000
0010
0000
,
0100
0100
1100
0100
0000
0101
0001
0011
,
1010
0000
0000
0000
0011
0000
0000
0001
0010
0000
0001
0000
0010
0000
1000
0000
,
0001
0000
0001
0010
0000
0000
1000
0100
0000
0000
0011
0000
0110
0000
0000
0000
,
1000
0000
0100
0010
0000
0000
0100
0001
0000
0000
1100
0000
0110
0000
0000
0000
,
0001
0000
0010
0100
0000
0000
0010
1000
0000
0000
0110
0000
1001
0000
0000
0000
,
0110
0000
0000
0000
0110
0000
0000
1000
0001
0000
0001
0100
0010
0000
1000
0000
,
0011
0000
0001
0000
1000
0000
1000
0100
0000
0000
0010
0000
0101
0000
0000
0000
,
1010
0000
1000
0000
0001
0000
0001
0010
0000
0000
0100
0000
1010
0000
0000
0000
,
0101
0000
0100
0000
0010
0000
0010
0100
0000
0000
0100
0000
0101
0000
0100
0000
,
0011
0001
1100
1000
0000
0100
0010
1000
,
0101
0010
2200
0000
0000
0000
0000
0000
,
0000
0000
0000
0000
3300
0000
1000
0100
1000
0000
0100
0000
1000
0010
0100
0001
,
0000
0000
0000
0000
;
#NOTES:
     dance-double:
     :
     Easy:
     6:
     :
00000000
00000000
00000000
00000000
,
00000000
00000000
00000000
00000000
,
00000000
00000000
00000000
00000000
,
00001000
00100000
00010000
00000000
,
00100000
00001000
00010000
00000000
,
00010000
00000100
00001000
00000000
,
00000100
00000100
00000001
00000100
,
00001000
00010000
00100000
00000000
,
01000000
00100000
00010000
00000000
,
00010000
00001000
00010000
00000000
,
00010000
00001000
00000100
00001000
,
00010000
01000000
10000000
00100000
,
00010000
00001000
00000100
00000001
,
00000010
00001000
00100000
00010000
,
00001000
00000100
00011000
00000000
,
01000000
10000000
11000000
00000000
,
00100000
00010000
00110000
00000000
,
00001000
00000100
00001100
00000000
,
00000001
00000010
00000011
00000000
,
00000001
00000010
00000100
00010000
,
00001000
00100000
00010000
00100000
,
10000000
01000000
00100000
10000000
,
00200000
00000000
00000000
00000000
00001000
00001000
00301000
00000000
,
00010000
00100000
00001000
00000010
,
00000100
00000000
00000100
00000000
00001000
00000000
00001000
00010000
,
00001000
00010000
00100000
01000000
,
00001000
00010000
00200000
00300000
,
00010000
00001000
00001000
00000100
,
00001000
00000000
00010000
00000000
00100000
00000000
10000000
01000000
,
10000000
01000000
00010000
00001000
,
00000100
00000000
00000001
00000020
00000000
00000000
00000030
00000000
,
00000100
00010000
00000100
00001000
,
00000010
00000000
00001000
00000000
00010000
00000000
00100000
00001000
,
00100000
01000000
00010000
00100000
,
01000000
00000000
00000000
01000000
00000000
00000000
01000000
00000000
,
00010000
00010000
00000100
00001000
,
00000100
00000000
00000001
00000000
00000100
00000001
00000100
00000000
,
00001000
00100000
00010000
01000000
,
00010000
00000000
00000000
00010000
00000000
00000000
00000000
00000000
,
00022000
00000000
00000000
00033000
,
00000100
00000100
00010000
00001000
,
00102000
00100000
00100000
00103000
,
00010100
00000000
00001000
00000100
,
00000001
00000100
00001000
00000100
,
00010000
00001000
00100000
00001000
,
01000000
00100000
10000000
01000000
,
10000000
00100000
00010000
00001000
,
00000100
00000001
00001000
00000100
,
00010000
00010000
00100000
01000000
,
00100000
00200000
00000000
00300000
,
00101000
00000000
00000000
00001000
00000000
00000000
00001000
00000000
,
00010000
00000000
00000000
00010000
00000000
00000000
00010000
00000000
,
01000000
00000000
00000000
01000000
00000000
00000000
01000000
00000000
,
00100000
00100000
00001000
00010000
,
00001000
00010000
00011000
00000000
,
01000000
10000000
11000000
00100000
,
00010000
00001000
00011000
00000000
,
00000010
00000000
00000001
00000000
00000011
00000000
00000100
00000010
,
00000220
00000000
00000000
00000000
,
00000000
00000000
00000000
00000000
,
00000330
00000000
00000000
00000000
,
00000000
00000000
00000000
00000000
;
#NOTES:
     dance-double:
     :
     Medium:
     10:
     :
00000000
00000000
00000000
00000000
,
00000000
00000000
00000000
00000000
,
00000000
00000000
00000000
00000000
,
00010000
00000000
00000000
00000000
00010000
00000000
00001000
00000000
00000000
00010000
00000000
00000000
00001000
00000000
00000000
00000000
,
00010000
00000000
00000000
00000000
00010000
00000000
00001000
00000000
00000000
00010000
00000000
00000000
00001000
00000000
00000000
00000000
,
00010000
00000000
00000000
00000000
01000000
00000000
10000000
00000000
00000000
01000000
00000000
00000000
00010000
00000000
00000000
00000000
,
00001000
00000000
00001000
00000000
00001000
00000100
00000010
00000000
,
00001000
00000000
00000000
00000000
00000001
00000000
00000000
00000010
00000000
00000000
00000100
00000000
00001000
00000000
00000000
00000000
,
00000010
00000000
00000000
00000000
00000100
00000000
00000000
00001000
00000000
00000000
00010000
00000000
01000000
00000000
00000000
00000000
,
10000000
00000000
00000000
00000000
00010000
00000000
00000000
00100000
00000000
00000000
01000000
00000000
01000000
00000000
00000000
00000000
,
10000000
00000000
00000000
00000000
00100000
00000000
00000000
00100000
00010000
00000000
00001000
00000000
00000100
00000000
00000001
00000000
,
00000011
00000110
00001100
00011000
,
00110000
01100000
11000000
10010000
,
10000000
01000000
00100000
00010000
00001000
00000100
00000010
00000001
,
00000010
00000100
00010000
00001000
00011000
00010000
00001000
00100000
,
00010000
00010000
01000000
00100000
00000000
01000000
01000000
00000000
,
00001000
00001000
00010000
00001000
00000000
00000100
00000100
00000000
,
00000001
00000001
00001000
00000001
00000000
00000100
00000100
00000000
,
00010100
00000000
00000000
00000000
00011000
00000000
00000000
00010000
00000000
00000000
00001000
00000000
00010000
00000000
00010000
00000000
,
00100000
00100000
10000000
01000000
00000000
01000000
01000000
00000000
,
00010000
00010000
00001000
00000100
00000000
00000001
00000001
00000000
,
00000010
00000010
00000100
00010000
00000000
00001000
00001000
00000000
,
00011000
00000000
00101000
00000000
00100000
00100000
01000000
00010000
,
00001000
00001000
00000100
00000010
00000000
00001000
00000100
00001000
,
00000000
00000001
00000100
00000001
00000000
00001000
00000010
00001000
,
00000100
00000100
00010000
00001000
00000000
00010000
01000000
00010000
,
00000000
01000000
10000000
01000000
00000000
10000000
00010000
01000000
,
00001000
00001000
00010000
00010000
00000000
00000100
00001000
00001000
,
00000000
00000010
00001000
00001000
00000000
00001000
00000001
00001000
,
00000200
00020300
02030000
23000000
,
30010000
01000000
00100000
00020000
00000000
00000000
00001000
00031000
,
00002000
01000000
00000000
01000000
00000000
00010000
00000000
01003000
,
00020000
00000100
00000000
00000100
00000000
00001000
00000000
00030100
,
00002000
00100000
00000000
00100000
00000000
00010000
00000000
00103000
,
00100000
00010000
00001000
00000100
00000000
00010000
00010000
00001000
,
00020000
00000010
00000000
00000100
00000000
00001000
00031000
00000000
,
00002000
00100000
00000000
01000000
00000000
00010000
00013000
00000000
,
00020000
00100000
00000000
10000000
00000000
00100000
00130000
00000000
,
00010000
00010000
00001000
00001000
00000000
00010000
00001000
00000000
,
00022000
00000000
00000000
00000000
00033000
00001000
00000100
00000001
,
00000010
00000000
00000000
00000000
00000001
00000000
00000000
00000010
00000100
00000000
00001000
00000000
00000100
00000000
00000000
00000000
,
00021000
00001000
00001000
00031000
,
00011000
00000000
00010000
00010000
00001000
00000100
00000010
00000000
,
00011000
00000000
00001000
00001000
00010000
01000000
00100000
00000000
,
00110000
00000000
00100000
00100000
00001000
00010000
00100000
01000000
,
00020000
00230000
02300000
03010000
,
00011000
00000000
00010000
00010000
00001000
00000100
00000010
00000000
,
00000011
00000000
00000100
00000100
00001000
00010000
00100000
00000000
,
00100000
00011000
00000100
00011000
,
00021000
00031000
00110000
01100000
,
20000000
00000000
00000000
00010000
00000000
01000000
31000000
00000000
,
00020000
00000000
00000000
10000000
00000000
00100000
00130000
00000000
,
00002000
00000000
00000000
00100000
00000000
00010000
00013000
00000000
,
00011000
00000000
00010100
00000000
00000100
00001000
00000100
00000000
,
00000100
00000010
00000000
00001000
00000000
00010000
00010000
00000000
,
01000000
00100000
00000000
00001000
00000000
00010000
00010000
00000000
,
00010000
00001000
00000000
00000100
00000000
00000001
00000001
00000000
,
00000001
00000100
00001000
00010000
00000000
01000000
00100000
00001000
,
00010000
00001000
00020000
00000000
00000000
00000000
00000000
00000000
,
00000000
00000000
00000000
00000000
,
00030000
00000000
00000000
00000000
,
00000000
00000000
00000000
00000000
;
#NOTES:
     dance-double:
     :
     Hard:
     14:
     :
00000000
00000000
00000000
00000000
,
00000000
00000000
00000000
00000000
,
00000000
00000000
00000000
00000000
,
00000000
00000000
10000000
01000000
10000000
00000000
01000000
00010000
00000000
00010000
00001000
00000000
00020000
00000000
00000000
00000000
,
00030000
00000000
00001000
00000100
00001000
00000000
00000100
00001000
00000000
00001000
00000100
00000000
00000002
00000000
00000000
00000000
,
00000003
00000101
00000001
00000100
00000000
00000110
00000100
00001000
,
00011000
00000000
00000000
00000000
00011000
00000000
00000000
00001000
00010000
00000000
01000000
00100000
01000000
00000000
00010000
00000000
,
01010000
00000000
00000000
00000000
10000000
00000000
01000000
00010000
00000000
00001000
00000100
00000000
00000100
00000000
00000000
00000000
,
00001100
00000000
00000000
00000000
00000001
00000000
00000100
00001000
00000000
00010000
01000000
00000000
01000000
00000000
00000000
00000000
,
01100000
00000000
00000000
00000000
00010000
00000000
00001000
00000100
00000000
00000010
00001000
00000000
00001000
00000000
00000100
00000000
,
00010010
00000000
00000000
00000000
00011000
00000000
00000000
00001000
00010000
00000000
00010000
01000000
00100000
00000000
01000000
00000000
,
01100000
00100000
00110000
00010000
00011000
00001000
00001100
00000100
,
00000110
00000010
00000011
00000001
00000110
00000100
00010100
00010000
,
00011000
00001000
00101000
00001000
00011000
00010000
00010010
00010000
,
00010000
01000000
00010000
01000000
10000000
00100000
10000000
00100000
01000000
00000000
10010000
00000000
10100000
00000000
00110000
00000000
,
00010000
00000000
00010000
00001000
00010000
00000000
00000100
00001000
00000100
00000000
00000010
00000000
00000011
00000000
00000000
00000000
,
00000010
00000000
00000010
00000100
00000010
00000000
00001000
00010000
00001000
00000000
00100000
00000000
00110000
00000000
00000000
00000000
,
00100000
00000000
00001000
00100000
00001000
00000000
00100000
00001000
00100000
00000000
00001000
00000000
00011000
00000000
00000000
00000000
,
00010100
00000000
00000000
00000000
00001100
00000000
00000000
00001000
00000001
00000000
00000001
00000000
00000100
00000000
00001000
00000000
,
00010000
00000000
00100000
10000000
01000000
00000000
00100000
00010000
01000000
00000000
00100000
00000000
10010000
00000000
00000000
00000000
,
10000000
00000000
00100000
00010000
00001000
00000000
00010000
00001000
00000100
00000000
00000010
00000000
00001001
00000000
00000000
00000000
,
00000100
00000000
00000100
00000000
00010000
00000000
00010000
00000000
00000000
00010000
00001000
00000000
00011000
00000000
00000000
00000000
,
10100000
00000000
00000000
00000000
10100000
00000000
00000000
01000000
00000000
00000000
00100000
00010000
00001000
00000000
00100000
00000000
,
01000000
00000000
10000000
01000000
00000000
00000000
00010000
00100000
00000000
00000000
00010000
00001000
00000000
00000000
00010000
00000100
,
00000000
00000000
00000100
00000001
00000000
00000000
00000100
00000010
00000000
00000000
00000001
00000010
00001000
00010000
01000000
10000000
,
00000000
00000000
10000000
00100000
00000000
00000000
01000000
00100000
00000000
00000000
00100000
00010000
00000000
00000000
00100000
00001000
,
00000000
00000000
00001000
00100000
00000000
00000000
00010000
00001000
00000000
00000000
00001000
00000100
00000010
00001000
00000100
00000010
,
00000000
00000000
00000001
00000010
00000000
00000000
00001000
00010000
00000000
00000000
01000000
00100000
00000000
00000000
00010000
10000000
,
00000000
00000000
01000000
00010000
00000000
00000000
00100000
01000000
00000000
00000000
00100000
00010000
00000000
00000000
00100000
00001000
,
00000000
00000000
00010000
00001000
00000000
00000000
00010000
00000100
00000000
00000000
00000100
00000010
00000000
00000000
00000001
00001000
,
00000100
00000000
00011000
00000000
00010000
00000000
00101000
00000000
00000000
00011000
00000000
00000000
01010000
00000000
00100000
00000000
,
01000000
00000000
11000000
00000000
00000000
00000000
01010000
00000000
00000000
00000000
00011000
00000000
00000000
00000000
00000100
00010000
,
00001000
00001010
00000000
00000110
00000000
00000101
00001000
00010000
,
00001000
00000000
00110000
00000000
00000000
00000000
01100000
00000000
00000000
00000000
10100000
00000000
00000000
00000000
00100000
00010000
,
01000000
00000000
01010000
00000000
00100000
00000000
00011000
00000000
00000000
00001000
00000000
00001000
00010000
00001000
00010000
00001000
,
00010000
00000000
00010000
01000000
00100000
00000000
00010000
00100000
00010000
00000000
00100000
00000000
01010000
00000000
00000000
00000000
,
00010000
00000000
00100000
00001000
00100000
00000000
00001000
00010000
00000010
00000000
00000100
00000000
00001010
00000000
00000000
00000000
,
00000100
00000000
00001000
00000100
00010000
00000000
00001000
01000000
00010000
00000000
10000000
00000000
01100000
00000000
00000000
00000000
,
00010000
00100000
10000000
01000000
00000000
00010000
00011000
00000000
,
00022000
00000000
00000000
00000000
00003000
00001000
00001000
00030100
,
00011000
00000000
00000000
00000000
00001100
00000000
00000000
00000001
00000100
00000000
00000010
00001000
00000010
00000000
00000000
00000000
,
00010020
00000000
00010000
00000000
00010000
00000000
00010000
00000030
,
00001100
00000000
00001000
00000100
00000010
00000000
00000100
00010000
00000000
00010000
00000100
00000000
00010100
00000000
00001000
00000000
,
00110000
00000000
00010000
00100000
01000000
00000000
10000000
01000000
00000000
01000000
10000000
00000000
10010000
00000000
00010000
00000000
,
00101000
00010000
00001000
00001000
00000000
00000100
00010010
00000100
,
00001000
00000000
00000000
00000000
00001000
00000000
00000000
00000010
00001000
00000000
00000100
00010000
00000100
00000000
00001000
00000000
,
00010100
00000000
00001000
00010000
01000000
00000000
00010000
01000000
00000000
01000000
00010000
00000000
01010000
00000000
00000000
00000000
,
01100000
00000000
00010000
00100000
01000000
00000000
00010000
00001000
00000000
00001000
00000100
00000000
00000001
00000000
00000100
00000000
,
00000010
00000010
00001010
00000010
00000000
00001100
00001000
00011000
,
00100000
00000000
00000000
00000000
00110000
00000000
00000000
00010000
00100000
00000000
00010000
00000000
00100000
00000000
00001000
00000000
,
00010000
00000000
00010000
00000100
00000000
00000000
00001000
00000100
00000000
00000000
00000110
00000000
00001010
00000000
00000000
00000000
,
00011000
00000000
00001000
01000000
00000000
00000000
00010000
01000000
00000000
00000000
11000000
00000000
01100000
00000000
00000000
00000000
,
00010000
00000000
00100000
01000000
00000000
00000000
00001000
00100000
00000000
00000000
00101000
00000000
00011000
00000000
00000000
00000000
,
00001010
00000000
00000000
00000000
00001100
00000000
00000000
00001000
00000100
00000000
00010000
00001000
00010000
00000000
00000100
00000000
,
00011000
00000000
00010000
00000000
00001000
00000000
00100000
00010000
00000000
00000000
00100000
00000000
01010000
00000000
00000000
00000000
,
10100000
00000000
00100000
00000000
00010000
00000000
00010000
00001000
00000000
00000000
00000100
00000000
00000011
00000000
00000000
00000000
,
00000101
00000000
00000100
00000000
00001000
00000000
00001000
00010000
00000000
00000000
00100000
00000000
01010000
00000000
00000000
00000000
,
00011000
00000000
00001100
00000010
00000000
00000010
00000001
00000010
,
00001000
00010000
00002200
00000000
00000000
00000000
00000000
00000000
,
00000000
00000000
00000000
00000000
00003300
00000000
00000001
00000010
00001000
00000000
00010000
00000000
00100000
10000000
01000000
00010000
,
00000000
00000000
00000000
00000000
;
