
//----- song id: nekn
#TITLE:neko*neko;
#ARTIST:日向美ビタースイーツ♪;
#ARTISTTRANSLIT:Hinatabi Bitter Sweets♪;
#BANNER:neko neko.png;
#BACKGROUND:neko neko-bg.png;
#CDTITLE:./CDTitles/DDR (2014).png;
#MUSIC:neko neko.ogg;
#SAMPLESTART:72.195;
#SAMPLELENGTH:15;
#BPMS:0=123;
#NOTES:
     dance-single:
     :
     Beginner:
     2:
     :
0000
0000
0000
0000
,
0000
0000
0000
0000
,
0000
0000
0000
0000
,
0000
0000
0000
0000
,
0000
0000
0000
0000
,
0010
0000
0000
0000
,
0001
0000
0000
0000
,
1000
0000
0000
0000
,
0100
0000
0000
0000
,
0001
0000
0001
0000
,
1000
0000
1000
0000
,
0010
0000
0010
0000
,
0200
0300
0000
0000
,
0010
0000
0000
0000
,
1000
0000
0000
0000
,
0001
0000
0000
0000
,
0100
0000
0000
0000
,
1000
0000
1000
0000
,
0001
0000
0001
0000
,
0010
0000
0010
0000
,
0200
0300
0000
0000
,
0001
0000
0000
0000
,
1000
0000
0000
0000
,
0010
0000
0000
0000
,
0010
0000
0000
0000
,
1000
0000
0000
0000
,
0001
0000
0000
0000
,
0010
0000
0000
0000
,
0010
0000
0000
0000
,
1000
0000
1000
0000
,
0002
0003
0000
0000
,
0010
0000
0010
0000
,
2000
3000
0000
0000
,
0001
0000
0001
0000
,
2000
3000
0000
0000
,
0010
0000
0010
0000
,
0002
0003
0000
0000
,
1000
1000
0000
0000
,
0010
0010
0000
0000
,
0001
0001
0000
0000
,
0100
0000
0000
0000
,
0010
0000
0000
0000
,
1000
0000
0000
0000
,
0100
0000
0000
0000
,
0001
0000
0000
0000
,
0001
0001
0000
0000
,
0010
0010
0000
0000
,
1000
1000
0000
0000
,
0100
0000
0000
0000
,
0010
0000
0000
0000
,
0001
0000
0000
0000
,
0100
0000
0000
0000
,
1000
0000
0000
0000
,
0002
0003
0000
0000
,
2000
3000
0000
0000
,
0010
0000
0000
0000
,
1000
0000
1000
0000
,
0010
0000
0000
0000
,
0001
0000
0001
0000
,
0000
0000
0000
0000
;
#NOTES:
     dance-single:
     :
     Easy:
     5:
     :
0000
0000
0000
0000
,
0000
0000
0000
0000
,
0000
0000
0000
0000
,
0000
0000
0000
0000
,
0000
0000
0000
0000
,
0001
0000
0010
0100
,
1000
0000
0010
0100
,
0002
0000
1003
0000
,
0001
0100
0010
1000
,
0001
0000
0100
0100
,
0010
0000
1000
1000
,
0100
0000
0010
0000
,
0002
0000
0003
0000
,
1000
0000
0010
0100
,
0001
0000
0010
0100
,
2000
0000
3001
0000
,
1000
0100
0010
0001
,
1000
0000
0100
0100
,
0010
0000
0001
0001
,
0100
0000
0010
0000
,
2000
0000
3000
0000
,
0001
1000
0100
0000
,
0010
0001
0100
0000
,
0001
0000
1000
0000
,
0100
0000
0010
0001
,
0100
0010
0100
0000
,
0001
1000
0001
0000
,
1001
0000
0100
0000
,
1001
0000
0010
0000
,
1000
0001
0100
0000
,
0010
1000
0100
0000
,
1000
0000
0001
0000
,
0100
0000
0010
1000
,
0100
0010
0100
0000
,
1000
0001
1000
0000
,
1001
0000
0100
0000
,
1001
0000
0010
0000
,
0001
0001
1000
0000
,
0020
0000
1030
0010
,
0100
0100
0001
0000
,
0020
0000
0031
0010
,
0001
0100
0010
1000
,
0001
0000
1000
0000
,
0100
1000
0100
0000
,
0010
0000
0001
0000
,
1000
1000
0001
0000
,
0020
0000
0031
0010
,
0100
0100
1000
0000
,
0020
0000
1030
0010
,
1000
0100
0010
0001
,
1000
0000
0001
0000
,
0100
0001
0100
0000
,
0010
0000
1000
0000
,
0001
0100
0001
0000
,
1000
0100
1000
0000
,
0010
0000
0100
0000
,
0001
1001
0000
0000
,
0010
0000
0100
0000
,
1000
2002
0000
0000
,
0000
0000
3003
0000
,
0000
0000
0000
0000
;
#NOTES:
     dance-single:
     :
     Medium:
     9:
     :
0000
0000
0000
0000
,
0000
0000
0000
0000
,
0000
0000
0000
0000
,
0000
0000
0000
0000
,
0000
0000
0000
0000
,
0001
0010
0001
0000
1000
0100
1000
0000
,
0001
0000
0010
0000
0100
1000
0100
0000
,
1000
0000
0001
0000
0100
0001
0100
0000
,
0002
0010
1000
0103
,
1000
0000
0001
0000
1000
0100
0010
0000
,
0100
0000
1000
0000
0010
0100
0001
0000
,
1000
0100
0010
0000
0001
0100
0010
0000
,
0200
0000
0001
0310
,
1000
0010
1000
0000
0001
0100
0001
0000
,
1000
0000
0010
0000
0100
0001
0100
0000
,
0001
0000
1000
0000
0100
1000
0100
0000
,
2000
0010
0001
3100
,
0001
0000
1000
0000
0001
0100
0010
0000
,
0100
0000
0001
0000
0010
0100
1000
0000
,
0001
0100
0010
0000
1000
0100
0010
0000
,
0200
0000
1000
0310
,
0100
0010
0001
0000
1000
0000
0100
0010
,
0001
0000
1000
0100
0010
0000
1001
0000
,
0000
0001
0100
0010
1000
0100
0010
0001
,
0100
0020
0000
0000
1000
0000
0130
0000
,
1000
0010
1000
0000
0001
0000
0100
0010
,
0100
0000
0001
1000
0010
0000
0110
0000
,
1000
0100
0010
0000
0100
0000
1000
0001
,
0100
0010
0000
1000
0010
0000
0000
0000
,
0100
0000
0010
1000
0001
0000
0100
0010
,
1000
0001
0000
0100
0010
1000
0001
0000
,
1000
0100
0010
0001
0000
0100
0010
0000
,
2000
0010
0001
3100
,
0001
0010
0001
0000
1000
0000
0100
0000
,
0010
0100
1000
0000
0001
0010
0100
0000
,
2000
0000
3200
0000
,
0320
0000
0001
0130
,
0010
0001
0010
0001
1000
0000
0100
0010
,
0001
0000
0100
0000
0010
0000
1000
0001
,
0100
0001
0100
0001
1000
0000
0001
0100
,
0010
1000
0100
0010
0001
0000
1001
0000
,
1000
0010
0100
0001
0010
0000
0100
0000
,
1000
0100
0010
0001
0000
0010
0100
1000
,
0000
0100
0010
0001
1000
0100
0000
2000
,
0000
0010
0001
3100
0000
0001
1000
0000
,
0010
1000
0010
1000
0001
0000
0100
0010
,
1000
0000
0100
0000
0010
0000
0001
1000
,
0100
1000
0100
1000
0001
0000
1000
0100
,
0010
0001
0100
0010
1000
0000
1001
0000
,
0001
0010
0100
1000
0010
0000
0100
0000
,
0001
0100
0010
1000
0000
0010
0100
0001
,
0000
0100
0010
1000
0000
0001
0100
0002
,
0000
0010
1000
0103
0000
1000
0001
0000
,
0010
0000
0001
0000
1001
0000
1000
0100
,
0000
0010
0001
1000
0100
0010
0000
0001
,
2000
0000
0000
0001
3002
0000
0000
0013
,
0000
0100
1000
0000
0001
1000
0001
0000
,
0002
0000
0000
1000
2003
0000
0000
3010
,
0000
0100
0002
0000
0000
0000
0000
0000
,
0000
0000
0000
0000
0000
0003
0000
0000
,
0000
0000
0000
0000
;
#NOTES:
     dance-single:
     :
     Hard:
     11:
     :
0000
0000
0000
0000
,
0000
0000
0000
0000
,
0000
0000
0000
0000
,
0000
0000
0000
0000
,
0000
0000
0000
0000
,
0001
0100
0010
1000
0100
0010
0001
0100
,
0001
1000
0010
0100
0001
0010
0100
1000
,
0001
0100
1000
0100
0010
0100
0001
0010
,
0100
1000
0110
0001
0110
1000
0110
0001
,
0010
0000
0010
0100
0000
0100
2000
0000
0001
0000
3001
0000
1000
0000
0001
0000
,
0100
0000
0100
0010
0000
0010
0002
0000
0010
0000
0013
0000
1000
0000
0100
0000
,
0010
0000
0010
0100
0000
0100
2000
0000
0001
0000
3001
0000
1000
0000
0010
0000
,
0100
0001
0010
0100
1000
0001
1001
0000
,
1000
0100
0010
0001
0100
0010
1000
0100
,
1000
0001
0010
0100
1000
0010
0100
0001
,
1000
0100
0001
0100
0010
0100
1000
0010
,
0100
0001
0110
1000
0110
0001
0110
1000
,
0010
0000
0010
0100
0000
0100
0002
0000
1000
0000
1003
0000
0001
0000
1000
0000
,
0100
0000
0100
0010
0000
0010
2000
0000
0010
0000
3010
0000
0001
0000
0100
0000
,
0010
0000
0010
0100
0000
0100
0002
0000
1000
0000
1003
0000
0001
0000
0010
0000
,
0100
1000
0010
0100
0001
1000
1001
0000
,
1000
0100
0010
0001
1000
0010
0100
0001
,
0010
0000
0100
1000
0000
0001
0010
0000
0100
0000
0010
0000
1001
0000
0000
0000
,
1000
0001
0010
0100
0001
0100
1000
0002
,
0100
1000
1000
0010
0010
1003
1001
0000
,
0001
1000
0010
0100
0001
1000
0100
0010
,
0001
1000
0010
0100
0001
0010
0100
1000
,
0001
0100
0110
0000
1001
0000
1000
0100
,
0010
0001
0100
0010
1000
0001
1001
0000
,
2000
0000
0010
0010
0000
0000
0001
0001
,
0000
0000
0100
0100
3001
0001
1001
0000
,
0002
0000
0010
0010
0000
0000
1000
1000
,
0000
0000
0100
0100
1003
1000
1001
0000
,
0010
1000
0001
0000
1000
0001
1001
0000
,
0100
0001
1000
0000
0001
1000
1001
0000
,
2000
0010
0000
3010
0200
0001
0000
0301
,
2000
0000
0000
0000
0000
0000
0000
0000
3001
0010
0000
0000
0001
0010
0000
0000
,
0001
1000
0100
0010
0001
0010
0100
1000
,
0010
0000
0000
0000
0100
0000
0000
0000
0001
0000
0000
0000
1000
0000
0000
0000
0100
0000
0000
0000
0010
0000
0000
0000
0001
0000
0000
1000
0001
0000
0000
0000
,
0010
0100
1000
0100
0001
0100
1000
0100
,
0010
0001
1000
0001
1001
0000
0110
0000
,
0001
0010
0100
1000
0001
0100
0010
1000
,
0001
0010
1000
0010
0001
0100
1000
0100
,
0001
0001
0010
0010
1000
0010
0001
0100
,
0010
0010
1000
1000
0100
0010
1001
0000
,
1000
0001
0100
0010
1000
0010
0100
0001
,
0010
0000
0000
0000
0100
0000
0000
0000
1000
0000
0000
0000
0001
0000
0000
0000
0100
0000
0000
0000
0010
0000
0000
0000
1000
0000
0000
0001
1000
0000
0000
0000
,
0010
0100
0001
0100
1000
0100
0001
0100
,
0010
1000
0001
1000
1001
0000
0110
0000
,
1000
0010
0100
0001
1000
0100
0010
0001
,
1000
0010
0001
0010
1000
0100
0001
0100
,
1000
1000
0010
0010
0001
0010
1000
0100
,
0010
0010
0001
0001
0100
0010
1001
0000
,
0001
1000
0010
0100
0001
0010
0100
1000
,
0010
0100
0001
1000
0100
0010
0001
0010
,
0200
0000
1000
1300
0002
0000
0010
0013
,
0000
0000
0000
0000
0100
0000
0000
0000
0100
0000
0000
0000
0000
0000
0000
0000
1000
0000
0000
0001
1000
0000
0000
0000
0010
0000
0000
0100
0010
0000
0000
0000
,
2000
0000
0001
3001
0020
0000
0100
0130
,
0000
2000
0002
0000
0000
0000
0000
0000
,
0000
0000
0000
0000
0000
3003
0000
0000
,
0000
0000
0000
0000
;
#NOTES:
     dance-single:
     :
     Challenge:
     14:
     :
0000
0000
0000
0000
,
0000
0000
0000
0000
,
0000
0000
0000
0000
,
0000
0000
0000
0000
,
0000
0000
0000
0000
0000
0000
0000
0000
0000
0000
0000
0000
0000
0010
0001
0000
,
1000
0000
0001
0000
0100
0000
0001
0000
0010
0001
0000
1000
0001
0000
0100
0000
,
0001
0000
0010
0000
0100
0000
1000
0000
0010
0100
0000
0001
1000
0000
0100
0000
,
1000
0010
0100
0001
0010
0100
1000
0100
,
0010
0000
0100
0000
0001
0000
0100
0000
1000
0000
0000
0100
1000
0000
0000
0000
,
1100
0000
0000
0011
0000
0000
0100
0000
1000
0010
0100
0001
0010
0001
0100
0000
,
0010
0000
0000
0100
0000
0000
0010
1000
0010
0100
0001
0100
0001
0000
0000
0000
,
0000
0010
0100
1000
0100
1000
0010
0100
0001
0100
0010
0100
1000
0100
0010
0100
,
0001
0000
0000
0110
0000
0000
0011
0000
1000
0100
0010
0001
0010
0001
0100
0000
,
0001
0000
1000
0000
0100
0000
1000
0000
0010
1000
0000
0001
1000
0000
0100
0000
,
1000
0000
0010
0000
0100
0000
0001
0000
0010
0100
0000
1000
0001
0000
0100
0000
,
0001
0010
0100
1000
0010
0100
0001
0100
,
0010
0000
0100
0000
1000
0000
0100
0000
0001
0000
0000
0100
0001
0000
0000
0000
,
0101
0000
0000
1010
0000
0000
0100
0000
0001
0010
0100
1000
0010
1000
0100
0000
,
0010
0000
0000
0100
0000
0000
0010
0001
0010
0100
1000
0100
1000
0000
0000
0000
,
0000
0010
0100
0001
0100
0001
0010
0100
1000
0100
0010
0100
0001
0100
0010
0100
,
1000
0000
0000
0110
0000
0000
1010
0000
0001
0100
0010
1000
0010
1000
0100
0000
,
1000
0000
0001
0000
0100
0000
0010
0000
1000
0000
0000
1010
0000
0000
0101
0000
,
1000
0000
0000
0100
0000
0000
0010
0000
1001
0000
0000
0000
0101
0000
0000
0000
,
0010
0000
1000
0000
0010
0100
0010
0000
0100
0000
0001
1000
0001
0000
0100
0000
,
0001
0000
0010
0000
0100
0000
1000
0000
0010
1000
0010
0000
0000
0100
0000
0000
,
0001
0000
1000
0000
0100
0000
0010
0000
0001
0100
0000
0010
0000
0000
0110
0000
,
0000
1000
0100
0010
0100
1000
0001
0100
,
0010
0000
1000
0100
1000
0000
0000
0000
1001
0000
0000
0000
0100
0000
0001
0000
,
1000
0000
0100
0010
0100
0000
1000
0000
0010
1000
0010
0100
0000
0001
0000
0000
,
1000
0000
0010
0000
0100
0000
0001
0100
0001
0000
0000
0000
1000
0000
0100
0000
,
0010
0100
0010
0000
0000
0000
0001
0100
0001
0000
0100
0000
0010
0000
1000
0000
,
0001
0000
0100
0000
0010
0100
0010
0000
0000
0000
1001
0000
0000
0000
0001
1000
,
0100
0000
0000
0000
0010
0000
0000
0000
0100
0010
0100
0000
1000
0100
1000
0000
,
0001
0000
0000
0000
1000
0010
0100
0000
0001
0000
0100
0000
0010
0000
0000
0000
,
1000
0000
0000
0000
0001
0010
0100
0000
1000
0000
0100
0000
0010
0000
0000
0000
,
0001
0000
0000
0000
1000
0010
1000
0000
0100
0000
0000
0000
0010
0001
0010
0000
,
0100
0000
0000
0000
0000
0000
0000
0000
1000
0100
0010
0000
0001
0100
0010
0000
,
0100
0000
0001
0000
0100
0000
1000
0000
0100
0001
0000
1000
0000
0000
0100
0000
,
0010
0000
0001
0000
1000
0000
0001
0000
0010
0001
0000
1000
0100
0000
1000
0000
,
0010
0000
1000
0000
0010
0000
0001
0000
0010
1000
0000
0001
0000
0000
0100
0000
,
0001
0000
1000
0000
0001
0000
0010
0001
0010
0000
0100
0000
0000
1001
0000
0000
,
1000
0000
0100
0000
0001
0000
0100
0000
0010
0001
0000
1000
0000
0000
0100
0000
,
1000
0000
0001
0100
0001
0000
1000
0000
0000
0000
0010
0000
0100
0000
0001
0000
,
0000
0000
0010
0000
0001
0000
1000
0100
1000
0000
0001
0000
0000
0000
1001
0000
,
0000
0000
1000
0000
0010
0000
0001
0000
0010
0000
1000
0000
0000
0001
1000
0000
,
0100
0000
1000
0000
0100
0000
0001
0000
0100
1000
0000
0001
0000
0000
0100
0000
,
0010
0000
1000
0000
0001
0000
1000
0000
0010
1000
0000
0001
0100
0000
0001
0000
,
0010
0000
0001
0000
0010
0000
1000
0000
0010
0001
0000
1000
0000
0000
0100
0000
,
1000
0000
0001
0000
1000
0000
0010
1000
0010
0000
0100
0000
0000
1001
0000
0000
,
0001
0000
0100
0000
1000
0000
0100
0000
0010
1000
0000
0001
0000
0000
0100
0001
,
1000
0100
1000
0001
0000
0010
0100
1000
,
0000
0010
1000
0001
0000
0100
0001
1000
,
0000
0000
0001
0000
0010
0000
1000
0000
0010
0000
0001
0000
0000
1000
0001
0000
,
1000
0000
0100
1000
0001
0000
0100
0001
0100
0000
0000
0000
0001
0000
0010
0000
,
0000
0000
0100
1000
0001
0000
0010
0000
0100
0000
1000
0000
0010
0100
0010
0000
,
1000
0000
0000
0000
0001
0100
0001
0000
1000
0000
0100
0000
0010
0000
0001
0000
,
0000
0000
1000
0000
0010
0000
1000
0100
1000
0000
0010
0000
0100
0001
0100
0000
,
0001
0000
0000
0000
1000
0100
1000
0000
0001
0000
0100
0000
0010
0000
1000
0000
,
0000
0001
0020
0000
0000
0000
0000
0000
,
0000
0000
0000
0000
0000
0030
0000
0000
,
0000
0000
0000
0000
;
#NOTES:
     dance-double:
     :
     Easy:
     3:
     :
00000000
00000000
00000000
00000000
,
00000000
00000000
00000000
00000000
,
00000000
00000000
00000000
00000000
,
00000000
00000000
00000000
00000000
,
00000000
00000000
00000000
00000000
,
00001000
00000000
00000010
00000000
,
00000001
00000000
00000100
00000000
,
00001000
00000000
00010000
00000000
,
00100000
00100000
10000000
00000000
,
01000000
00000000
00100000
00000000
,
00010000
00000000
10000000
00000000
,
01000000
00000000
00010000
00000000
,
00002000
00000000
00003000
00000000
,
00010000
00000000
00100000
00000000
,
10000000
00000000
01000000
00000000
,
00010000
00000000
00001000
00000000
,
00000010
00000010
00000001
00000000
,
00000100
00000000
00000010
00000000
,
00001000
00000000
00000001
00000000
,
00000100
00000000
00001000
00000000
,
00020000
00000000
00030000
00000000
,
01000000
00000000
10000000
00000000
,
00100000
00000000
01000000
00000000
,
00010000
00000000
10000000
00000000
,
02000000
00000000
03000000
00000000
,
00010000
00000000
00000010
00000000
,
00001000
00000000
00000001
00000000
,
00000200
00000000
00000300
00000000
,
00001000
00010000
00001000
00000000
,
00000100
00000000
00000001
00000000
,
00000010
00000000
00000100
00000000
,
00001000
00000000
00000001
00000000
,
00000200
00000000
00000300
00000000
,
00001000
00000000
00100000
00000000
,
00010000
00000000
10000000
00000000
,
02000000
00000000
03000000
00000000
,
00010000
00000000
00001000
00000000
,
00010000
00010000
00001000
00000000
,
00000010
00000000
00000001
00000000
,
00000100
00000100
00001000
00000000
,
00010000
00000000
01000000
00000000
,
10000000
10000000
00100000
00000000
,
01000000
00000000
00010000
00000000
,
00200000
00000000
01300000
00000000
,
00010000
00000000
00001000
00000000
,
00001000
00001000
00010000
00000000
,
00100000
00000000
10000000
00000000
,
01000000
01000000
00010000
00000000
,
00001000
00000000
00000100
00000000
,
00000001
00000001
00000010
00000000
,
00000100
00000000
00001000
00000000
,
00000020
00000000
00000130
00000000
,
00001000
00000000
00010000
00000000
,
00001000
00010000
00001000
00100000
,
00001000
00010000
00001000
00000100
,
00002000
00010000
00000000
00100000
,
00000000
00013000
00000000
00000000
,
00020000
00001000
00000000
00000010
,
00000000
00031000
00000000
00000000
,
00000000
00000000
00000000
00000000
;
#NOTES:
     dance-double:
     :
     Medium:
     9:
     :
00000000
00000000
00000000
00000000
,
00000000
00000000
00000000
00000000
,
00000000
00000000
00000000
00000000
,
00000000
00000000
00000000
00000000
,
00000000
00000000
00000000
00000000
,
00001000
00000000
00010000
00000000
01000000
10000000
00100000
00000000
,
01000000
00000000
00010000
00000000
10000000
01000000
00010000
00000000
,
00001000
00000000
00000100
00000000
00000001
00000010
00000100
00000000
,
00002000
00000010
00000001
00003100
,
00010000
00000000
00001000
00000000
00100000
01000000
10000000
00000000
,
00100000
00000000
01000000
00000000
00001000
00010000
00001000
00000000
,
00000100
00000001
00000010
00000000
00000100
00001000
00000001
00000000
,
00000200
00000000
00000001
00000010
,
00001300
00000000
00010000
00000000
00100000
10000000
01000000
00000000
,
00100000
00000000
00010000
00000000
10000000
01000000
00010000
00000000
,
00001000
00000000
00000010
00000000
00000001
00000100
00000010
00000000
,
00002000
00000100
00000001
00003010
,
00010000
00000000
00001000
00000000
01000000
00100000
10000000
00000000
,
01000000
00000000
00100000
00000000
00001000
00010000
00001000
00000000
,
00000010
00000001
00000100
00000000
00000010
00001000
00000001
00000000
,
00000020
00000000
00000100
00001030
,
00010000
00000000
00100000
00000000
01000000
00010000
10000000
00000000
,
01000000
00100000
00010000
00000000
10000000
00000000
11000000
00000000
,
00010000
00001000
00000100
00000000
00000010
00001000
00000100
00000010
,
00000001
00000000
00001000
00000000
00000010
00010000
00001000
00000000
,
00010000
00000000
01000000
00000000
10000000
00100000
01000000
00000000
,
00010000
00100000
01000000
00000000
10000000
00000000
00110000
00000000
,
00001000
00010000
00000100
00000000
00000010
00000000
00000001
00001000
,
00000010
00000100
00000000
00000001
00001000
00000000
00000100
00010000
,
00001000
00000000
01000000
00010000
10000000
00000000
00100000
01000000
,
00010000
00000000
10000000
01000000
00100000
00000000
00001000
00000000
,
00010000
00001000
00000100
00000000
00000001
00000010
00000100
00000000
,
00002000
00000010
00000001
00003100
,
00000010
00010000
00001000
00000000
00100000
00000000
01000000
00000000
,
10000000
00100000
01000000
00000000
00001000
00010000
00001000
00000000
,
00000200
00000000
00000302
00000000
,
00000203
00000000
00001300
00010000
,
01000000
10000000
01000000
10000000
01000000
00000000
10000000
00010000
,
01000000
00001000
00010000
00011000
,
00000100
00000001
00000100
00000001
00000100
00000000
00000001
00000010
,
00000100
00000000
00000000
00000000
00010000
00000000
00000000
00000000
00001000
00000000
00010000
00000000
00000000
00011000
00000000
00000000
,
01000000
10000000
01000000
00100000
01000000
00000000
00010000
01000000
,
10000000
00000000
00100000
01000000
00000000
00001000
00010000
00001000
,
00000000
00000010
00000001
00000100
00000010
00001000
00000000
00000001
,
00000000
00000010
00000000
00000100
00000000
00010000
00001000
00000000
,
00100000
00010000
00100000
00010000
01000000
00000000
00100000
10000000
,
00010000
00100000
00001000
00011000
,
00000010
00001000
00000010
00001000
00000010
00000000
00001000
00000100
,
00000010
00000000
00000000
00000000
00001000
00000000
00000000
00000000
00010000
00000000
00001000
00000000
00000000
00011000
00000000
00000000
,
00100000
10000000
00100000
01000000
00100000
00000000
10000000
00100000
,
01000000
00000000
00010000
00100000
00000000
00001000
00010000
00001000
,
00000000
00000100
00000001
00000010
00000000
00000100
00001000
00000001
,
00000000
00000100
00000000
00000010
00000000
00010000
00001000
00000000
,
00010000
00000000
01000000
00000000
10000000
00000000
00100000
01000000
,
00000000
00010000
00100000
00000000
01000000
00010000
00000000
00001000
,
00000200
00000000
00000000
00000001
00000310
00000000
00000000
00001000
,
00000000
00000100
00000010
00000000
00001000
00000000
00010000
00000000
,
02000000
00000000
00000000
10000000
03100000
00000000
00000000
00010000
,
00000000
01000000
00022000
00000000
00000000
00000000
00000000
00000000
,
00000000
00000000
00000000
00000000
00000000
00033000
00000000
00000000
,
00000000
00000000
00000000
00000000
;
#NOTES:
     dance-double:
     :
     Hard:
     12:
     :
00000000
00000000
00000000
00000000
,
00000000
00000000
00000000
00000000
,
00000000
00000000
00000000
00000000
,
00000000
00000000
00000000
00000000
,
00000000
00000000
00000000
00000000
,
00000001
00000010
00001000
00010000
00100000
10000000
00010000
01000000
,
10000000
01000000
00010000
00001000
00010000
00100000
00001000
00010000
,
00001000
00000010
00000001
00000100
00001000
00000100
00000001
00000010
,
00001000
00010000
01000000
10000000
00100000
00010000
00001000
00010000
,
02000000
00000000
00000000
10000000
00000000
00000000
00010000
00000000
00000000
00000000
13000000
00000000
00100000
00000000
00010000
00000000
,
00002000
00000000
00000000
00000010
00000000
00000000
00010000
00000000
00000000
00000000
00003010
00000000
00000001
00000000
00000100
00000000
,
00002000
00000000
00000000
00010000
00000000
00000000
00000010
00000000
00000000
00000000
00013000
00000000
00100000
00000000
10000000
00000000
,
01000000
00010000
00001000
01000000
00100000
10000000
10010000
00000000
,
10000000
00100000
00010000
00001000
00000010
00000001
00001000
00000100
,
00000001
00000100
00001000
00010000
00001000
00000010
00010000
00001000
,
00010000
00100000
10000000
01000000
00010000
01000000
10000000
00100000
,
00010000
00001000
00000100
00000001
00000010
00001000
00010000
00001000
,
00000200
00000000
00000000
00000001
00000000
00000000
00001000
00000000
00000000
00000000
00000301
00000000
00000010
00000000
00001000
00000000
,
00020000
00000000
00000000
00100000
00000000
00000000
00001000
00000000
00000000
00000000
00130000
00000000
10000000
00000000
01000000
00000000
,
00020000
00000000
00000000
00001000
00000000
00000000
00100000
00000000
00000000
00000000
00031000
00000000
00000010
00000000
00000001
00000000
,
00000100
00001000
00010000
00000100
00000010
00000001
00001001
00000000
,
00000001
00000100
00001000
00010000
00001000
00000010
00001000
00010000
,
01000000
10000000
00010000
01000000
00100000
00010000
00001000
00000000
,
00000100
00000001
00000010
00001000
00000001
00000100
00010000
00001000
,
01000000
00100000
10000000
00100000
00010000
00001000
00010000
00000000
,
01000000
10000000
00100000
01000000
00001000
00100000
00010000
00001000
,
00000010
00000100
00000001
00000010
00001000
00010000
00000010
00000100
,
00000001
00000010
00001000
00010000
01000000
00000000
10000000
01000000
,
00010000
00001000
01000000
00010000
10000000
00100000
00010000
00000000
,
00002000
00000010
00000000
00000001
,
00000000
00000010
00013000
00001000
,
00020000
00100000
00000000
10000000
,
00000000
00100000
00031000
00011000
,
00000010
00001000
00010000
00000000
00001000
00010000
00011000
00000000
,
00100000
00010000
00001000
00000000
00010000
00001000
00011000
00000000
,
00001000
00000010
00000000
00000010
00000001
00000100
00000000
00000100
,
00002000
00000000
00013000
00010000
,
00100000
10000000
01000000
00010000
00001000
00000010
00000001
00000100
,
00001000
00000000
00010000
00000000
00001000
00000000
00000010
00000000
00000001
00000000
00000100
00000000
00001000
00010000
00000000
00000000
,
00010000
00100000
10000000
01000000
00010000
00001000
01000000
00100000
,
10000000
00100000
00010000
00001000
00011000
00000000
00001001
00000000
,
00000001
00000010
00001000
00010000
01000000
10000000
00100000
01000000
,
00010000
10000000
00100000
00010000
00000000
00001000
00000010
00000001
,
00000010
00000010
00001000
00001000
00010000
00010000
10000000
01000000
,
00100000
00100000
00010000
00010000
00001000
00001000
00011000
00000000
,
00000010
00000001
00000100
00001000
00010000
00100000
10000000
01000000
,
00010000
00000000
00001000
00000000
00010000
00000000
00100000
00000000
10000000
00000000
01000000
00000000
00010000
00001000
00000000
00000000
,
00001000
00000010
00000001
00000100
00001000
00010000
00000100
00000010
,
00000001
00000010
00001000
00010000
00011000
00000000
10010000
00000000
,
10000000
00100000
00010000
00001000
00000100
00000001
00000010
00000100
,
00001000
00000001
00000010
00001000
00000000
00010000
00100000
10000000
,
00100000
00100000
00010000
00010000
00001000
00001000
00000001
00000100
,
00000010
00000010
00001000
00001000
00010000
00010000
00011000
00000000
,
00100000
10000000
00010000
01000000
00001000
00010000
00001000
00000010
,
00000001
00000100
00001000
00010000
00001000
00100000
01000000
10000000
,
00200000
00000000
00010000
00310000
00002000
00000000
00000010
00003010
,
00000000
00000000
00000000
00000000
00000001
00000000
00000000
00000000
00000001
00000000
00000000
00000000
00000000
00000000
00000000
00000000
00001000
00000000
00000000
00000001
00001000
00000000
00000000
00000000
00000001
00000000
00000000
00000100
00000001
00000000
00000000
00000000
,
00000020
00000000
00001000
00001030
00020000
00000000
00100000
00130000
,
00000000
20000000
00020000
00000000
00000000
00000000
00000000
00000000
,
00000000
00000000
00000000
00000000
00000000
30030000
00000000
00000000
,
00000000
00000000
00000000
00000000
;
#NOTES:
     dance-double:
     :
     Challenge:
     13:
     :
00000000
00000000
00000000
00000000
,
00000000
00000000
00000000
00000000
,
00000000
00000000
00000000
00000000
,
00000000
00000000
00000000
00000000
,
00000000
00000000
00000000
00000000
,
00010000
00000000
00000010
00000000
00001000
00000000
00000100
00000000
00000010
00000001
00000000
00000100
00000010
00000000
00001000
00000000
,
00000100
00000000
00000010
00000000
00000001
00000000
00000100
00000000
00001000
00010000
00000000
01000000
10000000
00000000
00010000
00000000
,
01000000
00100000
20000000
00000000
00000000
00000000
00000000
00000000
01000000
00000000
00010000
00000000
30100000
00000000
00000000
00000000
,
02000000
10000000
00100000
03001000
,
00010000
00000000
00000000
00000100
00000000
00000000
00001000
00000000
00000010
00001000
00000001
00000100
00000010
00000000
00000000
00000000
,
00000010
00000000
00000000
00000100
00000000
00000000
00000001
00000000
00001000
00000100
00000010
00001000
00010000
00000000
00000000
00000000
,
00100000
10000000
01000000
00000000
00100000
00010000
10000000
00000000
01000000
00100000
00010000
00000000
01000000
00000000
00100000
00000000
,
20000000
00010000
00010000
00000000
31000000
00000000
00010000
00001000
,
00010000
00000000
00000100
00000000
00001000
00000000
00000010
00000000
00000100
00000001
00000000
00000010
00000100
00000000
00001000
00000000
,
00000010
00000000
00000100
00000000
00000001
00000000
00000010
00000000
00001000
00010000
00000000
01000000
10000000
00000000
00010000
00000000
,
00100000
01000000
20000000
00000000
00000000
00000000
00000000
00000000
00100000
00000000
00010000
00000000
31000000
00000000
00000000
00000000
,
00200000
10000000
01000000
00301000
,
00010000
00000000
00000000
00000100
00000000
00000000
00001000
00000000
00000010
00001000
00000001
00000100
00000010
00000000
00000000
00000000
,
00000010
00000000
00000000
00000100
00000000
00000000
00000001
00000000
00001000
00000100
00000010
00001000
00010000
00000000
00000000
00000000
,
01000000
10000000
00100000
00000000
01000000
00010000
10000000
00000000
00100000
01000000
00010000
00000000
00100000
00000000
01000000
00000000
,
20000000
00000000
00000000
00010000
00000000
00000000
30010000
00000000
00000000
00000000
01000000
00000000
00001000
00000000
00010000
00000000
,
00000100
00000000
00000010
00000001
00001000
00000000
00000010
00000000
00000100
00000000
00000001
00000010
00000001
00000000
00001000
00000000
,
00000010
00000000
00000100
00000001
00000100
00000000
00000010
00000000
00010000
00000000
00000000
00000000
00011000
00000000
01000000
10000000
,
00010000
01000000
00100000
10000000
01000000
00100000
00010000
01000000
,
00100000
00000000
10000000
00000000
01000000
00100000
01000000
00000000
00010000
00000000
00001000
00000000
00000100
00000010
00000000
00000000
,
00001000
00000000
00000001
00000000
00000010
00000000
00000100
00000000
00001000
00000001
00000000
00000100
00000000
00000000
00000010
00000000
,
00000000
00001000
00000100
00000010
00000001
00000100
00001000
00010000
,
00001000
00010000
00001000
00000000
01000000
00000000
00010000
00000000
10100000
00000000
00000000
00000000
01000000
10000000
01000000
00000000
,
00100000
00010000
00100000
00000000
01000000
00000000
10000000
00000000
00010000
00000000
01000000
00000000
00001000
00000000
00010000
00000000
,
00000010
00000000
00000100
00000001
00000010
00000000
00000100
00000000
00001000
00000000
00000010
00000100
00000001
00000000
00001000
00000000
,
00000100
00000000
00000010
00000001
00000010
00000000
00000100
00000000
00010000
00000000
00000000
00000000
00011000
00000000
00000000
00000000
,
00010000
00000000
01000000
00000000
10000000
00000000
00010000
00000000
01000000
00010000
01000000
00000000
00100000
00000000
10000000
00000000
,
01000000
10000000
01000000
00000000
00100000
00000000
00000000
00000000
00001000
00010000
00001000
00000000
00000010
00000000
00000001
00000000
,
00000100
00000001
00000100
00000000
00000010
00000000
00000000
00000000
00001000
00000001
00001000
00000000
00000100
00000000
00000010
00000000
,
00000001
00000010
00000001
00000000
00000100
00000000
00000010
00000000
00001000
00000000
00000100
00000000
00010000
00001000
00010000
00000000
,
02000000
00000000
10000000
03100000
00020000
00000000
10000000
01030000
,
00022000
00000000
00000000
00000000
00000000
00000000
00033000
00000000
00010000
00001000
00000000
00000000
00000100
00000001
00000000
00000000
,
00001000
00000000
00000100
00000000
00000010
00000000
00000001
00000000
00000100
00000010
00000000
00001000
00000000
00000000
00000100
00000000
,
00000010
00000000
00000001
00000000
00000100
00000000
00000010
00000000
00001000
00000100
00000000
00010000
00001000
00010000
00100000
00000000
,
10000000
00000000
01000000
00000000
00100000
00000000
00010000
00000000
01000000
00100000
00000000
10000000
00000000
00000000
00010000
00000000
,
00100000
00000000
01000000
00000000
10000000
00000000
00100000
00000000
01000000
00000000
00001000
00000000
00000000
00011000
00000000
00000000
,
00000010
00000000
00000001
00000000
00000100
00000000
00000010
00000000
00001000
00000100
00000000
00000010
00000000
00000000
00000001
00000000
,
00001000
00000010
00000100
00000001
00000000
00000100
00001000
00010000
,
01000000
00000000
10000000
00000000
00100000
00000000
01000000
00010000
01000000
00000000
00100000
00000000
00000000
00000000
20000000
00000000
,
00000000
00000000
01000000
00000000
00010000
00000000
30100000
00000000
00000000
00000000
01000000
00000000
00001000
00010000
00000100
00000000
,
00001000
00000000
00000010
00000000
00000100
00000000
00000001
00000000
00000010
00000100
00000000
00001000
00000000
00000000
00000010
00000000
,
00000100
00000000
00000001
00000000
00000010
00000000
00000100
00000000
00001000
00000010
00000000
00010000
00001000
00010000
01000000
00000000
,
10000000
00000000
00100000
00000000
01000000
00000000
00010000
00000000
00100000
01000000
00000000
10000000
00000000
00000000
00010000
00000000
,
01000000
00000000
00100000
00000000
10000000
00000000
01000000
00000000
00100000
00000000
00001000
00000000
00000000
00011000
00000000
00000000
,
00000100
00000000
00000001
00000000
00000010
00000000
00000100
00000000
00001000
00000010
00000000
00000100
00000000
00000000
00000001
00000000
,
00001000
00000100
00000010
00000001
00000000
00000100
00001000
00010000
,
00100000
10000000
01000000
00100000
00010000
01000000
00100000
20000000
,
00000000
00000000
00100000
00000000
00010000
00000000
31000000
00000000
00000000
00000000
00100000
01000000
00000000
00010000
00001000
00000000
,
00000010
00000000
00000011
00000000
00001100
00000000
00000001
00000020
,
00000000
00000000
00000001
00000000
00000100
00000000
00001030
00000000
00010000
00000000
01000000
10000000
00000000
00010000
01000000
00000000
,
00200000
00000000
01000000
10300000
20000000
00000000
00010000
31000000
,
00000000
00000000
00100000
00000000
00010000
00000000
00000000
00000000
00001000
00010000
00000100
00000000
00000010
00000000
00000000
00000000
,
00000002
00000000
00001000
00000103
00000200
00000000
00000010
00002300
,
00000000
00010000
00020000
00000000
00000000
00000000
00000000
00000000
,
00000000
00000000
00000000
00000000
00000000
00033000
00000000
00000000
,
00000000
00000000
00000000
00000000
;
