#TITLE:esrev\:eR;
#ARTIST:TAG meets “eimy”;
#BANNER:esreveR.png;
#BACKGROUND:esreveR-bg.png;
#CDTITLE:./CDTITLES/beatmania IIDX 21 SPADA.png;
#MUSIC:esreveR.ogg;
#SAMPLESTART:55.743;
#SAMPLELENGTH:15;
#BPMS:0=155;
#NOTES:
     dance-single:
     :
     Beginner:
     2:
     :
0000
0000
0000
0000
,
0000
0000
0000
0000
,
0000
0000
0000
0000
,
0000
0000
0000
0000
,
0000
0000
0000
0000
,
1000
0000
1000
0000
,
0001
0000
0001
0000
,
1000
0000
1000
0000
,
0001
0000
0000
0000
,
0010
0010
0010
0000
,
0100
0100
0100
0000
,
0001
0000
0001
0000
,
0001
0001
0001
0000
,
0100
0100
0100
0000
,
0010
0010
0010
0000
,
1000
0000
1000
1000
,
1000
0000
0000
0000
,
0000
0000
0000
0000
,
0000
0000
0000
0000
,
0001
0000
0001
0000
,
1000
0000
1000
0000
,
1000
0000
0000
0000
,
0010
0000
0000
0000
,
0100
0000
0100
0000
,
0001
0000
0001
0000
,
0001
0000
0000
0000
,
1000
0000
0001
0000
,
1000
1000
1000
0000
,
0100
0000
0100
0000
,
0100
0000
0000
0000
,
0001
0000
0000
0000
,
0001
0001
0001
0000
,
0100
0000
0100
0000
,
0100
0000
0010
0000
,
0020
0000
0000
0000
,
0030
0000
0000
0000
,
1000
1000
1000
0000
,
0001
0001
0000
0001
,
0010
0010
0010
0000
,
0100
0100
0000
0100
,
1000
0000
1000
0000
,
0100
0000
0100
0000
,
0001
0000
0001
0000
,
0100
0000
0000
0000
,
0001
0001
0001
0000
,
1000
1000
0000
1000
,
0010
0010
0010
0000
,
0100
0100
0000
0100
,
0001
0000
0001
0000
,
0100
0000
0100
0000
,
1000
0000
1000
0000
,
0010
0000
0010
0000
,
0020
0000
0000
0000
,
0030
0000
0000
0000
,
0100
0000
0100
0000
,
0001
0000
0000
0000
,
1000
0000
1000
0000
,
0001
0000
0000
0000
,
0100
0000
0100
0000
,
0010
0000
0010
0010
,
0020
0000
0000
0000
,
0000
0000
0000
0000
,
0000
0000
0000
0000
,
0000
0000
0000
0000
,
0030
0000
0000
0000
,
0000
0000
0000
0000
;
#NOTES:
     dance-single:
     :
     Easy:
     5:
     :
0000
0000
0000
0000
,
0000
0000
0000
0000
,
0000
0000
0000
0000
,
0000
0000
0000
0000
,
0000
0000
0000
0000
,
0000
1000
0000
1000
,
0000
0001
0000
0001
,
0100
0100
0010
0010
,
0001
1000
1001
0000
,
1000
0100
0010
0100
,
1000
0001
0010
0001
,
1000
0100
0010
0100
,
0010
0010
0001
0100
,
0010
1000
0001
1000
,
0010
0100
0001
0100
,
0020
0000
2030
0000
,
0002
0000
0000
0000
,
3003
0000
0000
0000
,
0000
0000
0000
0000
,
1000
1000
0100
0010
,
0000
1000
1000
0100
,
0010
0001
0100
0000
,
0020
0000
0230
0000
,
0301
0001
0100
0010
,
0000
0001
0001
0100
,
0010
0100
1000
0000
,
0200
0000
0320
0000
,
0130
0100
1001
0000
,
1000
0001
1000
0001
,
1000
0000
0010
0000
,
0100
0100
0100
0000
,
0001
1000
1001
0000
,
0100
0010
0100
0010
,
0100
0000
0001
0000
,
0020
0000
0000
0000
,
0130
0000
0000
1001
,
0010
0001
0100
0001
,
0010
0010
0100
0100
,
0010
1000
0100
1000
,
0010
0100
0110
0000
,
0001
0010
1000
0001
,
0100
1000
0001
0010
,
1000
0001
0010
1000
,
0001
0100
1000
0000
,
0100
1000
0010
1000
,
0100
0100
0010
0010
,
0100
0001
0010
0001
,
0100
0010
1001
0000
,
0001
0100
1000
1000
,
0010
0001
0001
0100
,
1000
1000
0010
0001
,
0200
0000
0020
0330
,
2002
0000
0000
0000
,
0000
0000
0000
0000
,
3003
0100
0000
0100
,
0000
0010
0000
0010
,
1000
1000
1000
1000
,
0010
0010
0010
0010
,
0100
0100
0100
0100
,
0001
1000
1001
1001
,
0220
0000
0000
0030
,
2000
0000
0000
3000
,
0020
0000
0000
0030
,
0002
0000
0000
0000
,
0303
0000
0000
0000
,
0000
0000
0000
0000
;
#NOTES:
     dance-single:
     :
     Medium:
     9:
     :
0000
0000
0000
0000
,
0000
0000
0000
0000
,
0000
0000
0000
0000
,
0000
0000
0000
0000
,
0000
0000
0000
0000
,
1000
1000
0001
0001
,
0100
0100
0010
0010
,
1000
0001
0100
0010
,
1000
0000
0001
0000
0010
0000
0000
0000
1000
0000
0000
1000
0000
0000
1000
0000
,
0001
0100
0100
0000
0010
0000
1000
0000
,
0100
0100
0100
0000
0010
0000
0001
0000
,
1000
0100
0100
0000
0010
0000
0001
0000
,
0001
1000
0010
0000
0010
1000
0010
0000
,
0100
0100
0001
0000
1000
0000
0100
0000
,
0001
0001
1000
0000
0100
0000
1000
0000
,
0020
0000
0130
0000
0001
0100
0010
0000
,
2002
0000
0000
0000
,
3003
0010
0000
0010
,
0000
0010
0000
0010
,
1001
0000
1000
0000
0001
0100
0001
0000
,
0011
0000
0010
0000
1000
0100
1000
0000
,
1000
0001
0100
0010
,
1000
1000
0001
0001
,
0110
0000
0100
0000
0010
1000
0010
0000
,
1100
0000
0001
0000
0010
0001
0010
0000
,
0100
0010
0100
0002
,
0023
0230
2300
3020
,
0130
1001
0100
0000
,
1000
0010
0100
0000
0100
0001
0010
0000
,
0100
0000
0010
0100
,
1000
0001
0010
0000
0010
0100
1000
0000
,
1100
0001
0011
0000
,
0101
1000
1010
0100
,
1001
0000
0010
0100
,
0010
0001
0100
0010
1000
0100
0010
0000
,
0100
0000
0000
0100
0000
0000
0100
0000
0000
0000
0001
0000
1000
0000
0000
0000
,
0001
0100
0010
0000
0010
1000
0100
0000
,
0100
1000
0001
0000
0100
0000
0010
0000
,
1000
0001
0010
0000
0010
0100
1000
0000
,
1000
0001
0100
0000
0010
0000
0100
0000
,
0002
0000
0013
0100
0000
2000
0000
3010
,
0100
0001
1000
0100
,
0001
0100
1000
0000
0001
0010
1000
0000
,
0001
0100
1000
0000
0010
0000
0100
0000
,
0001
0100
0010
0000
0010
1000
0100
0000
,
0100
0010
0001
0000
1000
1000
0001
0000
,
1000
0010
0100
0000
0100
0001
0010
0000
,
0010
0100
1000
0000
0001
0001
1000
0000
,
0020
0000
1030
0001
0000
0200
0000
0301
,
1000
0010
0100
0001
,
1000
0100
1000
0000
0001
0100
0001
0000
,
1000
0100
0010
0001
0100
0010
0100
0010
,
0200
0010
0000
0010
,
0302
0010
0000
0010
,
2003
0010
0000
0010
,
3200
0010
0000
0310
,
0001
0100
0010
0000
0010
1000
0001
0000
,
0001
0010
0100
0000
0100
1000
0001
0000
,
1000
0010
0100
0000
0100
0001
1000
0000
,
1000
0000
0100
0000
0010
0000
0001
0000
0100
0000
0000
0100
0000
0000
0010
0000
,
2000
0000
3200
0000
,
0320
0000
0032
0000
,
0203
0000
0320
0000
,
2030
0000
3002
0000
,
0003
0000
0000
0000
,
0000
0000
0000
0000
;
#NOTES:
     dance-single:
     :
     Hard:
     13:
     :
0000
0000
0000
0000
,
0000
0000
0000
0000
,
0000
0000
0000
0000
,
0000
0000
0000
0000
,
0000
0000
0000
0000
,
1000
0000
0001
0000
1000
0001
0000
1000
0001
0000
1000
0001
0000
1000
0001
0000
,
0100
0000
0001
0000
0100
0001
0000
0100
0001
0000
0100
0001
0000
0100
0001
0000
,
1000
0000
0010
0000
1000
0010
0000
1000
0010
0000
1000
0010
0000
1000
0010
0000
,
0100
0000
0010
0000
0100
0010
0000
0000
0110
0000
0000
0101
0000
0000
1001
0000
,
0010
0000
0001
0000
0100
0000
0001
0000
0010
0000
0001
1000
0000
0010
0100
0000
,
0010
0000
1000
0000
0100
0000
1000
0000
0010
0000
0100
0001
0000
1000
0100
0000
,
0010
0000
0001
0000
1000
0000
0001
0000
0010
0000
0100
1000
0000
0001
0010
0000
,
0100
0000
0010
0000
0100
0000
0010
0100
0000
0010
0100
0000
0010
0000
0100
0000
,
1000
0000
0100
0000
0010
0000
0001
0000
1000
0000
0100
0010
0000
0001
1000
0000
,
0001
0000
0100
0000
0010
0000
1000
0000
0001
0000
0100
0010
0000
1000
0001
0000
,
0100
0010
0100
0010
1000
0001
1000
0001
,
0010
0000
0100
0000
1000
0000
0010
0000
0100
0000
0000
0001
0000
0000
1001
0000
,
0200
0010
0000
0010
,
0000
0010
0000
0310
,
1000
0000
0100
0000
0010
0000
0100
0000
1000
0000
0000
1000
0000
0000
1000
0000
,
0001
0000
0100
0000
0010
0000
0100
0000
0001
0000
0000
0001
0000
0000
0001
0000
,
1000
0000
0000
0010
0000
0000
0010
0000
1000
0000
0000
0100
0000
0000
0100
0000
,
1000
0000
0000
0001
0000
0000
0001
0000
1000
0000
0000
1000
0000
0000
1000
0000
,
0010
0000
0100
0000
1000
0000
0100
0000
0010
0000
0000
0010
0000
0000
0010
0000
,
0100
0000
0001
0000
0010
0000
0001
0000
0100
0000
0000
0100
0000
0000
0100
0000
,
0001
0000
0000
0010
0000
0000
0100
0000
1000
0000
0000
0000
0200
0000
0000
0000
,
0302
0023
2030
3200
,
0310
0000
0001
0000
0000
1100
0000
0000
0001
0000
0000
0010
0000
0000
0001
0000
,
1000
0000
0010
0000
0000
0101
0000
0000
0010
0000
0000
1000
0000
0000
0100
0000
,
0010
0000
0001
0000
0000
0110
0000
0000
1000
0000
0000
0100
0000
0000
0001
0000
,
1000
0000
0001
0000
0000
0110
0000
0000
1000
0000
0000
0010
0000
0000
0001
0000
,
0200
0000
0010
0000
0000
0001
0300
0000
0020
0000
0000
1000
0000
0000
0130
0000
,
0002
0000
0010
0000
0000
0100
0003
0000
2000
0000
0000
0010
0000
0000
3100
0000
,
0020
0000
0001
0000
0000
1000
0030
0000
0200
0000
0000
0001
0000
0000
1300
0000
,
0001
0000
0000
0010
0000
0000
1000
0000
0000
0100
0000
0000
0001
0000
1000
0000
,
1100
0000
0000
0110
0000
0000
0011
0000
0000
0000
1000
0001
0010
0000
0000
0000
,
0001
0000
1000
0000
0001
0000
0010
0001
0000
0010
0001
0000
1000
0000
0010
0000
,
0100
0000
1000
0000
0100
0000
0010
0100
0000
0010
0100
0000
0001
0000
1000
0000
,
0100
0000
0010
0000
0100
0000
1000
0100
0000
1000
0100
0000
0010
0000
0001
0000
,
1000
0000
0010
0000
0100
0000
0010
1000
0000
0010
1000
0000
0100
0000
1000
0000
,
0001
0000
0001
1000
0010
1000
0001
0000
,
1010
0000
1000
0100
0010
0100
1000
0000
,
0001
0100
0001
0001
0100
1000
0100
0100
,
1000
0010
1000
1000
0010
0001
0010
0000
,
0001
0000
0010
0000
0100
0000
1000
0001
0000
0100
0001
0000
0010
0000
0100
0000
,
1000
0100
0001
0010
0001
0100
1000
0001
,
1000
0000
0010
0000
1000
0000
0100
0010
0000
0001
0100
0000
0010
0000
1000
0000
,
0001
0100
1000
0010
1000
0100
0001
0010
,
0100
0000
0000
0001
0100
0000
1000
0000
0010
0000
0100
0000
0010
0000
0000
0000
,
0100
0000
0000
1000
0100
0000
0001
0000
0010
0000
0100
0000
0010
0000
0000
0000
,
0001
1000
0010
0100
0001
1000
0100
0010
,
0001
0000
1000
0001
0010
0000
0000
0000
0110
0000
0000
0110
0000
0000
0110
0000
,
1200
0001
1000
0301
,
1020
0001
1000
0031
,
0200
0000
1000
0000
0000
1000
0000
0000
1000
0000
0000
1000
0000
0000
1300
0000
,
0020
0000
0001
0000
0000
0001
0000
0000
0001
0000
0000
0001
0000
0000
0031
0000
,
1000
0000
0001
0000
1000
0001
0000
1000
0001
0000
1000
0001
0000
1000
0001
0000
,
1000
0000
0010
0000
1000
0010
0000
1000
0010
0000
1000
0010
0000
1000
0010
0000
,
0100
0000
0010
0000
0100
0010
0000
0100
0010
0000
0100
0010
0000
0100
0010
0000
,
0100
0000
0001
0000
0100
0001
0000
0000
0101
0000
0000
1001
0000
0000
1100
0000
,
0200
0000
2000
0300
,
0020
3000
0002
0030
,
0200
0003
2000
0300
,
3200
0302
0023
2030
,
3100
0000
0000
0000
,
0000
0000
0000
0000
;
#NOTES:
     dance-double:
     :
     Easy:
     5:
     :
00000000
00000000
00000000
00000000
,
00000000
00000000
00000000
00000000
,
00000000
00000000
00000000
00000000
,
00000000
00000000
00000000
00000000
,
00000000
00000000
00000000
00000000
,
00000000
00000100
00000000
00000100
,
00000000
00000010
00000000
00000100
,
00000000
00001000
00000000
00001000
,
00000000
00010000
00011000
00000000
,
00000000
00100000
00010000
01000000
,
00000000
00100000
10000000
00100000
,
00000000
01000000
00010000
00100000
,
00001000
00001000
00011000
00000000
,
00000000
00000100
00001000
00000010
,
00000000
00000100
00000001
00000100
,
00000010
00000010
00000100
00000100
,
00002002
00000000
00000000
00000000
,
00003003
00000000
00000000
00000000
,
00000000
00000000
00000000
00000000
,
00000000
00001000
00001000
00001000
,
00000000
00100000
00100000
00100000
,
01000000
10000000
01000000
00000000
,
00200000
00000000
00320000
00000000
,
00030000
01000000
01000000
01000000
,
00000000
00001000
00001000
00001000
,
00010000
00001000
00000100
00000000
,
00000002
00000010
00000100
00000013
,
00000001
00000100
00001000
00000010
,
00001000
00010000
00100000
00001000
,
00010000
01000000
00100000
00010000
,
10000000
10000000
10000000
00000000
,
01000000
00100000
00100000
00010000
,
01000000
00100000
00001000
00010000
,
00001000
00000000
00000100
00000000
,
00000020
00000000
00000000
00000000
,
00000130
00000000
00000000
00001001
,
00000010
00000010
00000001
00000100
,
00000010
00001000
00000100
00010000
,
00001000
00001000
01000000
00010000
,
10000000
00100000
01100000
00000000
,
00100000
10000000
01000000
00010000
,
00001000
00000100
00000001
00000010
,
00001000
00010000
01000000
10000000
,
00100000
01000000
00100000
00000000
,
10000000
10000000
01000000
10000000
,
00100000
01000000
00010000
00100000
,
00001000
00001000
00010000
00000010
,
00001000
00000100
00000110
00000000
,
00000001
00000100
00001000
00100000
,
00010000
01000000
10000000
00010000
,
00100000
10000000
01000000
00010000
,
00002000
00000000
00000200
00003000
,
00000020
00000000
00000000
00000000
,
00000000
00000000
00000000
00000000
,
00000330
00000001
00000000
00000001
,
00000000
00000100
00000000
00000100
,
00000000
00001000
00010000
00001000
,
00000000
00100000
00001000
01000000
,
00000000
10000000
00100000
00010000
,
00000000
00001000
00010000
00011000
,
00002000
00000000
00000000
00000000
,
00003020
00000000
00000000
00000000
,
00020030
00000000
00000000
00000000
,
00230000
00000000
00000000
00000000
,
00300000
00000000
00000000
00000000
,
00000000
00000000
00000000
00000000
;
#NOTES:
     dance-double:
     :
     Medium:
     9:
     :
00000000
00000000
00000000
00000000
,
00000000
00000000
00000000
00000000
,
00000000
00000000
00000000
00000000
,
00000000
00000000
00000000
00000000
,
00000000
00000000
00000000
00000000
00000000
00000000
00000000
01000000
,
01000000
01000000
00010000
00010000
,
00001000
00001000
00000100
00000100
,
00000001
00000100
00000010
00010000
,
00001000
00000000
00010000
00000000
00010000
00000000
00000000
00000000
01000000
00000000
00000000
01000000
00000000
00000000
01000000
00000000
,
00000000
10000000
01000000
00000000
00010000
00000000
00100000
00000000
,
00000000
00010000
01000000
00000000
10000000
00000000
00100000
00000000
,
00000000
00010000
00001000
00000000
00000100
00000000
00000010
00000000
,
00000100
00000110
00000101
00001100
,
00000000
00000001
00000010
00000000
00001000
00000000
00000100
00000000
,
00000000
00000001
00000100
00000000
00001000
00000000
00010000
00000000
,
00002000
00000000
00000000
00000000
00013000
01000000
10000000
00000000
,
22000000
00000000
00000000
00000000
,
33000000
00010000
00000000
00010000
,
00000000
00010000
00000000
00010000
,
00000000
00001000
00010000
00001000
00010000
00000000
00010000
00000100
,
00000000
00001000
00000010
00001000
00000010
00000000
00000001
00000000
,
00000100
00001000
00000001
00000100
,
00001000
00002000
00013000
00020000
,
00030000
00001000
01000000
00001000
01000000
00000000
00010000
00100000
,
00000000
01000000
10000000
01000000
10000000
00000000
00100000
00000000
,
00010000
01000000
10000000
02000000
,
03020000
00032000
00003200
00000320
,
00001030
00000000
00000001
00001000
00000001
00000000
00000010
00000000
,
00000001
00000100
00000010
00000000
00000100
00000000
00000010
00000100
,
00001000
00000100
00000001
00000010
,
00000100
00010000
00001000
00000000
00010000
00000000
00001000
00000000
,
00102000
00010000
01003000
00100000
,
11000000
00000000
00100000
00010000
10000000
00000000
01000000
00000000
,
00110000
00000000
00000010
00001000
,
00001000
00000100
00001000
00000001
00001000
00000010
00001000
00000000
,
00010000
00000000
00000000
00010000
00000000
00000000
00010000
00000000
00000000
00000000
00001000
00000000
00010000
00000000
00000000
00000000
,
00010000
01000000
00100000
00000000
00100000
10000000
01000000
00000000
,
01000000
00010000
00001000
00000000
00000010
00000000
00000001
00000000
,
00001000
00000010
00000100
00000000
00000100
00000001
00000010
00000000
,
00000010
00001000
00010000
00000000
01000000
00000000
10000000
00000000
,
20000000
00000000
31000000
00010000
00000000
00001000
00010000
00000000
,
00000100
00000010
00001000
00000100
,
00001001
00000000
00000001
00000100
00000010
00000000
00000100
00001000
,
00010000
00000000
00001000
00100000
00010000
01000000
00100000
00000000
,
10000000
01000000
00100000
00000000
00100000
00010000
01000000
00000000
,
01000000
00001000
00010000
00000000
00010000
00001000
00000100
00000000
,
00000001
00000100
00001000
00000000
00001000
00000100
00000010
00000000
,
00000010
00001000
00000001
00000000
00000001
00000010
00001000
00000000
,
00020000
00000000
00031000
00100000
00000000
00010000
01000000
00010000
,
01000000
10000000
00010000
00100000
,
10000000
10000000
01000000
00000000
00100000
00100000
00010000
00000000
,
01000000
00100000
00010000
00001000
00010000
00001000
00000100
00000000
,
00000220
00000000
00000000
00000330
,
00002002
00000000
00000000
00003003
,
00000100
00001000
00000100
00001000
,
00010000
00001000
00010000
00001000
,
01000000
00010000
01000000
00010000
,
10000000
00100000
10000000
00100000
,
10000000
00100000
10000000
00000000
00010000
00100000
00001000
00000000
,
00010000
00000000
00000100
00000000
00001000
00000000
00000010
00000000
00000100
00000000
00000000
00000100
00000000
00000000
00000100
00000000
,
00000002
00000000
00000023
00000000
,
00000230
00000000
00002300
00000000
,
00023000
00000000
00230000
00000000
,
02300000
00000000
23000000
00000000
,
30000000
00000000
00000000
00000000
,
00000000
00000000
00000000
00000000
;
#NOTES:
     dance-double:
     :
     Hard:
     12:
     :
00000000
00000000
00000000
00000000
,
00000000
00000000
00000000
00000000
,
00000000
00000000
00000000
00000000
,
00000000
00000000
00000000
00000000
,
00000000
00000000
00000000
00000000
,
00100000
00000000
10000000
00000000
00010000
10000000
00000000
00000000
01000000
00000000
00000000
00010000
00000000
00000000
00001000
00000000
,
00010000
00000000
00001000
00000000
00100000
00001000
00000000
00000000
00010000
00000000
00000000
00001000
00000000
00000000
00000100
00000000
,
00000001
00000000
00001000
00000000
00000010
00001000
00000000
00000000
00000001
00000000
00000000
00000100
00000000
00000000
00001000
00000000
,
00010000
00000000
00001000
00010000
00001000
00000000
00000000
00000000
00100000
00000000
00000000
00001000
00000000
00000000
01000000
00000000
,
00000000
00100000
10000000
01000000
00100000
01000000
00010000
00001000
,
00010000
00000100
00001000
00000010
00000100
00001000
00010000
00001000
,
00000100
00000001
00001000
00000100
00000010
00000001
00000100
00000010
,
00001000
00000100
00010000
00000010
00001000
00000100
00010000
00001000
,
00000000
00100000
00010000
01000000
00100000
10000000
01000000
00010000
,
00001000
00100000
00001000
00010000
00000100
00000010
00000001
00000100
,
00000010
00001000
00000010
00001000
00000001
00000100
00001000
00010000
,
00200000
00000000
01000000
00000000
01000000
00000000
00000000
00000000
10000000
00000000
00000000
10000000
00000000
00000000
10300000
00000000
,
00000000
01000000
00000000
01000000
,
00000000
01000000
00000000
01000000
,
00000000
00000000
10000000
00000000
00010000
00000000
01000000
00000000
00100000
00000000
00000000
00100000
00000000
00000000
00100000
00000000
,
00000000
00000000
01000000
00000000
00010000
00000000
00100000
00000000
00001000
00000000
00000000
00001000
00000000
00000000
00001000
00000000
,
00010000
00000000
00000000
00010000
00000000
00000000
00010000
00000000
00001000
00000000
00000000
00001000
00000000
00000000
00000100
00000000
,
00000001
00000000
00000000
00000001
00000000
00000000
00000100
00000000
00001000
00000000
00000000
00001000
00000000
00000000
00000100
00000000
,
00000000
00000000
00000001
00000000
00000100
00000000
00000010
00000000
00001000
00000000
00000000
00001000
00000000
00000000
00001000
00000000
,
00000000
00000000
00000100
00000000
00010000
00000000
00001000
00000000
00100000
00000000
00000000
00100000
00000000
00000000
00100000
00000000
,
00010000
00000000
00000000
01000000
00000000
00000000
01000000
00000000
00100000
00000000
00000000
00000000
20000000
00000000
00000000
00000000
,
32000000
03020000
00032000
00003200
,
00000301
00000000
00000000
00000001
00000000
00000000
00001000
00000000
00000100
00000000
00000000
00000000
00000020
00000000
00000000
00000000
,
00000031
00000100
00000001
00000010
00000000
00000010
00000001
00000100
,
00000010
00000000
00000000
00000000
00000100
00000000
00001000
00000000
00010000
00000000
00000000
00010000
00000000
00000000
00100000
00000000
,
00010000
00000000
00000000
00010000
00000000
00000000
01000000
00000000
00100000
00000000
00000000
00000000
01100000
00000000
00000000
00000000
,
10000000
00000000
00000000
00100000
00000000
00000000
10000000
00000000
01000000
00000000
00000000
00000000
00100000
00000000
10000000
00000000
,
00100000
00010000
00100000
10000000
00100000
00000000
00010000
00000000
,
00011000
00000000
00000000
00000000
00000000
00000000
00000000
00000000
00000010
00000000
00000000
00001000
00000000
00000000
00000001
00000000
,
00000100
00000001
00001000
00000100
00001000
00000010
00000100
00001000
,
00010000
00000000
00000000
00011000
00000000
00000000
00100000
00000000
00000000
00000000
00010000
10000000
00100000
00000000
00000000
00000000
,
10000000
00010000
01000000
00010000
10000000
00100000
01000000
00001000
,
00010000
00100000
01000000
00010000
00100000
00001000
00000100
00000010
,
00001000
00000010
00010000
00000100
00001000
00000010
00000100
00001000
,
00000100
00000010
00001000
00000001
00001000
00000000
00000010
00000100
,
00000010
00000000
00001000
00000001
00000000
00010000
00001000
00000100
,
00000010
00000000
00000000
00000000
00000100
00000000
00001000
00000000
00010000
00000000
00000000
00010000
00000000
00000000
00100000
00000000
,
10000000
00000000
00000000
10000000
00000000
00000000
01000000
00000000
00020000
00000000
00000000
00000000
00031000
00000000
00010000
00000000
,
00001000
00000100
00000010
00001100
,
00000001
00000000
00001000
00000000
00000010
00000000
00010000
00000100
00000000
00010000
00000000
00000000
00000010
00000000
00010000
00000000
,
00001000
00000100
00000010
00001000
00000100
00010000
00001000
01000000
,
00100000
00000000
10000000
00000000
00010000
00000000
00100000
00010000
00000000
00100000
00000000
00000000
00100000
00000000
10000000
00000000
,
01000000
00000000
00100000
00000000
01000000
00000000
00010000
00000000
00001000
00010000
00000000
00000000
00010000
00000000
00001000
00000000
,
00000100
00000000
00000000
00000010
00000100
00000000
00000001
00000000
00000100
00001000
00000000
00000000
00010000
00000000
00001000
00000000
,
00000100
00000000
00000000
00000001
00001000
00000000
00000100
00000000
00000010
00000100
00000000
00000000
00000010
00000000
00000001
00000000
,
00000100
00000001
00000010
00000001
00001000
00000100
00001000
00000010
,
00001000
00000000
00010000
00000000
01000000
00000000
00100000
00000000
10000000
00000000
00000000
01000000
00000000
00000000
00010000
00000000
,
00002000
01000000
00010000
00103000
,
00020000
01000000
10000000
00130000
,
00002000
00000100
00000001
00003010
,
00020000
00000100
00001000
00030010
,
00010000
00000000
01000000
00000000
00010000
10000000
00000000
00000000
01000000
00000000
00000000
00010000
00000000
00000000
00001000
00000000
,
00010000
00000000
00001000
00000000
00100000
00001000
00000000
00000000
00010000
00000000
00000000
00001000
00000000
00000000
00000100
00000000
,
00000001
00000000
00001000
00000000
00000010
00001000
00000000
00000000
00000001
00000000
00000000
00000100
00000000
00000000
00001000
00000000
,
00010000
00000000
00001000
00010000
00001000
00000000
00000000
00000000
00011000
00000000
00000000
00101000
00000000
00000000
00100000
00000000
,
00020000
00000000
00100000
00000000
,
00001000
00000000
01000000
00000000
,
10000000
00000000
00100000
00000000
,
00001000
00100000
10000000
01000000
,
00031000
00000000
00000000
00000000
,
00000000
00000000
00000000
00000000
;
