#TITLE:ヤマトなでなで♡かぐや姫;
#ARTIST:ロマンチック♡Prim姫;
#TITLETRANSLIT:Yamato nadenade Kaguya-hime;
#ARTISTTRANSLIT:Romantic♡Prim-hime;
#BANNER:Yamato nadenade Kaguya-hime.png;
#BACKGROUND:Yamato nadenade Kaguya-hime-bg.png;
#CDTITLE:./CDTitles/DDR (2014).png;
#MUSIC:Yamato nadenade Kaguya-hime.ogg;
#SAMPLESTART:47.571;
#SAMPLELENGTH:15;
#DISPLAYBPM:160;
#BPMS:0=160;
#NOTES:
     dance-single:
     :
     Beginner:
     2:
     :
0000
0000
0000
0000
,
0000
0000
0000
0000
,
0000
0000
0000
0000
,
0000
0000
0000
0000
,
0000
0000
0000
0000
,
0000
0000
0000
0000
,
1000
0000
1000
0000
,
1000
0000
0000
0000
,
0001
0000
0001
0000
,
0001
0000
0000
0000
,
1000
0000
0000
0000
,
0000
0000
0000
0000
,
0010
0000
0000
0000
,
0000
0000
0000
0000
,
0001
0000
0001
0000
,
0001
0000
0000
0000
,
1000
0000
1000
0000
,
1000
0000
0000
0000
,
0100
0000
0100
0000
,
0100
0000
0000
0000
,
0001
0000
0001
0000
,
0001
0000
0000
0000
,
0010
0000
0000
0000
,
0100
0000
0000
0000
,
1000
0000
0000
0000
,
0001
0000
0000
0000
,
0100
0000
0100
0000
,
0100
0000
0000
0000
,
0010
0000
0010
0000
,
0010
0010
0010
0000
,
0020
0000
0000
0000
,
0030
0000
0000
0000
,
0001
0000
0001
0000
,
1000
0000
0000
0000
,
0001
0000
0001
0000
,
0100
0100
0100
0000
,
1000
0000
1000
0000
,
0001
0000
0000
0000
,
1000
0000
1000
0000
,
0010
0010
0010
0000
,
0000
0000
0000
0000
,
0000
0000
0000
0000
,
0100
0000
0100
0000
,
0100
0000
0000
0000
,
0001
0000
0001
0000
,
0001
0001
0001
0000
,
1000
0000
1000
0000
,
1000
1000
1000
0000
,
0010
0000
0000
0000
,
0001
0000
0000
0000
,
0100
0000
0000
0000
,
1000
0000
0000
0000
,
0010
0000
0010
0000
,
0010
0000
0000
0000
,
0100
0000
0100
0000
,
0100
0100
0100
0000
,
0200
0000
0000
0000
,
0300
0000
0000
0000
,
0001
0000
0001
0000
,
0100
0000
0000
0000
,
0010
0000
0010
0000
,
1000
1000
1000
0000
,
0100
0000
0100
0000
,
0001
0000
0000
0000
,
1000
0000
1000
0000
,
0010
0010
0010
0000
,
0100
0000
0100
0000
,
0001
0001
0001
0000
,
0100
0000
0100
0000
,
1000
1000
1000
0000
,
1001
0000
0000
0000
,
0000
0000
0000
0000
;
#NOTES:
     dance-single:
     :
     Easy:
     6:
     :
0000
0000
0000
0000
,
0000
0000
0000
0000
,
0000
0000
0000
0000
,
0000
0000
0000
0000
,
0000
0000
0000
0000
,
0000
0000
0000
0000
,
0100
0100
1000
1000
,
0001
0001
0010
0000
,
0100
0100
0001
0001
,
1001
0000
1001
0000
,
0200
0000
0000
0000
,
0300
0010
1000
0001
,
0020
0000
0000
0000
,
0030
0001
1001
0000
,
0100
0100
0001
0100
,
0010
1000
0001
1000
,
0100
0100
0010
0001
,
0100
0010
1001
0000
,
1000
1000
0010
0100
,
0001
1000
0100
1000
,
0001
0001
0010
0001
,
0100
0010
0110
0000
,
2000
0000
0000
3000
,
0200
0000
0000
0300
,
0002
0000
0000
0003
,
0020
0000
0000
0030
,
0002
0000
0000
0003
,
0200
0000
0000
0300
,
2000
0000
0000
3000
,
0010
0010
0010
0010
,
0020
0000
0000
0000
,
0000
0000
0030
0000
,
1000
1000
0001
0001
,
0010
0100
0110
0001
,
0100
0001
0010
0001
,
1000
0001
1000
0000
0010
0000
0000
0000
,
0100
0100
0010
0010
,
1000
0001
1001
0100
,
0010
0001
0010
1000
,
0010
0110
2002
0000
,
3003
0000
0000
0000
,
0000
0000
0000
0000
,
0100
0100
0100
0100
,
0001
0001
1000
1000
,
0010
0010
0100
0100
,
1000
1000
0001
0001
,
1000
0100
0010
0001
,
1000
0100
0010
0001
,
1002
0000
0000
0000
,
0100
0000
0000
0003
,
2001
0000
0000
0000
,
0100
0000
0000
3000
,
0120
0000
0000
0000
,
1000
0000
0000
0030
,
0100
0000
0100
0000
,
0001
0010
1000
0100
,
0002
0000
0000
0000
,
1003
1000
0001
0001
,
1000
1001
0001
1001
,
0100
0010
0110
1000
,
0100
0001
0100
1000
,
0001
1000
0001
0000
0100
0000
0000
0000
,
0010
0110
0100
0110
,
1000
0001
1001
0010
,
0200
1300
0020
0031
,
1000
0001
1000
0000
2002
0000
3003
0000
,
0100
0010
1000
0001
,
0100
0010
0220
0330
,
1000
0100
0010
0001
,
1000
0001
1000
0000
2002
0000
3003
0000
,
1001
0000
0000
0000
,
0000
0000
0000
0000
;
#NOTES:
     dance-single:
     :
     Medium:
     8:
     :
0000
0000
0000
0000
,
0000
0000
0000
0000
,
0000
0000
0000
0000
,
0000
0000
0000
0000
,
0000
0000
0000
0000
,
0000
0000
0000
0000
,
0010
1000
0010
0001
,
0010
0010
1000
0001
,
0100
0100
1000
0100
,
0010
0000
0100
0000
0000
0100
0000
0000
0200
0000
0000
0000
0000
0000
0000
0000
,
0301
0100
1000
0100
,
0001
0000
1000
0000
0100
0000
0001
0100
,
1000
0010
0100
0001
,
0100
0101
1001
0000
,
1000
0001
0100
0010
,
1000
0100
0001
0000
0100
0000
0100
0000
,
0010
0001
1000
0001
,
1000
0100
0001
0100
1000
0000
0000
0000
,
0001
0100
1000
0010
,
1000
0000
0100
0001
0100
0000
0001
0000
,
0010
1000
0010
0001
,
1000
0010
0001
0010
1000
0000
0000
0000
,
0002
0000
0203
0000
,
2300
0000
0000
3000
,
0002
0000
0023
0000
,
2030
0000
0000
3000
,
0020
0000
0001
0000
,
1000
0000
0001
0030
,
0200
0000
0001
0300
,
0010
0010
0010
0010
,
0220
0000
0000
0330
,
1000
0000
1000
0000
0001
1000
0001
0000
,
0100
0101
0100
1100
,
0010
1000
0100
0001
0100
0000
1000
0000
,
0101
0000
0100
0010
1000
0000
0001
0000
,
1000
0001
1000
0000
0100
0000
0010
0000
,
0001
0101
1000
1100
,
0001
0100
0010
1000
0100
0000
0010
0000
,
0001
1100
1000
0101
,
0010
0110
2002
0000
,
3003
0000
0000
0000
,
0000
0000
0000
0000
,
0010
0010
0100
0101
,
1000
0100
0001
0100
,
1000
1000
0001
0011
,
0100
1000
0010
1000
,
1001
0010
0100
1000
,
1001
0010
0100
1000
,
2100
0000
0100
0000
,
0010
0000
0000
3000
,
0102
0000
0100
0000
,
0010
0000
0000
0003
,
0010
0000
0010
0000
,
0001
0100
1000
0000
,
0010
0100
0010
0100
,
1000
0100
0001
0010
,
0200
0000
0000
0300
,
0010
1000
0010
1000
0010
1000
0001
0000
,
0010
1100
0010
0101
,
0010
1000
0100
0001
0100
0000
1000
0000
,
1001
0001
1001
0100
,
0010
1000
0010
1000
0010
0000
1000
0000
,
0100
1010
0100
0011
,
1000
0010
0100
0001
0010
0000
0100
0000
,
1000
0011
0001
1010
,
0100
0110
2002
3003
,
1000
0100
0001
0100
,
1000
0010
0100
0000
0220
0000
0330
0000
,
0001
0010
0001
0000
1000
0100
1000
0000
,
0001
1000
0010
0100
0002
0000
1003
0000
,
1001
0000
0000
0000
,
0000
0000
0000
0000
;
#NOTES:
     dance-single:
     :
     Hard:
     11:
     :
0000
0000
0000
0000
,
0000
0000
0000
0000
,
0000
0000
0000
0000
,
0000
0000
0000
0000
,
0000
0000
0000
0000
,
0000
0000
0000
0000
,
0101
0101
0010
1000
,
0001
0100
0010
0000
0100
0010
1000
0000
,
1000
0100
0100
0000
0100
1000
0001
0000
,
1000
0000
0001
0000
0000
0100
0000
0000
0010
0000
0000
1000
0000
0001
0000
1000
,
0002
0100
0100
0103
,
0100
0000
0100
0010
1000
0000
0001
0010
,
0200
0010
0010
0310
,
1000
0000
0000
0001
0000
0000
1000
0000
1001
0000
0000
0000
0000
0000
0000
0000
,
0001
0100
0010
0000
0001
1000
0100
0000
,
0010
0001
0010
0001
1000
0000
0100
0000
,
1000
0100
0010
0000
1000
0010
0100
0000
,
0001
0100
1000
0100
0020
0000
0130
0000
,
0100
0010
1000
0000
0100
0001
1000
0000
,
0100
0010
1000
0010
0100
0000
0001
0000
,
0010
0001
0100
0000
0010
0100
1000
0000
,
0001
0001
0001
0000
0101
0000
0010
0000
,
2000
0000
0100
0000
,
3001
0010
0100
1000
,
0020
0000
0100
0000
,
1030
0001
0100
0010
,
2000
0100
0100
3010
,
0100
0000
0001
0010
0001
0000
0200
0000
,
0310
1000
0100
0001
,
0010
0100
0010
0100
,
2002
0000
0000
3003
,
0100
0000
0100
0000
0010
0100
0010
0100
,
0001
0000
0001
1000
0010
0001
0010
1000
,
0001
0100
0010
1000
1100
0000
0100
1000
,
1001
0000
0010
0001
1001
0000
0010
0100
,
1000
0001
0100
0010
0110
0000
1001
0000
,
0100
0010
0100
1000
0010
1000
0001
0010
,
0100
1000
0010
0100
0110
0000
0010
0010
,
1000
0000
0000
1000
0000
0000
2000
0000
0001
0000
0000
0000
3100
0000
0000
0000
,
1000
0100
0010
0001
0012
0000
1003
0000
,
2000
0000
0000
3000
,
0002
0000
0000
0003
,
1000
0000
0001
0000
1000
0000
0010
0100
,
0001
0000
0100
0000
0010
1000
0001
0010
,
0100
0000
0100
0000
0100
0000
0100
0010
,
0001
1001
0100
1001
,
0010
1000
0010
1000
0001
0100
0001
0100
,
0010
1000
0100
0010
0001
1000
0001
0000
,
0201
0000
0001
0000
,
0320
0000
1000
0000
,
2030
0000
0001
0000
,
3002
0000
0203
0000
,
0310
0010
1000
1000
,
0001
0100
1000
0000
,
0100
0100
0010
0010
,
1000
0100
0001
0010
,
2002
0000
0000
3003
,
0010
0000
0010
0000
0100
0010
0100
0010
,
1000
0000
1000
0001
0100
1000
0100
0001
,
1001
0000
0110
0000
1001
0000
0010
0001
,
0011
0000
0100
1000
1100
0000
0100
0010
,
0001
1000
0010
0100
0110
0000
1001
0000
,
0010
0100
0010
0001
0100
0001
1000
0100
,
0010
0001
0100
0010
0110
0000
0100
0100
,
0001
0000
0000
0001
0000
0000
0002
0000
1000
0000
0000
0000
0013
0000
0000
0000
,
0001
0010
0100
1000
2100
0000
3001
0000
,
0100
0000
0010
1000
0010
0000
0010
0001
,
1000
0001
0100
0010
0110
0000
1001
0000
,
1000
0100
1000
0010
0100
0001
0010
0100
,
1000
0010
0010
0100
0010
0010
0100
0000
,
1001
0000
0000
0000
,
0000
0000
0000
0000
;
#NOTES:
     dance-single:
     :
     Challenge:
     14:
     :
0000
0000
0000
0000
,
0000
0000
0000
0000
,
0000
0000
0000
0000
,
0000
0000
0000
0000
,
0000
0000
0000
0000
,
0000
0000
0000
0000
,
0100
0000
0000
0000
0101
0000
0000
0000
0010
0000
0000
1000
0010
0000
0100
0000
,
0001
0000
0010
0000
0010
0000
0000
0100
0010
0000
0100
0000
1000
0000
0001
0000
,
1000
0000
0010
0000
0010
0000
0000
0100
0010
0000
1000
0000
0001
0000
0010
0000
,
0001
0000
0011
0000
0000
1010
0000
0000
0011
0000
0000
1010
0000
0100
0000
0010
,
2000
0010
0001
3100
,
0001
0010
0001
0100
0010
1000
0001
0100
,
0002
0000
0010
0000
1000
0000
0103
0001
,
1001
0000
0000
1010
0000
0000
1000
0000
1001
0000
0000
0000
0000
0000
0000
0000
,
0100
0010
1000
0010
0100
0000
0001
0100
,
0010
0000
1000
0000
0100
1000
0100
0000
1000
0000
0000
0000
0010
0000
0000
0000
,
0001
0010
0100
1000
0100
0000
0010
1000
,
0001
0000
1000
0000
0001
1000
0000
0001
0100
0000
0001
0010
0000
0001
0010
0001
,
0010
0100
1000
0010
1000
0001
0001
0100
,
0001
0000
1000
0000
0001
0010
0001
0000
1000
0000
0000
0000
0010
0000
0000
0000
,
0100
1000
0010
0001
1000
0100
0010
0001
,
1000
0010
1000
0010
1000
0010
0000
0100
0001
0000
1000
0100
0000
0010
0001
0010
,
0002
0000
0020
0030
,
0203
0000
0020
0030
,
2300
0000
0020
0030
,
3200
0000
0020
0030
,
0302
0000
0023
0000
0230
0000
2300
3020
,
0230
0302
2000
3003
,
0200
2300
3002
0023
,
2030
0000
0200
0300
0002
0003
0020
0030
,
0002
0000
0000
3003
,
1001
0000
0000
0000
1001
0000
0000
0000
0100
0000
0001
0010
0001
0000
1000
0010
,
1000
0001
0100
0001
1000
1000
0010
0010
,
0101
0000
0100
0000
0011
0000
0010
0000
1001
0000
0000
0000
0010
0000
0100
0001
,
0010
0010
0100
1000
0010
0010
0100
0001
,
0011
0000
0000
0000
1100
0000
0000
0000
0110
0000
0001
1000
0010
0000
1000
0001
,
0010
0001
1000
0100
1000
0010
1000
0100
,
0011
0000
0100
1000
0001
0000
0100
0000
0110
0000
0000
0000
0010
0000
0100
0010
,
0001
0000
0001
0100
0000
0100
0001
0000
1000
0010
0000
0010
1000
0000
0001
0000
,
1000
0000
0100
0000
0001
0000
0010
0000
1100
0000
0001
1000
0001
1000
0001
0000
,
0010
0000
0001
0000
0000
0001
0000
0000
0001
0000
0000
0001
0000
0000
0001
0000
,
0001
0000
1000
0000
1000
0000
0000
1000
0000
0000
1000
0000
1000
0000
1000
0000
,
0010
0000
1000
0000
0010
0000
0000
0100
0010
0000
0001
0000
0010
0000
0100
0000
,
0001
0000
0010
0000
0001
0000
0000
1000
0001
0000
1000
0001
1000
0000
0100
1000
,
0100
0000
0010
0000
0100
0000
0000
0000
0100
0000
0000
0010
0100
0000
1000
0000
,
0001
0000
0010
0000
0001
0000
0000
1000
0001
0000
0100
0000
0001
0000
0010
0000
,
0100
1000
0010
0100
0001
0010
0100
1000
,
0001
0010
0001
0000
0100
0010
0100
0000
0010
1000
0010
1000
0200
0000
0000
0000
,
2300
0000
0000
0000
,
3020
0000
0230
0000
,
0302
0000
0000
0000
,
0023
0000
0230
0000
,
2300
0000
3200
0000
0320
0000
0032
0203
,
0320
2030
0002
3003
,
0020
0032
0203
2300
,
3002
0000
0020
0030
2000
3000
0200
0300
,
2000
0000
0000
0000
,
0000
0000
0000
0000
3003
0000
0000
0000
0010
0000
1000
0100
1000
0000
0001
0100
,
0001
1000
0010
1000
0001
0001
0100
0100
,
1010
0000
0010
0000
1100
0000
0100
0000
1001
0000
0010
0001
0100
0000
0010
1000
,
0100
0100
0010
0001
0100
0100
0010
1000
,
1100
0000
0000
0000
0011
0000
0000
0000
0110
0000
1000
0001
0100
0000
0001
1000
,
0100
1000
0001
0010
0001
0100
0001
0010
,
1100
0000
0010
0001
1000
0000
0010
0000
0110
0000
0100
0001
0010
0000
0010
0100
,
1000
0000
1000
0010
0000
0010
1000
0000
0001
0100
0000
0100
0001
0000
1000
0000
,
0001
0000
0001
0100
0010
0000
1000
0000
0001
0000
1000
0000
1000
0001
0100
0000
,
0010
0000
0000
0010
1000
0000
0100
0000
0110
0000
0000
0010
0001
0000
0100
0000
,
0010
1000
0001
0100
0010
0000
1000
0000
0001
0000
1000
0001
1000
0000
0001
1000
,
0001
0001
0100
0100
0010
0010
1000
1000
,
0001
0010
0100
1000
0100
0000
0010
0000
0001
1000
0100
0010
0001
0000
0000
0000
,
1001
0000
0000
0000
,
0000
0000
0000
0000
;
#NOTES:
     dance-double:
     :
     Easy:
     5:
     :
00000000
00000000
00000000
00000000
,
00000000
00000000
00000000
00000000
,
00000000
00000000
00000000
00000000
,
00000000
00000000
00000000
00000000
,
00000000
00000000
00000000
00000000
,
00000000
00000000
00000000
00000000
,
00010000
00010000
01000000
00000000
,
10000000
10000000
01000000
00000000
,
00010000
00010000
00001000
00000000
,
00011000
00000000
00011000
00000000
,
00002000
00000000
00000000
00000000
,
00003000
00000000
00000100
00000001
,
00000020
00000000
00000000
00000000
,
00000030
00000001
00001001
00000000
,
00001000
00000010
00000100
00000000
,
00001000
00010000
00001000
00000000
,
00100000
00010000
01000000
00000000
,
00100000
10000000
10010000
00000000
,
10000000
00100000
01000000
01000000
,
00010000
00100000
00010000
00000000
,
00001000
00010000
00001000
00010000
,
00000100
00001000
00001001
00000000
,
00000002
00000000
00000000
00000003
,
00000200
00000000
00000000
00000300
,
00002000
00000000
00000000
00003000
,
00020000
00000000
00000000
00030000
,
02000000
00000000
00000000
03000000
,
20000000
00000000
00000000
30000000
,
00020000
00000000
00000000
00030000
,
01000000
01000000
01000000
01000000
,
00200000
00000000
00000000
00000000
,
00000000
00000000
00300000
00000000
,
10000000
01000000
10000000
01000000
,
00010000
00001000
00011000
00000000
,
00001000
00000100
00000001
00000100
,
00000010
00001000
00000001
00000010
,
00000001
00000100
00000001
00000100
,
00001000
00010000
00001000
00000000
,
00100000
00010000
00100000
01000000
,
10000000
00010000
20020000
00000000
,
30030000
00000000
00000000
00000000
,
00000000
00000000
00000000
00000000
,
01000000
01000000
01000000
01000000
,
00010000
00010000
00001000
00001000
,
00000100
00000100
00000001
00000001
,
00000100
00000100
00001000
00001000
,
00000100
00000010
00001000
00000100
,
00010000
00001000
00100000
00010000
,
02000000
00000000
00000000
00000000
,
00100000
00000000
00000000
03000000
,
00020000
00000000
00000000
00000000
,
10000000
00000000
00000000
00030000
,
00002000
00000000
00000000
00000000
,
00010000
00000000
00000000
00003000
,
00010000
00000000
00010000
00000000
,
00001000
00010000
00001000
00010000
,
00000020
00000000
00000000
00000030
,
00000100
00000010
00000100
00000100
,
00000001
00000010
00000001
00000010
,
00001000
00010000
00011000
00000000
,
00010000
00100000
10000000
00100000
,
01000000
00010000
10000000
01000000
,
10000000
00100000
10000000
00100000
,
00010000
00001000
00010000
00000000
,
00000100
00001000
00000100
00000010
,
00000001
00001000
00002002
00003003
,
00000001
00000100
00001000
00000100
,
00001000
00010000
00022000
00033000
,
00001000
00010000
01000000
10000000
,
00010000
10000000
00010000
00000000
20020000
00000000
30030000
00000000
,
10010000
00000000
00000000
00000000
,
00000000
00000000
00000000
00000000
;
#NOTES:
     dance-double:
     :
     Medium:
     8:
     :
00000000
00000000
00000000
00000000
,
00000000
00000000
00000000
00000000
,
00000000
00000000
00000000
00000000
,
00000000
00000000
00000000
00000000
,
00000000
00000000
00000000
00000000
,
00000000
00000000
00000000
00000000
,
00010000
01000000
10000000
00100000
,
00100000
01000000
00010000
00100000
,
00001000
00000100
00000001
00000010
,
00000001
00001000
00001001
00000000
,
00000200
00000010
00000001
00001000
,
00010300
00000000
00001000
00000000
00000100
00000000
00000001
00000100
,
00002000
00010000
00100000
00010000
,
01003000
00010000
01100000
00000000
,
10000000
00100000
01000000
00001000
,
00010000
01000000
00100000
00000000
10000000
00000000
01000000
00000000
,
00100000
00001000
00010000
00000100
,
00000010
00000100
00001000
00000000
00010000
00000000
00000000
00000000
,
00000100
00000010
00000001
00000100
,
00000010
00000000
00000100
00001000
00010000
00000000
00001000
00000000
,
00100000
00010000
00001000
00100000
,
00010000
00100000
01000000
00000000
10010000
00000000
00000000
00000000
,
02000000
00000000
03200000
00000000
,
00320000
00000000
00000000
00030000
,
00002000
00000000
00003020
00000000
,
00000230
00000000
00000000
00000300
,
00002000
00000000
00000001
00000000
,
00010000
00000000
00003001
00000000
,
00020000
00000000
00001000
00030000
,
01000000
01000000
00100000
00100000
,
02200000
00000000
00000000
03300000
,
10000000
00010000
01100000
01100000
,
10000000
10100000
00100000
00010000
,
00010000
00001000
00010000
01000000
10000000
00000000
01000000
00000000
,
00010000
00000000
00001000
00010000
00001000
00000000
00000100
00000000
,
00000001
00000010
00000110
00001000
,
00000001
00000011
00000010
00001000
,
00001000
00010000
00001000
00000100
00000001
00000000
00000100
00000000
,
00000120
00001030
00001200
00010300
,
00001000
00010000
00022000
00000000
,
00033000
00000000
00000000
00000000
,
00000000
00000000
00000000
00000000
,
00100000
10000000
01000000
00010000
,
01000000
10000000
00100000
00010000
,
00001000
00000010
00000001
00000100
,
00000100
00000001
00000010
00001000
,
00010000
01000000
00010000
00001000
,
00000100
00001000
00010000
00100000
,
20000000
00000000
01000000
00000000
,
00100000
00100000
00100000
00000000
,
30020000
00000000
01000000
00000000
,
00100000
00100000
00100000
00000000
,
00032000
00000000
00000100
00000000
,
00000010
00000010
00000010
00000000
,
00003002
00000000
00000100
00000000
,
00000010
00000010
00000010
00000010
,
00002000
00000000
00000000
00000000
,
00003003
00000000
00000000
00000000
00000001
00001000
00000001
00001000
,
00000001
00000101
00001000
00000010
,
00000100
00000001
00000100
00001000
00010000
00000000
00001000
00000000
,
00010000
00000000
00001000
00010000
01000000
00000000
00100000
00000000
,
00010000
01000000
01100000
00010000
,
10000000
11000000
00100000
00100000
,
01000000
10000000
01000000
00010000
00001000
00000000
00010000
00000000
,
00021000
00030100
00012000
00103000
,
00010000
00001000
00022000
00033000
,
00000100
00000001
00000010
00000100
,
00001000
00000010
00000100
00000000
00000220
00000000
00000330
00000000
,
00001000
00010000
00001000
00000000
00100000
00010000
00100000
00000000
,
00010000
00100000
01000000
10000000
00020000
00000000
10030000
00000000
,
10010000
00000000
00000000
00000000
,
00000000
00000000
00000000
00000000
;
#NOTES:
     dance-double:
     :
     Hard:
     11:
     :
00000000
00000000
00000000
00000000
,
00000000
00000000
00000000
00000000
,
00000000
00000000
00000000
00000000
,
00000000
00000000
00000000
00000000
,
00000000
00000000
00000000
00000000
,
00000000
00000000
00000000
00000000
,
00010100
00010100
00000010
00000001
,
00001000
00000100
00000001
00000000
00000100
00001000
00000010
00001000
,
00000100
00000000
00010100
00000000
00000100
00010000
00001000
00000000
,
00010000
00000000
00001000
00000000
00000000
01000000
00000000
00000000
00100000
00000000
00000000
01000000
00000000
00010000
00000000
10000000
,
00020000
01000000
01000000
01030000
,
00100000
00001000
00100000
00000000
00010000
10000000
01000000
00100000
,
20000000
00100000
00100000
30100000
,
01000000
00000000
00000000
00010000
00000000
00000000
00001000
00000000
00011000
00000000
00000000
00000000
00000000
00000000
00000000
00000000
,
00010000
00001000
00000100
00000000
00001000
00010000
00000010
00000000
,
00000100
00000001
00000100
00000001
00001000
00000000
00000001
00000000
,
00000010
00000100
00001000
00000000
00000010
00000100
00001000
00000100
,
00000001
00001000
00000001
00001000
00000020
00000000
00000130
00000000
,
00000001
00000000
00000100
00000000
00000010
00001000
00010000
00000000
,
00100000
01000000
10000000
00010000
01000000
00000000
00010000
00000000
,
00100000
00001000
00010000
00000000
00001000
00010000
01000000
00000000
,
10000000
01000000
10000000
01000000
00200000
00000000
01300000
00000000
,
20000000
00000000
01000000
00000000
,
30010000
00001000
00010000
10000000
,
00200000
00000000
01000000
00000000
,
00310000
00001000
00000100
00000010
,
00000200
00000010
00000010
00000001
,
00000301
00000000
00001000
00010000
00001000
00000000
00000002
00000000
,
00000103
00000010
00000100
00000100
,
00000010
00001000
00000100
00010000
,
00022000
00000000
00000000
00033000
,
00001000
00000000
00100000
00000000
00010000
10000000
00010000
10000000
,
00010000
00000000
01000000
00100000
00010000
00001000
00010000
00001000
,
00000100
00000010
00000001
00000010
00000110
00000000
00000001
00001000
,
00001100
00000000
00000100
00000010
00000011
00000000
00000001
00000100
,
00000010
00000001
00000010
00001000
00000100
00000000
00010100
00000000
,
00010000
00001000
01000000
00010000
00100000
01000000
00100000
00001000
,
00010000
00100000
01000000
00010000
10010000
00000000
00100000
10000000
,
00100000
10010000
10000000
11000000
,
10000000
01000000
00100000
00010000
00002000
00000000
00003000
00000000
,
00000200
00000000
00000000
00000300
,
00000002
00000000
00000000
00000003
,
00000100
00000000
00000001
00000000
00001000
00000000
00000010
00001000
,
00000100
00000000
00001000
00000000
00010000
00000000
00100000
00010000
,
01000000
00000000
00100000
00000000
01000000
00000000
00010000
00100000
,
01000000
10000000
01000000
00010000
,
01000000
10000000
01000000
10000000
00010000
00100000
00010000
00100000
,
00001000
00010000
00000100
00001000
00000010
00000100
00000001
00000000
,
00000002
00000000
00000010
00000000
,
00001003
00010000
00001000
00000001
,
00000200
00000000
00000010
00000000
,
00001300
00010000
00100000
01000000
,
00200000
00000000
01000000
00000000
,
10300000
01000000
00010000
00001000
00000100
00000000
00000010
00000000
,
00000100
00000000
00000001
00000000
,
00001000
00000100
00000001
00000010
,
00002002
00000000
00000000
00003003
,
00001000
00000000
00000001
00000000
00000100
00000010
00000100
00000010
,
00001000
00000000
00000010
00000100
00001000
00010000
00001000
00010000
,
00100000
01000000
10000000
01000000
01100000
00000000
10000000
00010000
,
00110000
00000000
00100000
01000000
11000000
00000000
10000000
00100000
,
01000000
10000000
01000000
00010000
00100000
00000000
00101000
00000000
,
00001000
00010000
00000010
00001000
00000100
00000010
00000100
00010000
,
00001000
00000100
00000010
00001000
00001001
00000000
00000100
00000001
,
00000100
00001001
00000001
00000011
,
00000001
00000010
00000100
00001000
00000002
00000000
00000103
00000000
,
00000010
00000000
00000100
00001000
00010000
00000000
00001000
00000000
,
00010000
00100000
10000000
01000000
00100000
00000000
01100000
00000000
,
01000000
10000000
00100000
01000000
00010000
00100000
01000000
10000000
,
01000000
00010000
00001000
00000100
00000010
00000100
00000100
00000000
,
00001001
00000000
00000000
00000000
,
00000000
00000000
00000000
00000000
;
#NOTES:
     dance-double:
     :
     Challenge:
     14:
     :
00000000
00000000
00000000
00000000
,
00000000
00000000
00000000
00000000
,
00000000
00000000
00000000
00000000
,
00000000
00000000
00000000
00000000
,
00000000
00000000
00000000
00000000
,
00000000
00000000
00000000
00000000
,
00000010
00000000
00000000
00000000
00010100
00000000
00000000
00000000
00000010
00000000
00000000
00000001
00001000
00000000
00000100
00000000
,
00000010
00000000
00001000
00000000
00010000
00000000
00000000
00001000
00010000
00000000
00001000
00000000
00000100
00000000
00001000
00000000
,
00010000
00000000
01000000
00000000
01000000
00000000
00000000
00100000
01000000
00000000
10000000
00000000
00100000
00000000
10000000
00000000
,
01000000
00000000
01100000
00000000
00000000
00001000
00000000
00000000
01100000
00000000
00000000
00001000
00000000
00010000
00000000
00100000
,
00020000
01000000
10000000
00100000
,
00031000
00000100
00000001
00000100
00001000
00000010
00000100
00000001
,
00002000
00000000
00000100
00000000
00000001
00000000
00003010
00001000
,
00010000
00000000
00000000
00100000
00000000
00000000
01000000
00000000
01100000
00000000
00000000
00000000
00000000
00000000
00000000
00000000
,
00010000
01000000
10000000
01000000
00100000
00000000
00010000
00100000
,
01000000
00000000
00100000
00000000
00001000
00100000
00000000
00001000
00010000
00000000
00000000
00000000
00001000
00000000
00000000
00000000
,
00000010
00000001
00001000
00000001
00000100
00000000
00000001
00001000
,
00000100
00000000
00000010
00000000
00000100
00000010
00000000
00000100
00000010
00000000
00000001
00001000
00000000
00000001
00001000
00000000
,
00000100
00001000
00000001
00000010
00000100
00010000
00001000
00000010
,
00001000
00000000
00010000
00000000
00001000
00100000
00000000
00010000
00100000
00000000
00000000
00000000
01000000
00000000
00000000
00000000
,
10000000
01000000
00010000
00001000
00010000
01000000
00100000
01000000
,
10000000
00000000
01000000
10000000
01000000
10000000
00000000
00010000
00100000
00000000
00001000
00100000
00000000
00001000
00010000
00000000
,
00002000
00000000
00200000
00303000
,
00000020
00000000
00000002
00000033
,
00020000
00000000
00000200
00030300
,
02000000
00000000
20000000
33000000
,
00002000
00000000
00023000
00000000
00030020
00000000
00000230
00000302
,
00000023
00002030
00020000
00033000
,
00200000
20300000
32000000
03200000
,
00320000
00000000
02000000
03000000
20000000
30000000
00200000
00300000
,
00002000
00000000
00000000
00033000
,
00011000
00000000
00000000
00000000
00011000
00000000
00000000
00000000
00001000
00000000
00010000
00000100
00010000
00000000
00001000
00000100
,
00001000
00000001
00000010
00000100
00000010
00000010
00000001
00000001
,
00000100
00000000
00000010
00000000
00000110
00000000
00001000
00000000
00001010
00000000
00000000
00000000
00010000
00000000
00001000
00010000
,
00001000
00100000
00010000
00100000
01000000
01000000
10000000
01000000
,
11000000
00000000
00000000
00000000
00110000
00000000
00000000
00000000
01001000
00000000
00001000
00010000
00001000
00000000
00100000
00010000
,
00100000
01000000
00010000
00001000
00010000
00000010
00000100
00001000
,
00011000
00000000
00010000
00001000
00000100
00000000
00000010
00000000
00000110
00000000
00000000
00000000
00000100
00000000
00000010
00001000
,
00000010
00000000
00000000
00001001
00000000
00000000
00000100
00000000
00000001
00000100
00000000
00000100
00001000
00000000
00010000
00000000
,
01000000
00000000
10000000
00000000
01000000
00000000
00010000
00000000
01000000
00000000
00100000
00010000
00100000
00010000
00100000
00000000
,
01000000
00000000
10000000
00000000
00000000
10000000
00000000
00000000
10000000
00000000
00000000
10000000
00000000
00000000
10000000
00000000
,
00100000
00000000
00010000
00000000
00001000
00000000
00000000
00001000
00000000
00000000
00001000
00000000
00000100
00000000
00000001
00000000
,
00001000
00000000
00000001
00000000
00001000
00000000
00000000
00000010
00001000
00000000
00000001
00000000
00001000
00000000
00000100
00000000
,
00000010
00000000
00000001
00000000
00000001
00001000
00000000
00000001
00001000
00000000
00000001
00001000
00000001
00000000
00001000
00000001
,
00001000
00000000
00000100
00000000
00000010
00000000
00000000
00000000
00000010
00000000
00000000
00000100
00000010
00000000
00001000
00000000
,
00010000
00000000
00001000
00000000
00010000
00000000
00000000
00001000
00010000
00000000
01000000
00000000
00010000
00000000
01000000
00000000
,
10000000
01000000
00100000
00010000
00001000
00000100
00000010
00000001
,
00001000
00000100
00001000
00000000
00000001
00000100
00000001
00000000
00001000
00000001
00001000
00000001
00000020
00000000
00000000
00000000
,
00000032
00000000
00000200
00000303
,
00002000
00000000
00020000
00033000
,
02000000
00000000
20000000
33000000
,
00200000
00000000
00020000
00330000
,
00002000
00000000
00023000
00000000
00030200
00000000
00000320
00000032
,
00000203
00000320
00000002
00000033
,
00002000
00003002
00000203
00000320
,
00002030
00000000
00000002
00000003
00000020
00000030
00020000
00030000
,
00200000
00000000
00000000
00000000
,
00003000
00000000
00000000
00000000
00300000
00000000
00000000
00000000
01000000
00000000
00010000
01000000
00010000
00000000
00100000
00000000
,
00010000
10000000
01000000
00100000
01000000
01000000
10000000
10000000
,
00100000
00000000
01000000
00000000
01100000
00000000
00010000
00000000
01010000
00000000
00000000
00000000
00100000
00000000
00001000
00010000
,
00001000
00000000
00000000
00010000
00001000
00000000
00000100
00000000
00000010
00000000
00000010
00000000
00001000
00000000
00000001
00000000
,
00000011
00000000
00000000
00000000
00001100
00000000
00000000
00000000
00010010
00000000
00000100
00001000
00000100
00000000
00010000
00001000
,
00010000
00001000
00100000
00010000
10000000
01000000
00100000
00010000
,
10010000
00000000
10000000
00010000
00100000
00000000
01000000
00000000
01100000
00000000
00000000
00000000
00100000
00000000
01000000
10000000
,
01000000
00000000
00000000
00010000
00001000
00000000
00000100
00000000
00000010
00000100
00000000
00000100
00000010
00000000
00001000
00000000
,
00000001
00000010
00000001
00000000
00000100
00000010
00000100
00000000
00001000
00000100
00001000
00000100
00001000
00000000
00000000
00000000
,
00000001
00000000
00000000
00000010
00001000
00000000
00010000
00000000
01000000
00000000
00000000
10000000
00100000
00000000
00010000
00000000
,
00001000
00010000
00000100
00001000
00000010
00000000
00000100
00000000
00000001
00000000
00000010
00000001
00000010
00000000
00000001
00000100
,
00000001
00000001
00000010
00001000
00010000
00010000
00001000
00010000
,
00001000
00100000
00010000
00100000
00010000
00000000
01000000
00000000
00100000
10000000
00100000
10000000
00010000
00000000
00000000
00000000
,
10010000
00000000
00000000
00000000
,
00000000
00000000
00000000
00000000
;
