
//----- song id: wech
#TITLE:We are チャリンコエンジェルス;
#ARTIST:浦安マリンエンジェルス 【千葉】;
#TITLETRANSLIT:We are Charinko Angels;
#ARTISTTRANSLIT:Urayasu Marine Angels [Chiba];
#BANNER:We are Charinko Angels.png;
#BACKGROUND:We are Charinko Angels-bg.png;
#CDTITLE:./CDTitles/DDR (2014).png;
#MUSIC:We are Charinko Angels.ogg;
#SAMPLESTART:57.931;
#SAMPLELENGTH:15;
#SELECTABLE:YES;
#DISPLAYBPM:145;
#BPMS:0=145;
#NOTES:
     dance-single:
     :
     Beginner:
     2:
     :
0000
0000
0000
0000
,
0000
0000
0000
0000
,
0000
0000
0000
0000
,
0000
0000
0000
0000
,
0000
0000
0000
0000
,
1000
0000
0010
0000
,
1000
0000
0000
0000
,
0001
0000
0100
0000
,
0001
0001
0001
0000
,
0000
0000
0000
0000
,
0000
0000
0000
0000
,
1000
0000
1000
0000
,
0100
0000
0100
0000
,
0010
0000
0010
0000
,
0001
0000
0000
0000
,
1000
0000
1000
0000
,
0001
0000
0001
0000
,
0100
0000
0000
0000
,
0000
0000
0000
0000
,
0001
0000
0001
0000
,
0010
0000
0010
0000
,
0100
0000
0100
0000
,
1000
0000
0000
0000
,
0001
0000
0001
0000
,
1000
0000
1000
0000
,
0100
0000
0010
0000
,
0001
0000
0000
0000
,
1000
1000
0000
0000
,
0001
0001
0000
0000
,
0100
0100
0000
0000
,
0010
0000
0000
0000
,
1000
1000
0000
0000
,
0001
0001
0000
0000
,
0100
0100
0000
0000
,
0010
0000
0000
0000
,
1000
0000
1000
0000
,
0100
0100
0100
0000
,
0010
0000
0010
0000
,
0001
0001
0001
0000
,
1000
0000
1000
0000
,
0100
0100
0100
0000
,
0010
0000
0010
0000
,
0001
0001
0001
0000
,
1000
0000
0010
0000
,
1000
0000
0000
0000
,
0001
0000
0100
0000
,
0001
0001
0001
0000
,
0100
0000
0001
0000
,
0100
0000
0000
0000
,
0010
0000
1000
0000
,
0010
0010
0010
0000
,
1001
0000
0000
0000
,
0000
0000
0000
0000
;
#NOTES:
     dance-single:
     :
     Easy:
     4:
     :
0000
0000
0000
0000
,
0000
0000
0000
0000
,
0000
0000
0000
0000
,
0000
0000
0000
0000
,
0000
0000
0000
0000
,
1000
1000
0001
0000
,
0001
0001
0100
0000
,
0100
0100
0010
0000
,
2000
0000
3001
0000
,
0000
0000
0000
0000
,
0000
0000
0000
0000
,
1000
0000
1000
0000
,
0100
0010
0010
0000
,
0001
0000
0001
0000
,
0100
0010
0010
0000
,
2000
0000
3001
0000
,
0002
0000
1003
0000
,
0010
0000
0100
0000
,
0001
0001
1000
1000
,
0100
0000
0100
0000
,
0010
0001
0001
0000
,
1000
0000
1000
0000
,
0001
0100
0100
0000
,
0020
0000
0130
0000
,
0200
0000
0310
0000
,
2000
0000
3002
0000
,
1003
0000
0000
0000
,
1000
1000
1000
0000
,
0001
1000
0100
0000
,
0100
0100
0100
0000
,
0010
0001
1000
0000
,
1000
1000
1000
0000
,
0001
1000
0010
0000
,
0010
0010
0010
0000
,
0200
0000
0301
0000
,
0001
0001
0001
0001
,
1000
1000
0100
0000
,
0100
0100
0100
0100
,
0010
0010
0001
0000
,
0001
0001
0001
0001
,
0010
0010
0100
0000
,
0100
0100
0100
0100
,
1000
1000
0001
0000
,
1000
0000
1000
0000
,
0100
0010
0010
0000
,
0001
0000
0001
0000
,
0100
0010
0010
0000
,
0001
0000
0001
0000
,
0100
0010
0010
0000
,
1000
0000
1000
0000
,
0100
0010
0010
0000
,
2002
0000
0000
3003
,
0000
0000
0000
0000
;
#NOTES:
     dance-single:
     :
     Medium:
     7:
     :
0000
0000
0000
0000
,
0000
0000
0000
0000
,
0000
0000
0000
0000
,
0000
0000
0000
0000
,
0000
0000
0000
0000
,
1000
0000
1000
0000
1000
0001
1000
0000
,
0100
0000
0100
0000
0100
0010
0001
0000
,
0100
0000
0100
0000
0100
0010
0100
0000
,
0001
0001
1000
1000
,
0002
0000
0000
0203
0000
0000
0320
0000
,
0000
2030
0000
0000
3001
0000
0010
0000
,
0001
0000
0100
0000
0010
1000
0010
0000
,
1000
0100
0001
0100
,
1000
0000
0001
0000
0100
0010
0100
0000
,
0001
0000
1000
0100
,
0001
0000
0001
0000
0100
0010
0100
0000
,
1000
0100
0010
0100
,
2000
0000
0000
3200
0000
0000
0320
0000
,
0000
0032
0000
0000
0003
0000
0000
0000
,
0010
0000
0001
0000
0100
0010
0100
0000
,
0001
0100
1000
0100
,
0010
0000
1000
0000
0100
0010
0100
0000
,
1000
0000
0001
0010
,
0100
0000
0100
0000
0010
0001
0010
0000
,
0001
0100
1000
0100
,
0001
0000
0000
0000
1000
0100
0000
0010
,
0000
0000
0000
0000
,
0001
0000
0010
0000
0100
0000
1000
0001
,
0000
0000
0000
0000
1000
0001
1000
0000
,
0100
0010
0001
0010
,
0200
0000
0000
2300
0000
0000
3001
0000
,
1000
0000
0100
0000
0010
0000
0001
0100
,
0000
0000
0000
0000
0001
1000
0001
0000
,
0010
0100
1000
0010
,
0200
0000
0000
0302
0000
0000
0013
0000
,
1000
1000
0100
0010
,
0001
0000
0010
0000
0100
1000
0100
0000
,
0010
0010
0001
0001
,
1000
0010
0100
0000
,
0001
0001
0010
0100
,
1000
0000
0100
0000
0010
0001
0100
0000
,
0010
0010
1000
1000
,
0100
0010
0001
0000
,
0001
0000
0001
0000
0001
1000
0001
0000
,
0100
0000
0100
0000
0100
0010
1000
0000
,
0100
0000
0100
0000
0100
0010
0100
0000
,
1000
1000
0001
0001
,
1000
0000
1000
0000
1000
0001
1000
0000
,
0100
0000
0100
0000
0100
0010
0001
0000
,
0100
0000
0100
0000
0100
0010
0100
0000
,
0001
0001
1000
1000
,
2002
0000
0000
0000
,
0000
3003
0000
0000
,
0000
0000
0000
0000
;
#NOTES:
     dance-single:
     :
     Hard:
     10:
     :
0000
0000
0000
0000
,
0000
0000
0000
0000
,
0000
0000
0000
0000
,
0000
0000
0000
0000
,
0000
0000
0000
0000
,
0020
0100
0130
0000
0001
1000
0001
0000
,
0020
0100
0130
0000
1000
0001
1000
0000
,
0020
0100
0130
0000
0001
1000
0001
0000
,
1000
0100
0010
0001
1000
0010
0001
0000
,
0110
0000
0000
1001
0000
0000
1010
0000
,
0000
0101
0000
0000
0110
0000
1001
0000
,
0010
1000
0100
0000
0010
0001
0100
0000
,
0001
1000
0001
1000
0010
1000
0100
0000
,
0010
0001
0010
0100
0001
0100
1000
0200
,
0000
0300
0101
1100
,
0001
1000
0010
0001
0000
0000
0010
0010
,
1000
0100
0001
0100
0000
0010
0001
0010
,
0200
0000
0000
2300
0000
0000
3020
0000
,
0000
0230
0000
0000
0301
0000
0001
0000
,
0010
0001
0100
0000
0010
1000
0100
0000
,
1000
0001
1000
0001
0010
0001
0100
0000
,
0010
1000
0010
0200
0000
0301
1000
0200
,
0000
0000
0300
0000
0001
0001
0100
0100
,
1000
0100
0010
0001
0000
0000
1000
1000
,
0010
0001
0010
0100
0000
0000
0001
1000
,
0000
0000
0000
0000
0100
0010
0000
1001
,
0000
0000
0000
0000
,
0002
0000
1003
1000
1000
0100
0000
0010
,
0002
0000
0003
0000
0001
0010
0100
1000
,
0002
0000
0103
0000
0100
0010
0000
1000
,
0200
0000
0000
0320
0000
0000
0031
0000
,
2000
0000
3010
0010
0010
0100
0000
0001
,
0020
0000
0030
0000
0100
0010
0001
1000
,
0020
0000
0130
0000
0001
0100
0000
0100
,
0020
0000
0000
2030
0000
0000
3001
0000
,
0011
0011
1100
1100
,
0001
0100
0010
1000
0001
0010
0100
0000
,
1001
1001
0110
0110
,
1000
0100
0010
0001
0100
0010
1000
0000
,
0101
0101
1010
1010
,
0001
0100
0001
1000
0100
0010
0100
0000
,
0011
0011
1100
1100
,
1000
0001
0010
0100
0010
0001
1000
0000
,
0200
0010
0310
0000
0001
1000
0001
0000
,
0200
0010
0310
0000
1000
0001
1000
0000
,
0200
0010
0310
0000
0001
1000
0001
0000
,
1000
0100
0001
0100
1000
0010
0001
0000
,
0020
0100
0130
0000
0001
1000
0001
0000
,
0020
0100
0130
0000
1000
0001
1000
0000
,
0020
0100
0130
0000
0001
1000
0001
0000
,
1000
0100
0010
0001
1000
0010
0001
0000
,
0220
0000
0000
0000
,
0000
0000
0000
0330
,
0000
0000
0000
0000
;
#NOTES:
     dance-double:
     :
     Easy:
     4:
     :
00000000
00000000
00000000
00000000
,
00000000
00000000
00000000
00000000
,
00000000
00000000
00000000
00000000
,
00000000
00000000
00000000
00000000
,
00000000
00000000
00000000
00000000
,
00100000
00000000
10010000
00000000
,
01000000
00000000
10010000
00000000
,
00100000
00000000
10010000
00000000
,
01000000
00010000
00001000
00000000
,
00000010
00000000
00000000
00000001
00000000
00000000
00001000
00000000
,
00000000
00000001
00000000
00000000
00000100
00000000
00000100
00000000
,
00000001
00001000
00000100
00000000
,
00000010
00000001
00000100
00000000
,
00001000
00000000
00010000
00000000
,
00100000
00000000
00000000
00000000
,
10000000
00010000
00100000
00000000
,
01000000
00010000
00001000
00000000
,
00000010
00000000
00000000
00000001
00000000
00000000
00001000
00000000
,
00000000
00000001
00000000
00000000
00000000
00000000
00000000
00000000
,
00000001
00001000
00000100
00000000
,
00000010
00000001
00000100
00000000
,
00001000
00000000
00010000
00000000
,
00100000
00000000
00000000
00000000
,
10000000
00010000
10000000
00000000
,
01000000
00100000
01000000
00000000
,
10010000
00000000
00000000
00000000
01000000
00000000
00000000
00100000
,
00000000
00000000
00000000
00000000
,
20000000
00000000
32000000
00000000
,
03010000
00000000
00000000
00000000
,
00002000
00000000
00003020
00000000
,
00000031
00000000
00000000
00000000
,
00000200
00000000
00002300
00000000
,
00013000
00000000
00000000
00000000
,
00200000
00000000
20300000
00000000
,
30010000
00000000
00000000
00000000
,
10000000
00010000
10000000
00000000
,
01000000
00100000
01000000
00000000
,
00010000
00000000
00001000
00000000
,
00000010
00000000
00000000
00000000
,
00000010
00000100
00000010
00000000
,
00000001
00001000
00000001
00000000
,
00000100
00000000
00001000
00000000
,
00010000
00000000
00000000
00000000
,
00100000
00000000
10010000
00000000
,
01000000
00000000
10010000
00000000
,
00100000
00000000
10010000
00000000
,
01000000
00010000
00001000
00000000
,
00000010
00000000
00001001
00000000
,
00000100
00000000
00001001
00000000
,
00000010
00000000
00001001
00000000
,
00000001
00000100
00001000
00000000
,
00022000
00000000
00000000
00033000
,
00000000
00000000
00000000
00000000
;
#NOTES:
     dance-double:
     :
     Medium:
     7:
     :
00000000
00000000
00000000
00000000
,
00000000
00000000
00000000
00000000
,
00000000
00000000
00000000
00000000
,
00000000
00000000
00000000
00000000
,
00000000
00000000
00000000
00000000
,
10000000
00000000
10000000
00000000
10000000
00010000
10000000
00000000
,
01000000
00000000
01000000
00000000
01000000
00100000
01000000
00000000
,
00010000
00000000
00010000
00000000
00010000
00001000
00010000
00000000
,
00001000
00001000
00000010
00000010
,
00000002
00000000
00000000
00000203
00000000
00000000
00002300
00000000
,
00000000
00023000
00000000
00000000
00130000
00000000
10000000
00000000
,
00010000
00000000
01000000
00000000
00100000
10000000
00100000
00000000
,
10000000
01000000
00010000
00001000
,
00000010
00000000
00000001
00000000
00000100
00000010
00000100
00000000
,
00000001
00000000
00000100
00001000
,
00010000
00000000
00010000
00000000
00100000
01000000
00100000
00000000
,
10000000
01000000
00010000
01000000
,
10000000
00000000
00000000
01000000
00000000
00000000
00010000
00000000
,
00000000
00001000
00000000
00000000
00000000
00000000
00000000
00000000
,
00000010
00000000
00000001
00000000
00000100
00000010
00000100
00000000
,
00000001
00000100
00001000
00010000
,
00100000
00000000
10000000
00000000
01000000
00100000
01000000
00000000
,
10000000
00000000
01000000
00010000
,
00001000
00000000
00001000
00000000
00000010
00000100
00000010
00000000
,
00000001
00000100
00001000
00000100
,
00000001
00000000
00000000
00000000
00001000
00000100
00000000
00000010
,
00000000
00000000
00000000
00000000
,
00000001
00000000
00000100
00000000
00001000
00000000
00001000
00010000
,
00000000
00000000
00100000
10000000
,
01000000
00100000
00010000
00100000
,
01000000
00000000
00000000
00010000
00000000
00000000
00001000
00000000
,
00000010
00000000
00000001
00000000
00001000
00000000
00001000
00000100
,
00000000
00000000
00010000
00001000
,
00010000
00100000
10000000
00010000
,
10000000
00000000
00000000
01000000
00000000
00000000
00010000
00000000
,
00001000
00001000
00000010
00000001
,
00000001
00000010
00000100
00001000
,
00000001
00000100
00001000
00000100
,
00001000
00010000
00100000
00000000
,
00100000
10000000
01000000
00010000
,
00010000
01000000
00100000
00010000
,
10000000
01000000
00010000
00001000
,
00000010
00000001
00000100
00000000
,
00000001
00000000
00000001
00000000
00000001
00001000
00000001
00000000
,
00000100
00000000
00000100
00000000
00000100
00000010
00000100
00000000
,
00001000
00000000
00001000
00000000
00001000
00010000
00001000
00000000
,
00010000
00010000
00100000
00100000
,
10000000
00000000
10000000
00000000
10000000
00010000
10000000
00000000
,
01000000
00000000
01000000
00000000
01000000
00100000
01000000
00000000
,
00010000
00000000
00010000
00000000
00010000
00001000
00010000
00000000
,
00001000
00001000
00000010
00000010
,
00002002
00000000
00000000
00000000
,
00000000
00003003
00000000
00000000
,
00000000
00000000
00000000
00000000
;
#NOTES:
     dance-double:
     :
     Hard:
     11:
     :
00000000
00000000
00000000
00000000
,
00000000
00000000
00000000
00000000
,
00000000
00000000
00000000
00000000
,
00000000
00000000
00000000
00000000
,
00000000
00000000
00000000
00000000
,
00200000
00000000
00310000
00000000
00001000
00010000
00001000
00000000
,
00000020
00000000
00001030
00000000
00010000
00001000
00010000
00000000
,
02000000
00000000
03010000
00000000
00001000
00010000
00001000
00000000
,
00000100
00001000
00010000
00100000
00010000
00001000
00000010
00000000
,
00000011
00000000
00000000
00000101
00000000
00000000
00001100
00000000
,
00000000
00011000
00000000
00000000
01010000
00000000
11000000
00000000
,
00100000
10000000
01000000
00000000
00100000
00010000
01000000
00000000
,
00001000
00010000
00001000
00010000
00000010
00001000
00000100
00000000
,
00000010
00000001
00000010
00000100
00000001
00000100
00001000
00000200
,
00000000
00000300
00000101
00001100
,
00010000
00001000
00100000
00010000
00000000
00000000
10000000
10000000
,
01000000
00100000
00010000
01000000
00000000
00100000
10000000
00100000
,
02000000
00000000
00000000
03002000
00000000
00000000
00023000
00000000
,
00000000
00030020
00000000
00000000
00001030
00000000
00000100
00000000
,
00000010
00000001
00000100
00000000
00000010
00001000
00000100
00000000
,
00010000
00001000
00010000
00001000
00100000
00010000
01000000
00000000
,
00100000
10000000
00100000
02000000
00000000
03010000
10000000
02000000
,
00000000
00000000
03000000
00000000
00010000
00010000
01000000
01000000
,
10000000
01000000
00100000
00010000
00000000
00000000
10000000
10000000
,
01000000
00010000
00001000
00000010
00000000
00000000
00000001
00000100
,
00000000
00000000
00000000
00000000
00000010
00000100
00000000
00001001
,
00000000
00000000
00000000
00000000
,
00000002
00000000
00000203
00000000
00001300
00010000
00001000
00010000
,
00200000
00000000
20300000
00000000
31000000
00010000
01000000
00010000
,
00002000
00000000
00003020
00000000
00000031
00000100
00000001
00000100
,
00002000
00000000
00000000
00023000
00000000
00000000
00130000
00000000
,
20000000
00000000
32000000
00000000
03010000
00001000
00010000
00001000
,
00000020
00000000
00000032
00000000
00000103
00001000
00000100
00001000
,
00020000
00000000
00230000
00000000
10300000
01000000
10000000
01000000
,
00020000
00000000
00000000
00032000
00000000
00000000
00003010
00000000
,
00000001
00000010
00000001
00000010
00000100
00001000
00000100
00001000
,
00000001
00000010
00001000
00010000
01000000
10000000
00010000
01000000
,
00100000
10000000
00100000
10000000
00010000
01000000
00010000
01000000
,
00001000
00010000
00000100
00000010
00000001
00001000
00001000
00000000
,
00000010
00010000
00000010
00010000
00001000
00100000
00001000
00100000
,
01000000
10000000
01000000
00010000
00001000
00000010
00000100
00001000
,
00000001
00000100
00000001
00000100
00000010
00001000
00000010
00001000
,
00000001
00000010
00001000
00010000
01000000
10000000
10000000
00000000
,
00200000
00000000
00310000
00000000
00001000
00010000
00001000
00000000
,
00000020
00000000
00001030
00000000
00010000
00001000
00010000
00000000
,
02000000
00000000
03010000
00000000
00001000
00010000
00001000
00000000
,
00000100
00001000
00010000
00100000
00010000
00001000
00000010
00000000
,
00000200
00000000
00010300
00000000
00001000
00010000
00001000
00000000
,
02000000
00000000
03001000
00000000
00010000
00001000
00010000
00000000
,
00000020
00000000
00010030
00000000
00001000
00010000
00001000
00000000
,
00000100
00001000
00010000
01000000
10000000
00100000
00010000
00000000
,
00022000
00000000
00000000
00000000
,
00000000
00000000
00000000
00033000
,
00000000
00000000
00000000
00000000
;
