
//----- song ID: wada -----//
#TITLE:海神;
#ARTIST:兎々;
#TITLETRANSLIT:Wadatsumi;
#ARTISTTRANSLIT:Totto;
#BANNER:Wadatsumi.png;
#BACKGROUND:Wadatsumi-bg.png;
#CDTITLE:./CDTitles/REFLEC BEAT colette -Summer-.png;
#MUSIC:Wadatsumi.ogg;
#SAMPLESTART:72.075;
#SAMPLELENGTH:15;
#BPMS:0=159;
#STOPS:68=1.132,317=0.377;
#BGSTAGE:14;
#NOTES:
     dance-single:
     :
     Beginner:
     3:
     :
0000
0000
0000
0000
,
0000
0000
0000
0000
,
0000
0000
0000
0000
,
0000
0000
0000
0000
,
0000
0000
0000
0000
,
0000
0000
0000
0000
,
0000
0000
0000
0000
,
0000
0000
0000
0000
,
0000
0000
0000
0000
,
1001
0000
0000
0000
,
0000
0000
0000
0000
,
1001
0000
0000
0000
,
0000
0000
0000
0000
,
1001
0000
0000
0000
,
0000
0000
0000
0000
,
0001
0000
1000
0000
,
0001
0001
1000
1000
,
0000
0001
0000
0001
,
0000
0010
0000
0010
,
0000
1000
0000
1000
,
0000
0010
0000
0010
,
0000
0001
0000
0010
,
0000
1000
0000
0010
,
0000
0001
0000
0010
,
0000
1000
0000
0000
,
0000
0001
0001
0001
,
0000
0100
0100
0100
,
0000
1000
1000
1000
,
0000
0010
0010
0010
,
0000
0001
0001
0001
,
0000
0010
0010
0010
,
0000
1000
1000
1000
,
0000
0100
0100
0100
,
0000
0200
0000
0000
,
0000
0300
0000
0000
,
0000
0020
0000
0000
,
0000
0030
0000
0000
,
0000
0001
0000
1000
,
0000
0001
0000
0000
,
0000
1000
0000
0001
,
0000
1000
0000
0000
,
0000
0010
0000
0100
,
0000
0010
0000
0000
,
0000
2000
0000
3000
,
0000
0002
0000
0003
,
0000
1000
0000
0001
,
0001
0001
0000
0000
,
0000
0001
0000
0010
,
0000
0100
0100
0100
,
0000
1000
0000
0010
,
0000
0100
0100
0100
,
0000
0002
0000
0003
,
0000
2000
0000
3000
,
0000
0001
0000
1000
,
0000
0001
0001
0001
,
0000
0010
0000
1000
,
0000
0001
0001
0001
,
0000
0010
0000
0001
,
0000
1000
1000
1000
,
0000
0020
0000
0030
,
0000
0200
0000
0300
,
0000
0001
0000
1000
,
0000
0001
0000
1000
,
0000
1001
0000
0000
,
0000
0000
0000
0000
,
0000
1001
0000
0000
,
0000
0000
0000
0000
,
0000
1001
0000
0000
,
0000
0000
0000
0000
,
0000
0001
0000
1000
,
0000
2002
0000
3003
,
0000
0001
0001
0001
,
0000
0100
0100
0100
,
0000
0010
0010
0010
,
0000
1000
1000
1000
,
0000
0100
0100
0100
,
0000
0010
0010
0010
,
0000
0001
0001
0001
,
0000
1000
1000
1000
,
0000
0000
0010
0000
,
0000
0000
0000
0000
;
#NOTES:
     dance-single:
     :
     Easy:
     8:
     :
0000
0000
0000
0000
,
0000
0000
0000
0000
,
0000
0000
0000
0000
,
0000
0000
0000
0000
,
0000
0000
0000
0000
,
0000
0000
0000
0000
,
0000
0000
0000
0000
,
0000
0000
0000
0000
,
0000
0000
0000
0000
,
0201
0000
0000
0000
,
0320
0000
0000
0000
,
2030
0000
0000
0000
,
3002
0000
0000
0000
,
2003
0000
0010
3010
,
0200
0000
0010
0310
,
0110
0000
1001
0000
,
0001
0010
0100
1000
,
0000
0002
0010
1000
,
0103
0001
0100
1000
,
0100
0002
0010
1000
,
0103
0001
0100
1000
,
0100
2000
0010
0001
,
3100
1000
0100
0001
,
0100
2000
0010
0001
,
3100
2002
0000
0000
,
3003
0000
0100
0001
1000
0000
0010
0000
,
1000
0000
0001
0010
0100
0000
1000
0000
,
0100
0000
0010
0001
0010
0000
0100
0000
,
1000
0000
0001
0100
0010
0000
0100
0000
,
0100
0000
0010
1000
0100
0000
0010
0000
,
0100
0000
0010
0001
0100
0000
0010
0000
,
0100
1010
0000
0011
,
0000
0001
0100
1000
,
0010
2000
0000
0000
,
3001
0020
0000
0000
,
0130
2000
0000
3002
,
0023
0230
0000
0310
,
0000
0100
0100
0110
,
0000
0001
0001
0101
,
0000
1000
0010
0100
,
0001
1000
0100
1000
,
0000
1000
0100
0010
,
0001
0100
0010
1000
,
0010
2000
0000
0000
,
0000
3002
0000
0000
,
0000
0103
0000
1000
,
0010
0001
0200
0300
,
0000
0001
1000
0100
,
0010
0000
0001
0000
0010
0000
0100
1000
,
0100
0010
1000
0001
,
0100
0110
1001
0110
,
0000
0002
0010
1000
,
0013
2000
0010
0001
,
3010
0000
0001
0000
0010
0100
1000
0000
,
0010
0100
0001
0000
0010
0000
0011
0000
,
0000
1000
0001
0100
,
0010
0000
1000
0000
0100
0000
0010
0100
,
0010
0001
0100
0010
,
1000
0011
1010
0011
,
0000
1000
0001
1000
,
0010
0000
1000
0000
0100
0000
0010
0001
,
0100
1010
0100
0011
,
0100
1000
0001
0100
,
0010
2002
0000
0000
,
0000
0000
0000
0000
,
3003
2000
0000
0000
,
3000
0020
0000
0000
,
0030
0200
0000
0010
,
0310
0002
0000
0010
,
0013
0200
0000
1000
,
1300
0001
0100
0010
,
1000
2010
0001
0010
,
3001
0001
0010
1000
,
0100
0012
1000
0010
,
1003
0010
0100
0001
,
1000
1200
0010
1000
,
0310
0201
0010
0001
,
0310
0000
1000
0010
1000
0000
0001
0100
,
0001
0000
0100
0000
1000
0000
0010
0100
,
0010
0100
0000
0000
2002
0000
0000
0000
,
0000
0000
0000
0000
,
0000
0000
0000
0000
,
3003
0000
0000
0000
,
0000
0000
0000
0000
;
#NOTES:
     dance-single:
     :
     Medium:
     12:
     :
0000
0000
0000
0000
,
0000
0000
0000
0000
,
0000
0000
0000
0000
,
0000
0000
0000
0000
,
0000
0000
0000
0000
,
0000
0000
0000
0000
,
0000
0000
0000
0000
,
0000
0000
0000
0000
,
0000
0000
0000
0000
,
0021
0000
0000
0000
,
0230
0000
0000
0000
,
2300
0000
0000
0000
,
3002
0000
0000
0000
,
1003
0000
0000
0100
0000
0010
0100
0000
,
0010
0001
0010
0001
0000
0001
0100
0000
,
0110
0000
0000
0001
1001
0000
0000
1000
,
0001
0010
0100
1000
0001
0100
0010
1000
,
0000
0000
0001
0100
0010
1000
1000
0100
,
0010
0000
0001
0100
0010
1000
1000
0100
,
0010
0010
0001
0100
0010
1000
1000
0100
,
0010
0000
0001
0100
0010
1000
1000
0010
,
0100
0001
1000
0100
0010
0001
0001
0100
,
0010
0000
1000
0100
0010
0001
0001
0100
,
0010
0010
1000
0100
0010
0001
0001
0100
,
0010
2002
0000
0000
,
3003
0000
0010
0001
1000
0001
1000
0001
,
0100
0000
0001
0010
1000
0100
0010
0100
,
1000
0000
0100
0010
0001
0100
0010
0100
,
0001
0000
0010
0100
0100
0010
0100
1000
,
0100
1000
0010
0001
1000
0100
0010
0100
,
0010
0000
1000
0010
1000
0001
0010
0100
,
0001
0000
1000
0010
0100
0100
1000
0001
,
0100
0000
0001
0100
0010
0100
0010
0010
,
1000
0001
2000
0000
0000
0000
0000
0000
,
3001
0010
0200
0000
0000
0000
0000
0000
,
0310
0100
2000
0000
0000
0000
3002
0000
,
0203
0000
0320
0000
0030
1000
0100
0000
,
0000
0000
0010
0001
0010
0001
0100
0010
,
1000
0000
0001
0100
0001
0100
0010
1000
,
0001
0000
1000
0100
0001
0100
1000
0000
,
0001
0000
1000
0010
0100
0010
1000
0000
,
0000
0001
1000
1000
0010
0010
1000
0001
,
0010
0100
1000
1000
0100
0100
1000
0001
,
0100
0010
2000
0000
0000
0000
0000
0000
,
0000
3002
0000
0000
,
0000
0013
0000
1000
,
0100
0001
0020
0030
,
0001
0000
0010
0000
0001
0000
0000
0001
1000
0000
0000
1000
0010
0000
1000
0000
,
0100
0000
0010
0000
0001
0000
0000
0001
0100
0000
0000
0100
0010
0000
1000
0000
,
0010
0000
0100
0000
0010
0000
0000
0010
1000
0000
0000
1000
0001
0000
0100
0000
,
0010
1100
0101
1100
,
0001
0000
0100
0000
0001
0000
0000
0001
1000
0000
0000
1000
0001
0000
0010
0000
,
0100
0000
0010
0000
0001
0000
0000
0001
0010
0000
0000
0010
0100
0000
1000
0000
,
0100
1000
0001
0000
0001
0100
1000
0000
,
1000
0100
0001
1000
0100
1000
0001
0000
,
1000
0000
0010
0000
1000
0000
0000
1000
0001
0000
0000
0001
0010
0000
0001
0000
,
0100
0000
0010
0000
1000
0000
0000
1000
0100
0000
0000
0100
0010
0000
0001
0000
,
0010
0000
0100
0000
0010
0000
0000
0010
0001
0000
0000
0001
1000
0000
0100
0000
,
0010
0101
1100
0101
,
1000
0000
0100
0000
1000
0000
0000
1000
0001
0000
0000
0001
1000
0000
0010
0000
,
0100
0000
0010
0000
1000
0000
0000
1000
0010
0000
0000
0010
0100
0000
0001
0000
,
0100
0001
1000
0000
1000
0100
0001
0000
,
0001
0100
0010
0001
0100
0010
1000
0000
,
0001
0220
0000
0000
,
0000
0000
0000
0000
,
0330
0000
1000
0000
0000
1000
0000
1000
,
0000
0000
0001
0100
0010
0100
0000
0001
,
1000
0100
1000
0000
0000
0001
0000
0001
,
0000
0000
0010
0010
0001
0010
0000
1000
,
0000
0000
0010
0000
0000
0001
0000
0010
,
0000
0000
1000
1000
0001
1000
0000
0001
,
0010
0000
0100
0000
1000
0000
0000
1000
0010
0000
0000
0001
0010
0000
0000
1000
,
0100
0000
0001
0000
0100
0000
0000
1000
0010
0000
0001
0000
0010
0000
0000
0010
,
0001
0000
1000
0000
0100
0000
0000
1000
0010
0000
0000
1000
0001
0000
0000
1000
,
0100
0000
0100
0000
0100
0000
0000
0010
0001
0000
0001
0000
1000
0000
0010
0000
,
0100
0001
0020
0000
1000
0000
0001
0000
,
1030
0200
0001
1000
,
0301
0000
1000
0001
0100
0001
1000
0100
,
0010
0001
0010
0100
1000
0010
0100
0001
,
0010
0100
0000
0000
2002
0000
0000
0000
,
0000
0000
0000
0000
,
0000
0000
0000
0000
,
3003
0000
0000
0000
,
0000
0000
0000
0000
;
#NOTES:
     dance-single:
     :
     Hard:
     16:
     :
0000
0000
0000
0000
,
0000
0000
0000
0000
,
0000
0000
0000
0000
,
0000
0000
0000
0000
,
0000
0000
0000
0000
,
0000
0000
0000
0000
,
0000
0000
0000
0000
,
0000
0000
0000
0000
,
0000
0000
0000
0000
,
1020
0000
0000
0000
,
0200
0000
0030
0000
,
0002
0000
0300
0000
,
2000
0000
0003
3000
,
0001
0010
0000
0010
0000
0000
0100
0010
0000
0001
0010
0001
0010
0001
0000
0001
,
1000
0000
1000
0000
0010
0100
0010
0100
0000
0010
1000
0010
0000
0010
0000
0010
,
0100
0010
0000
0100
0010
0000
1000
0000
0010
0100
0000
0010
0100
0000
0001
0000
,
1000
0100
0010
0001
1000
0100
0010
0001
1000
0010
0100
0001
1000
0010
0100
0001
,
0000
0000
0000
0000
1000
0000
0100
0000
0010
0000
0001
0100
0001
0000
0100
0000
,
0010
0000
0000
0000
1000
0000
0100
0000
0010
0000
0001
1000
0001
0000
0100
0000
,
0010
0000
0010
0000
1000
0000
0100
0000
0010
0000
0001
0100
0001
0000
0100
0000
,
0010
0000
0000
0000
1000
0000
0100
0000
0010
0000
0001
1000
0001
0000
0010
0000
,
0100
0000
1000
0000
0001
0000
0100
0000
0010
0000
1000
0100
1000
0000
0100
0000
,
0010
0000
0000
0000
0001
0000
0100
0000
0010
0000
1000
0001
1000
0000
0100
0000
,
0010
0000
0010
0000
0001
0000
0100
0000
0010
0000
1000
0100
1000
0000
0100
0000
,
0010
2002
0000
0000
,
3003
0000
0000
0000
0010
0000
1000
0000
0001
0010
0001
1000
0001
0000
1000
0000
,
0100
0000
0000
0000
1000
0000
0010
1000
0001
0000
0100
0010
1000
0010
0100
0010
,
1000
0000
0000
0000
0100
0000
0010
0000
0001
1000
0010
0100
0001
0000
1000
0000
,
0001
0000
0000
0000
0010
0000
0100
0010
0100
0000
0010
0000
0001
0100
0001
0100
,
0010
1000
0001
0100
0010
0000
1000
0000
0001
1000
0001
1000
0100
0000
0010
0000
,
0001
0000
0000
0000
1000
0000
0010
1000
0001
0000
1000
0100
0010
0001
0100
0010
,
1000
0000
0000
0000
0001
0000
0010
0000
0100
0010
0100
0010
0001
0000
1000
0000
,
0100
0000
0010
0000
0001
0010
0001
0010
0100
1000
0100
1000
0001
0100
0001
0100
,
0010
1000
0010
1000
0002
0000
0000
0000
0000
0000
0000
0000
0000
0000
0000
0000
,
1003
0100
0002
0000
0000
0000
0000
0000
,
1003
0010
0002
0000
0000
0000
2003
0000
,
3020
0000
0000
0000
0032
0000
0000
0000
0000
0000
1003
0100
0001
0000
0000
0000
,
0000
0000
0000
0000
1000
0100
1000
0100
0010
0100
0010
0100
1000
0000
0001
0000
,
0010
0000
0100
0000
1000
0010
1000
0010
0100
0010
0100
0010
1000
0000
0001
0000
,
0100
0010
1000
0010
0001
0100
1000
0000
,
0001
0010
0100
1000
0001
0000
0100
0000
0010
0000
0100
0000
0001
0000
0000
0000
,
0000
0000
1000
0000
0001
0100
0001
0100
0010
0100
0010
0100
0001
0000
1000
0000
,
0010
0000
0100
0000
0001
0010
0001
0010
0100
0010
0100
0010
0001
0000
1000
0000
,
0100
0010
0002
0000
0203
0000
2300
0000
,
3020
0032
0023
0230
,
2300
3010
0000
0001
,
0100
1000
0020
0030
,
1000
0100
0010
0001
1000
0000
0000
1000
0001
0000
0010
0100
0010
0000
0001
0000
,
0100
0000
0010
0000
1000
0000
0000
1000
0100
0000
0010
0100
0010
0001
0010
0001
,
1000
0100
1000
0100
0010
0000
0000
0001
0010
0000
0100
0000
1000
0000
0100
0000
,
0010
0001
0201
0000
1000
0000
0301
0000
,
1000
0010
0100
0001
2000
0000
0000
0000
0001
0000
0000
0000
3001
0000
0010
0100
,
0010
0000
0100
0000
2000
0000
0000
0000
3010
0000
0100
0001
0100
0000
0100
0010
,
0100
0000
0010
0000
1000
0000
0000
0000
1000
0100
0010
0001
1000
0000
0000
0000
,
1000
0010
0100
0001
0010
0000
0001
0000
0011
0000
1001
0000
1010
0000
0000
0000
,
0001
0100
0010
1000
0001
0000
0000
0001
1000
0000
0010
0100
0010
0000
1000
0000
,
0100
0000
0010
0000
0001
0000
0000
0001
0100
0000
0010
0100
0010
1000
0010
1000
,
0001
0100
0001
0100
0010
0000
0000
1000
0010
0000
0100
0000
0001
0000
0100
0000
,
0010
1000
1200
0000
0001
0000
1300
0000
,
0001
0010
0100
1000
0002
0000
0000
0000
1000
0000
0000
0000
1003
0000
0010
0100
,
0010
0000
1000
0001
1000
0000
0000
1000
0100
0000
0010
0001
1000
0000
0100
1000
,
0001
0000
0010
0000
0001
0000
0000
0000
0001
0100
0010
1000
0001
0000
0000
0000
,
0001
0010
0100
1000
0010
0000
1000
0010
1000
0000
0001
0000
0010
0000
0000
0000
,
0100
2200
0000
0000
,
0000
0000
0000
0000
,
3300
0000
0000
0000
0001
0100
0000
0100
0000
0000
0001
0100
0000
0100
0001
0100
,
0000
0001
0000
0001
1000
0000
1000
0000
0100
0010
0100
0010
0000
0001
0100
0010
,
1000
0001
0100
0010
1000
0100
0000
0100
0000
0000
1000
0100
0000
0100
0010
0100
,
0000
0100
0000
0100
1000
0000
1000
0000
1000
0100
0010
0001
0000
1000
0001
1000
,
0000
0100
0000
0100
0010
0100
0000
0100
0000
0000
1000
0100
0000
0100
0010
0100
,
0000
0100
0000
0100
1000
0000
1000
0000
0001
0100
0001
0100
0000
0010
1000
0100
,
0010
0001
0100
0010
1000
0000
0010
1000
0001
0000
1000
0001
0010
0000
0100
0000
,
1000
0001
0100
0001
1000
0000
0001
0000
0010
0100
0010
0100
1000
0100
0000
0100
,
1000
0000
0001
0000
0100
0000
0010
1000
0001
0000
0100
0001
1000
0000
0010
0000
,
0100
0010
0100
0010
0100
0000
0010
0000
1000
0100
1000
0000
0001
0010
0100
1000
,
0001
0100
0010
1000
0020
0000
1000
0001
0000
0000
0001
1000
0000
0000
1000
0001
,
0030
0000
0001
1000
0200
0000
1000
0001
0000
0000
0001
1000
0000
0000
1000
0001
,
0300
0000
0001
1000
0100
0000
1000
0000
0100
0000
1000
0000
0001
0000
0100
0000
,
0001
0000
0100
0000
0010
1000
0100
0010
0001
0100
0010
1000
0100
0010
0001
0100
,
0010
1000
0100
0010
0000
0000
0000
0000
2002
0000
0000
0000
0000
0000
0000
0000
,
0000
0000
0000
0000
,
0000
0000
0000
0000
,
3003
0000
0000
0000
,
0000
0000
0000
0000
;
#NOTES:
     dance-single:
     :
     Challenge:
     18:
     :
0000
0000
0000
0000
,
0000
0000
0000
0000
,
0000
0000
0000
0000
,
0000
0000
0000
0000
,
0000
0000
0000
0000
,
0000
0000
0000
0000
,
0210
0000
0000
0000
0000
0000
0000
0000
0000
0000
0000
0000
0000
0000
0000
0000
0000
0000
0000
0000
0010
0000
0000
0000
0000
0000
0000
0000
0000
0000
0000
0000
0000
0000
0000
0010
0000
0000
0000
0000
0000
0000
0000
0000
0000
0000
0000
0000
,
0010
0000
0000
0000
0000
0000
0000
0000
0000
0000
0000
0000
0000
0000
0000
0000
0000
0000
0000
0000
0000
0000
0000
0010
0000
0000
0000
0000
0000
0000
0000
0000
0000
0000
0000
0000
0000
0000
0000
0000
0000
0000
0000
0010
0000
0000
0000
0000
0000
0000
0000
0000
0000
0000
0000
0000
0000
0000
0000
0000
0000
0010
0000
0000
0000
0000
0000
0000
0000
0000
0000
0000
0000
0000
0000
0000
0000
0000
0000
0010
0000
0000
0000
0000
0000
0000
0000
0000
0000
0000
0000
0000
0000
0000
0000
0000
,
0000
0010
0000
0000
0000
0000
0000
0000
0000
0000
0000
0000
0000
0000
0010
0000
0000
0000
0000
0000
0000
0000
0000
0000
0000
0000
0000
0000
0000
0000
0310
0000
0000
0000
0000
0000
0000
0000
0000
0000
0000
0000
0000
0000
0000
0000
0000
0000
,
1000
0100
0000
0011
0000
0000
1000
0001
0000
1000
0010
1000
0000
0100
0000
0010
,
0001
0000
0011
0000
0010
0100
1000
0001
0000
0100
1000
0100
0000
0001
0010
0100
,
1000
0001
0000
0011
0000
0000
1000
0001
0000
1000
0010
1000
0000
0001
0000
0010
,
0100
0000
0011
0000
0010
0100
1000
0001
0000
0010
1000
0010
0100
0010
0001
0010
,
0100
1000
0000
1010
0000
0000
0001
1000
0000
0010
0100
0010
0000
1000
0000
0100
,
0010
0000
0011
0000
0001
1000
0010
0100
0000
0001
0010
0001
1000
0010
0100
0001
,
0010
0100
1000
0100
0010
0000
0001
0100
0010
1000
0100
0010
0001
0000
1000
0100
,
0010
0001
0100
0010
1000
0001
0010
0100
1000
0010
0100
0001
0010
0100
1000
0001
,
0000
0000
0000
0000
1001
0000
0110
0000
1000
0010
0100
0001
0010
0000
0011
0000
,
1001
0000
1100
0000
0110
0000
0001
0100
0001
0000
1000
0100
0010
0001
0100
0010
,
1000
0100
0010
0001
0010
0000
0110
0000
0001
0100
0010
1000
0001
0000
0011
0000
,
0110
0000
1100
0000
0110
0000
0001
0100
1000
0100
0001
0100
0010
1000
0100
0001
,
0100
0010
0001
0010
0100
0000
1100
0000
1000
0010
0100
0001
0100
0000
0110
0000
,
0101
0000
0110
0000
1001
0000
1000
0010
0100
0000
0001
0010
0100
1000
0010
0100
,
0001
1000
0100
0010
0001
0000
0011
0000
1000
0010
0100
0001
1000
0000
1001
0000
,
1010
0000
1001
0000
0010
1000
0100
1000
0010
1000
0001
1000
0010
1000
0100
1000
,
0010
0000
0000
0000
1001
0000
0110
0000
0001
0010
1000
0010
0001
0000
1100
0000
,
1001
0000
0011
0000
0110
0000
1000
0010
0100
0000
0001
0010
0100
1000
0010
0001
,
0010
1000
0100
0010
0001
0000
0110
0000
1000
0010
0100
0001
1000
0000
1100
0000
,
0011
0000
0110
0000
1100
0000
1000
0010
0001
0010
0001
0010
1000
0100
0010
0001
,
1000
0010
0100
0001
0010
0000
0011
0000
0001
0010
0100
1000
0010
0000
0110
0000
,
1010
0000
0110
0000
1001
0000
0001
0100
0010
0000
1000
0100
0010
0001
0100
0001
,
0010
0100
1000
0100
0010
0000
0011
0000
0001
0100
0010
1000
0001
0000
1001
0000
,
0101
0000
1001
0000
0001
1000
0001
0010
0001
1000
0001
0010
0100
1000
0100
0010
,
0100
1000
0100
0010
0001
0000
1000
0000
0010
0000
0100
0000
0020
0000
0000
0000
,
1030
0001
0010
0100
1000
0001
0200
0000
,
0301
0010
1000
0010
0001
0100
0020
0000
,
2030
0000
0000
0000
3001
0000
0010
0000
0100
0000
1000
0002
2000
0000
0000
0000
,
3003
0000
0000
0000
0001
0010
0100
1000
0001
0010
0100
1000
0001
0000
0011
0000
,
0101
0000
1001
0000
1000
0010
0100
0001
1000
0010
0100
0001
1000
0000
1010
0000
,
1100
1001
0001
1000
0001
0010
0110
0000
,
0010
0001
1000
0100
0010
0000
0100
0000
1000
0000
0010
0000
0220
0000
0000
0000
,
0330
0000
0010
1000
0001
0100
0001
0100
0010
1000
0010
1000
0001
0000
0011
0000
,
1001
0000
1100
0000
1000
0100
1000
0100
0010
0001
0010
0001
1000
0000
1010
0000
,
1001
0000
0000
0101
0000
0000
0110
0000
0010
0000
1000
0000
0100
0000
0010
0000
0001
0000
0100
0000
1000
0000
0100
0000
,
0010
0100
0001
0101
0100
0010
1000
0100
0010
0100
0001
0100
,
0010
0100
1000
1001
0000
0000
0110
0000
0000
2001
0000
0000
,
0100
0010
0001
3000
,
1000
0100
0010
0001
1000
0000
0001
0100
0001
0000
1000
0100
1000
0000
0010
0000
,
1000
0000
0001
0000
1000
0000
0001
0010
0001
0000
1000
0010
0100
0001
0010
1000
,
0010
0001
0100
0010
1000
0000
0000
0010
0100
0000
0001
0000
0010
0100
1000
0100
,
0010
0000
0001
0000
0100
0000
0010
1000
0010
0000
1000
0000
0100
0010
0001
0010
,
0100
1000
0010
0100
0010
0000
1000
0010
0100
0000
0001
0010
0100
0000
1000
0100
,
0001
0000
0000
0000
0000
0000
0100
0000
0000
1000
0000
0000
0010
0000
0000
0000
0000
0000
0100
0000
0000
0001
0000
0000
0010
0000
0000
0000
0000
0000
0001
0000
0000
0100
0000
0000
1000
0000
0000
0000
0000
0000
0100
0000
0010
0000
0100
0000
,
0001
0000
1000
0000
2002
0000
3003
0000
0010
1000
0100
0010
0002
0000
0003
0000
,
0010
0001
0100
0000
1010
0000
1001
0000
0011
0000
0110
0000
1001
0000
0000
0000
,
0001
0010
0100
1000
0001
0000
1000
0010
1000
0000
0001
0010
0001
0000
0100
0000
,
0001
0000
1000
0000
0001
0000
1000
0100
1000
0000
0001
0100
0010
1000
0100
0001
,
0100
1000
0010
0100
0001
0000
0000
0100
0010
0000
1000
0000
0100
0010
0001
0010
,
0100
0000
1000
0000
0010
0000
0100
0001
0100
0000
0001
0000
0010
0100
1000
0100
,
0010
0001
0100
0010
0100
0000
0001
0100
0010
0000
1000
0100
0010
0000
0001
0010
,
1000
0000
0000
0000
0000
0000
0010
0000
0000
0001
0000
0000
0100
0000
0000
0000
0000
0000
0010
0000
0000
1000
0000
0000
0100
0000
0000
0000
0000
0000
1000
0000
0000
0010
0000
0000
0001
0000
0000
0000
0000
0000
0010
0000
0100
0000
0010
0000
,
1000
0000
0001
0000
2002
0000
3003
0000
0001
1000
0100
0010
0002
0000
0003
0000
,
0010
0001
0100
0010
2000
0000
3001
0010
0100
0000
0110
0000
1002
0000
0000
0000
,
0103
0000
0000
0000
0001
0010
0100
1000
0000
0000
0010
0100
0000
0001
0100
0001
,
0000
0010
0000
0100
1000
0000
1100
0000
1000
0100
0010
0001
0000
1000
0010
0001
,
0010
1000
0100
0010
0001
1000
0100
1000
0000
0000
0010
0100
0000
0001
0100
0001
,
0000
1000
0000
0100
0010
0000
1100
0000
0100
0010
0001
1000
0000
0100
0001
0100
,
0010
0100
1000
0100
0010
0001
1000
0100
0000
0000
1000
0001
0000
0100
0010
0100
,
0000
0001
0000
0010
0100
0000
1100
0000
1000
0001
0100
0010
0000
1000
0100
1000
,
0001
0100
0010
1000
0100
0010
0001
0100
0010
0000
1001
0000
0100
0001
0010
0100
,
1000
0000
0110
0000
1000
0100
0010
0001
1000
0100
0001
0100
1000
0010
0001
0010
,
1000
0100
0001
0100
1000
0000
0100
1000
0001
0000
0100
0010
1000
0000
0100
0010
,
0001
0100
1000
0100
0010
0000
1010
0000
1000
0100
0010
0001
0000
0100
1000
0100
,
0010
1000
0100
0010
0001
0000
0010
0100
0001
0000
1000
0010
0100
0000
1000
0010
,
0100
0000
1000
0001
0010
0000
1010
0000
0001
0010
0100
1000
0000
0001
0010
0001
,
0100
0001
1000
0001
0100
0000
0010
1000
0100
0000
0010
0001
0100
0000
1000
0100
,
0001
1000
0010
1000
0100
0000
0110
0000
0001
1000
0001
0010
0000
0100
0010
0100
,
1000
0010
0100
0001
0010
0100
1000
0001
0010
0000
0110
0000
0100
1000
0010
0100
,
0001
0000
1001
0000
1000
0100
1000
0100
0010
0001
0010
0001
1000
0100
0001
0100
,
1000
0010
0001
0010
0000
0000
0001
2000
0002
0000
0000
0000
0000
0000
0000
0000
,
0000
0000
0000
0000
,
0000
0000
0000
0000
,
3003
0000
0000
0000
,
0000
0000
0000
0000
;
#NOTES:
     dance-double:
     :
     Easy:
     7:
     :
00000000
00000000
00000000
00000000
,
00000000
00000000
00000000
00000000
,
00000000
00000000
00000000
00000000
,
00000000
00000000
00000000
00000000
,
00000000
00000000
00000000
00000000
,
00000000
00000000
00000000
00000000
,
00000000
00000000
00000000
00000000
,
00000000
00000000
00000000
00000000
,
00000000
00000000
00000000
00000000
,
12000000
00000000
00000000
03000000
,
00200000
00000000
00000000
00300000
,
00020000
00000000
00000000
00030000
,
00002000
00000000
00000000
00003000
,
00000200
00000000
00000000
00000310
,
00000002
00000000
00000000
00000103
,
00001000
00000000
00010000
00000000
,
00100000
10000000
01000000
00100000
,
00000000
00020000
00100000
10000000
,
01030000
00100000
00010000
00001000
,
00000100
00002000
00000010
00000001
,
00003100
00000010
00001000
00010000
,
01000000
00020000
00100000
10000000
,
01030000
00100000
00010000
00001000
,
00000100
00002000
00000010
00000001
,
00003100
00022000
00000000
00000000
,
00033000
00000000
00100000
00000000
01000000
00000000
10000000
00010000
,
10000000
01000000
00010000
00001000
,
00000100
00000000
00000010
00000000
00000100
00000000
00000001
00001000
,
00000001
00000100
00001000
00010000
,
01000000
00000000
00100000
00000000
00010000
00000000
10000000
01000000
,
10000000
00100000
00010000
00001000
,
00000100
00000000
00000010
00000000
00001000
00000000
00000001
00000100
,
00000001
00000010
00001000
00010000
,
01000000
20000000
00000000
00000000
,
30100000
00020000
00000000
00000000
,
01030000
00002000
00000000
00023000
,
00030020
00000230
00000000
00000301
,
00000000
00000100
00001000
00010000
,
01000000
10000000
00100000
00010000
,
00001000
00000010
00000001
00001000
,
00000001
00000010
00000010
00000010
,
00000000
00000100
00000100
00000010
,
00010000
00100000
00100000
10000000
,
01000000
00200000
00320000
00032000
,
00003200
00000320
00000032
00000203
,
00002300
00013000
00000000
00010010
,
00011000
00101000
00220000
00330000
,
00000000
10000000
00100000
00010000
,
00001000
00000000
00000010
00000000
00000001
00000000
00000100
00000010
,
00000100
00001000
00010000
01000000
,
00100000
00120000
10000000
00130000
,
10000000
01000000
00010000
00001000
,
00000100
00000001
00000010
00000100
,
00001000
00000010
00010000
00100000
,
10000000
00100000
00010000
00011000
,
00000000
00001000
00000100
00001000
,
00010000
00000000
00100000
00000000
10000000
00000000
01000000
00100000
,
01000000
00010000
00001000
00000010
,
00000100
00002001
00000100
00003001
,
00000001
00000100
00001000
00010000
,
00100000
10000000
00100000
01000000
,
00010000
00100000
00001000
00000010
,
00001000
00100000
00010000
00100000
,
01000000
20020000
00000000
00000000
,
00000000
00000000
00000000
00000000
,
30030000
02000000
00000000
00000000
,
03000000
00020000
00000000
00000000
,
00030000
00002000
00000000
00010000
,
00013000
00002000
00000000
00000100
,
00003100
00000002
00000000
00000010
,
00000013
00000100
00010000
00001000
,
00000000
00010000
00001000
00000010
,
00000100
00001000
00000010
00010000
,
00001000
01000000
00010000
10000000
,
01000000
10000000
00100000
00010000
,
00001000
00000020
00000001
00000100
,
00001030
00010000
01000000
10000000
,
00010000
02000000
10000000
00100000
,
03010000
00001000
00000010
00000100
,
00000001
00000000
00002002
00000000
,
00000000
00000000
00000000
00000000
,
00000000
00000000
00000000
00000000
,
00003003
00000000
00000000
00000000
,
00000000
00000000
00000000
00000000
;
#NOTES:
     dance-double:
     :
     Medium:
     12:
     :
00000000
00000000
00000000
00000000
,
00000000
00000000
00000000
00000000
,
00000000
00000000
00000000
00000000
,
00000000
00000000
00000000
00000000
,
00000000
00000000
00000000
00000000
,
00000000
00000000
00000000
00000000
,
00000000
00000000
00000000
00000000
,
00000000
00000000
00000000
00000000
,
00000000
00000000
00000000
00000000
,
10200000
00000000
00000000
00000000
,
02300000
00000000
00000000
00000000
,
03020000
00000000
00000000
00000000
,
00032000
00000000
00000000
00003000
,
00000010
00000000
00000000
00000010
00000000
00000100
00000001
00000000
,
00001000
00000100
00001000
00000100
00000000
00000010
00000100
00000000
,
00011000
00000000
00000000
00100000
00010000
00000000
00000000
10000000
,
01000000
00100000
00010000
01000000
00100000
00010000
00001000
00010000
,
00000000
00000000
00000010
00001000
00000100
00000010
00001000
00010000
,
00001000
00000000
00100000
00010000
01000000
00100000
00010000
00001000
,
00010000
00000000
00000100
00001000
00000010
00000100
00001000
00010000
,
00001000
00000000
01000000
00010000
00100000
01000000
00010000
00001000
,
00010000
00000000
00001000
00000100
00000001
00000001
00000100
00001000
,
00010000
00000000
00010000
01000000
10000000
10000000
01000000
00010000
,
00001000
00000000
00001000
00000010
00000001
00000001
00000010
00001000
,
00010000
00022000
00000000
00000000
,
00033000
00000000
00100000
10000000
00010000
10000000
01000000
00100000
,
00010000
00000000
01000000
00100000
00010000
00001000
00000100
00001000
,
00010000
00000000
00000100
00001000
00010000
00001000
00000100
00000010
,
00000001
00000000
00000100
00000010
00000001
00000010
00001000
00000010
,
00001000
00000010
00010000
00001000
00010000
01000000
10000000
01000000
,
00100000
00000000
00010000
01000000
00100000
10000000
01000000
00100000
,
00010000
00000000
00011000
00000010
00001000
00000000
00000011
00000100
,
00001000
00000000
00000001
00000100
00000010
00001000
00000010
00000010
,
00000100
00001000
00020000
00000000
00000000
00000000
00000000
00000000
,
01030000
10000000
00020000
00000000
00000000
00000000
00000000
00000000
,
00130000
00010000
00002000
00000000
00000000
00000000
00003200
00000000
,
00000320
00000000
00000032
00000000
00000003
00001000
00000001
00000000
,
00000000
00000000
00000010
00000001
00001000
00000100
00010000
00001000
,
00100000
00010000
10000000
00010000
01000000
00001000
00010000
00000100
,
00001000
00000001
00000100
00000010
00001000
00000100
00000010
00000000
,
00000001
00000000
00000100
00001000
00000100
00000010
00000100
00000000
,
00000000
00000000
00000010
00001000
00000010
00001000
00000100
00010000
,
00001000
00100000
01000000
00100000
01000000
00100000
00010000
00100000
,
01000000
10000000
00200000
00000000
00320000
00000000
00032000
00000000
,
00003200
00000302
00000023
00002030
,
00023000
00031000
00000000
00110000
,
11000000
10100000
02020000
03030000
,
10000000
00000000
00100000
00000000
10000000
00000000
00000000
10000000
01000000
00000000
00000000
01000000
00010000
00000000
00000000
00010000
,
00001000
00000000
00000000
00001000
00000100
00000000
00000000
00000100
00000001
00000000
00000000
00000001
00000010
00000000
00000000
00000010
,
00001000
00000000
00000000
00001000
00010000
00000000
00000000
00010000
00001000
00000000
00000000
00001000
00100000
00000000
00000000
00100000
,
01000000
00120000
00001000
00130000
,
10000000
00000000
01000000
00000000
00100000
00000000
00000000
00100000
00010000
00000000
00000000
00010000
00001000
00000000
00000000
00001000
,
00000100
00000000
00000010
00000000
00000001
00000000
00000000
00000001
00000100
00000000
00000000
00000100
00000010
00000000
00000000
00000010
,
00001000
00010000
01000000
00000000
00100000
10000000
01000000
00000000
,
10000000
00100000
01000000
00010000
00001000
00000010
00000100
00000000
,
00001001
00000000
00000000
00000000
00000001
00000000
00000000
00000001
00000100
00000000
00000000
00000100
00001000
00000000
00000000
00001000
,
00010000
00000000
00000000
00010000
01000000
00000000
00000000
01000000
10000000
00000000
00000000
10000000
00100000
00000000
00000000
00100000
,
00010000
00000000
00000000
00010000
00001000
00000000
00000000
00001000
00010000
00000000
00000000
00010000
00000010
00000000
00000000
00000010
,
00000100
00002010
00010000
00003010
,
00000001
00000000
00000100
00000000
00000010
00000000
00000000
00000010
00001000
00000000
00000000
00001000
00010000
00000000
00000000
00010000
,
01000000
00000000
00100000
00000000
10000000
00000000
00000000
10000000
01000000
00000000
00000000
01000000
00100000
00000000
00000000
00100000
,
00010000
00001000
00000100
00000000
00000010
00000001
00000100
00000000
,
00000001
00000010
00000100
00001000
00010000
00100000
01000000
00000000
,
00100000
20020000
00000000
00000000
,
00000000
00000000
00000000
00000000
,
30030000
00000000
00100000
00000000
00000000
10000000
00000000
01000000
,
00000000
00000000
00010000
00001000
00010000
00001000
00000000
00000010
,
00000001
00001000
00000010
00000000
00000000
00000100
00000000
00000100
,
00000000
00000000
00001000
00010000
00001000
00010000
00000000
00100000
,
00000000
00000000
10000000
00000000
00000000
01000000
00000000
01000000
,
00000000
00000000
00010000
00001000
00010000
00001000
00000000
00010000
,
00001000
00000000
00000000
00000000
00010000
00000000
00000000
00010000
00001000
00000000
00000000
00001000
00000100
00000000
00000000
00000100
,
00000010
00000000
00000000
00000010
00001000
00000000
00000000
00001000
00000100
00000000
00000000
00000100
00010000
00000000
00000000
00010000
,
00001000
00000000
00000000
00001000
00100000
00000000
00000000
00100000
00010000
00000000
00000000
00010000
10000000
00000000
00000000
10000000
,
00100000
00000000
00000000
00100000
10000000
00000000
00000000
10000000
01000000
00000000
00000000
01000000
00010000
00000000
00000000
00010000
,
00001000
00000000
00000000
00001000
00000100
00000000
00000000
00000100
00000001
00000000
00000000
00000001
00000010
00000000
00000000
00000010
,
00001000
00000000
00000000
00001000
00010000
00000000
00000000
00010000
00001000
00000000
00000000
00001000
00000100
00000000
00000000
00000100
,
00000001
00000000
00000000
00000001
00000010
00000000
00000100
00000000
00001000
00000000
00000000
00000000
00000010
00000000
00000100
00000000
,
00001000
00000000
00000001
00000100
00001000
00010000
01000000
10000000
,
00010000
01000000
00000000
00000000
02200000
00000000
00000000
00000000
,
00000000
00000000
00000000
00000000
,
00000000
00000000
00000000
00000000
,
03300000
00000000
00000000
00000000
,
00000000
00000000
00000000
00000000
;
#NOTES:
     dance-double:
     :
     Hard:
     16:
     :
00000000
00000000
00000000
00000000
,
00000000
00000000
00000000
00000000
,
00000000
00000000
00000000
00000000
,
00000000
00000000
00000000
00000000
,
00000000
00000000
00000000
00000000
,
00000000
00000000
00000000
00000000
,
00000000
00000000
00000000
00000000
,
00000000
00000000
00000000
00000000
,
00000000
00000000
00000000
00000000
,
00000021
00000000
00000000
00000000
,
00000200
00000000
00000030
00000000
,
00002000
00000000
00000300
00000000
,
00020000
00000000
00003000
00030000
,
00100000
00010000
00000000
00010000
00000000
00000000
00100000
01000000
00000000
10000000
01000000
10000000
01000000
10000000
00000000
10000000
,
00010000
00000000
00010000
00000000
01000000
00100000
01000000
00100000
00000000
10000000
01000000
10000000
00000000
01000000
00000000
00010000
,
00001000
00010000
00000000
00010000
00000010
00000000
00001000
00000000
00000010
00000100
00000000
00000100
00000001
00000000
00001000
00000000
,
00000001
00000010
00000001
00000000
00001000
00000100
00001000
00000000
00000001
00000010
00000100
00010000
00001000
00100000
00010000
01000000
,
00000000
00000000
00000000
00000000
00100000
00000000
10000000
00000000
01000000
00000000
00100000
01000000
00100000
00000000
00010000
00000000
,
00001000
00000000
00000000
00000000
00000100
00000000
00000010
00000000
00000001
00000000
00001000
00000001
00001000
00000000
00000100
00000000
,
00000010
00000000
00000000
00000000
00001000
00000000
00010000
00000000
01000000
00000000
10000000
00010000
10000000
00000000
00100000
00000000
,
01000000
00000000
00000000
00000000
00100000
00000000
00010000
00000000
00001000
00000000
00000100
00000010
00000100
00000000
00000010
00000000
,
00001000
00000000
00000001
00000000
00001000
00000000
00000100
00000000
00010000
00000000
00001000
00010000
00001000
00000000
00100000
00000000
,
00010000
00000000
00000000
00000000
10000000
00000000
00010000
00000000
01000000
00000000
00100000
01000000
00100000
00000000
10000000
00000000
,
01000000
00000000
00010000
00000000
00001000
00000000
00000010
00000000
00000001
00000000
00001000
00000100
00001000
00000000
00000010
00000000
,
00000100
00002002
00000000
00000000
,
00003003
00000000
00000000
00000000
00000010
00000000
00000001
00000000
00001000
00000100
00001000
00000100
00001000
00000000
00000001
00000000
,
00000100
00000000
00000000
00000000
00001000
00000000
00010000
00001000
00010000
00000000
00001000
00100000
00010000
00100000
00010000
00100000
,
00001000
00000000
00000000
00000000
01000000
00000000
00100000
00000000
10000000
00010000
00100000
01000000
10000000
00000000
00010000
00000000
,
10000000
00000000
00000000
00000000
00100000
00000000
01000000
00100000
01000000
00000000
00100000
00000000
00010000
00001000
00100000
00001000
,
00010000
00001000
00100000
00001000
00010000
00000000
00000010
00000000
00000100
00000010
00000100
00000010
00001000
00000000
00000100
00000000
,
00000010
00000000
00000000
00000000
00000001
00000000
00000010
00000001
00000010
00000000
00000100
00010000
00001000
00010000
00001000
00010000
,
00000100
00000000
00000000
00000000
00001000
00000000
00000010
00000000
00000100
00000010
00000100
00000010
00000100
00000000
00001000
00000000
,
00010000
00000000
00100000
00000000
10000000
00100000
01000000
00000000
00100000
01000000
00010000
00000000
00100000
00001000
00100000
00001000
,
00010000
00000100
00001000
00000001
00002000
00000000
00000000
00000000
00000000
00000000
00000000
00000000
00000000
00000000
00000000
00000000
,
00003001
00000010
00000200
00000000
00000000
00000000
00000000
00000000
,
00000310
00001000
00020000
00000000
00000000
00000000
00230000
00000000
,
20300000
00000000
00000000
00000000
32000000
00000000
00000000
00000000
00000000
00000000
03010000
01000000
10000000
00000000
00000000
00000000
,
00000000
00000000
00000000
00000000
00100000
10000000
00100000
10000000
00010000
01000000
00010000
01000000
00010000
00000000
00100000
00000000
,
00010000
00000000
00001000
00000000
00000100
00001000
00000100
00001000
00000001
00000100
00000001
00000100
00000010
00000000
00001000
00000000
,
00000100
00000010
00001000
00010000
00100000
10000000
00010000
00000000
,
00100000
00001000
00100000
00010000
00100000
00000000
01000000
00000000
10000000
00000000
00010000
00000000
01000000
00000000
00000000
00000000
,
00000000
00000000
00001000
00000000
01000000
00010000
01000000
00010000
01000000
00100000
01000000
00100000
01000000
00000000
00001000
00000000
,
00010000
00000000
00000010
00000000
00001000
00000100
00001000
00000100
00000010
00000001
00000010
00000001
00001000
00000000
00000010
00000000
,
00000100
00000001
00000200
00000000
00002300
00000000
00023000
00000000
,
02030000
23000000
30200000
00320000
,
00032000
00013000
00000000
00001010
,
00000101
00000011
00002200
00003300
,
00000001
00000100
00000010
00001000
00000002
00000000
00000000
00000000
00000103
00000000
00000010
00001000
00000010
00000000
00010000
00000000
,
00001000
00000000
00100000
00000000
00020000
00000000
00000000
00000000
01030000
00000000
00100000
10000000
00010000
00100000
00010000
00100000
,
01000000
10000000
01000000
10000000
00010000
00000000
00000000
01000000
00001000
00000000
00000100
00000000
00000001
00000000
00000010
00000000
,
00000100
00001000
00021000
00000000
01000000
00000000
00031000
00000000
,
00001000
00100000
00010000
10000000
00200000
00000000
00000000
00000000
01000000
00000000
00000000
00000000
01300000
00000000
00100000
01000000
,
00100000
00000000
10000000
00000000
02000000
00000000
00000000
00000000
03010000
00000000
00001000
00010000
00001000
00000000
00010000
00000100
,
00001000
00000000
00000100
00000000
00000010
00000000
00000000
00000000
00000001
00000100
00000010
00001000
00000001
00000000
00000000
00000000
,
00000001
00000010
00000100
00001000
00000010
00000000
00001000
00000000
00010000
00000000
01000000
00000000
01100000
00000000
00000000
00000000
,
10000000
01000000
00100000
00010000
20000000
00000000
00000000
00000000
31000000
00000000
00100000
00010000
00100000
00000000
00001000
00000000
,
00010000
00000000
00000010
00000000
00002000
00000000
00000000
00000000
00003100
00000000
00000010
00000001
00001000
00000010
00001000
00000010
,
00000100
00000001
00000100
00000001
00001000
00000000
00000000
00000100
00010000
00000000
01000000
00000000
10000000
00000000
00100000
00000000
,
01000000
00010000
00012000
00000000
00000100
00000000
00013000
00000000
,
00010000
00000010
00001000
00000001
00000020
00000000
00000000
00000000
00000100
00000000
00000000
00000000
00000130
00000000
00000010
00000100
,
00000010
00000000
00000001
00000100
00000010
00000000
00000000
00000010
00010000
00000000
00001000
00010000
00001000
00000000
00100000
00010000
,
10000000
00000000
00100000
00000000
01000000
00000000
00000000
00000000
10000000
01000000
00100000
00010000
10000000
00000000
00000000
00000000
,
10000000
00100000
01000000
00010000
00100000
00000000
00010000
00001000
00010000
00000000
00001000
00000000
00000100
00000000
00000000
00000000
,
00000010
00002002
00000000
00000000
,
00000000
00000000
00000000
00000000
,
00003003
00000000
00000000
00000000
00000010
00000001
00000000
00000001
00000000
00000000
00001000
00000100
00000000
00000100
00001000
00000100
,
00000000
00000100
00000000
00000100
00010000
00000000
00010000
00000000
00001000
00010000
00001000
00010000
00000000
00001000
00100000
00010000
,
01000000
00100000
10000000
01000000
00100000
00010000
00000000
00010000
00000000
00000000
10000000
00010000
00000000
00010000
10000000
00010000
,
00000000
00010000
00000000
00010000
01000000
00000000
00001000
00000000
00010000
00001000
00010000
00001000
00000000
00010000
00000010
00001000
,
00000000
00000100
00000000
00000100
00000010
00000100
00000000
00000100
00000000
00000000
00000010
00000001
00000000
00000001
00000010
00000100
,
00000000
00000100
00000000
00000100
00010000
00000000
00010000
00000000
00001000
00010000
00001000
00010000
00000000
00001000
01000000
00010000
,
01000000
00001000
01000000
00010000
10000000
00000000
01000000
00100000
00010000
00000000
01000000
00100000
10000000
00000000
01000000
00000000
,
00100000
00010000
00100000
01000000
00100000
00000000
00001000
00000000
00010000
00001000
00010000
00001000
00010000
00000100
00000000
00000100
,
00000010
00000000
00000001
00000000
00000100
00000000
00000010
00010000
00001000
00000000
00010000
00000010
00001000
00000000
00000010
00000000
,
00000100
00000010
00000100
00000010
00000100
00000000
00001000
00000000
00010000
00001000
00010000
00000000
00001000
01000000
00010000
10000000
,
01000000
00100000
00010000
10000000
00010000
00000000
10000000
01000000
00100000
00000000
01000000
00100000
00010000
00000000
00100000
00010000
,
00001000
00000000
00010000
00000000
00001000
00000000
00000100
00000010
00000001
00000000
00000010
00000100
00001000
00000000
00000001
00000100
,
00000010
00000100
00001000
00010000
00100000
10000000
00100000
01000000
,
00100000
00000000
00010000
00000000
00001000
00100000
00010000
00100000
00001000
00100000
00010000
00100000
00001000
00010000
00000010
00010000
,
00001000
00010000
00000010
00010000
00000000
00000000
00000000
00000000
00002020
00000000
00000000
00000000
00000000
00000000
00000000
00000000
,
00000000
00000000
00000000
00000000
,
00000000
00000000
00000000
00000000
,
00003030
00000000
00000000
00000000
,
00000000
00000000
00000000
00000000
;
#NOTES:
     dance-double:
     :
     Challenge:
     18:
     :
00000000
00000000
00000000
00000000
,
00000000
00000000
00000000
00000000
,
00000000
00000000
00000000
00000000
,
00000000
00000000
00000000
00000000
,
00000000
00000000
00000000
00000000
,
00000000
00000000
00000000
00000000
,
00021000
00000000
00000000
00000000
00000000
00000000
00000000
00000000
00000000
00000000
00000000
00000000
00000000
00000000
00000000
00000000
00000000
00000000
00000000
00000000
00001000
00000000
00000000
00000000
00000000
00000000
00000000
00000000
00000000
00000000
00000000
00000000
00000000
00000000
00000000
00001000
00000000
00000000
00000000
00000000
00000000
00000000
00000000
00000000
00000000
00000000
00000000
00000000
,
00001000
00000000
00000000
00000000
00000000
00000000
00000000
00000000
00000000
00000000
00000000
00000000
00000000
00000000
00000000
00000000
00000000
00000000
00000000
00000000
00000000
00000000
00000000
00001000
00000000
00000000
00000000
00000000
00000000
00000000
00000000
00000000
00000000
00000000
00000000
00000000
00000000
00000000
00000000
00000000
00000000
00000000
00000000
00001000
00000000
00000000
00000000
00000000
00000000
00000000
00000000
00000000
00000000
00000000
00000000
00000000
00000000
00000000
00000000
00000000
00000000
00001000
00000000
00000000
00000000
00000000
00000000
00000000
00000000
00000000
00000000
00000000
00000000
00000000
00000000
00000000
00000000
00000000
00000000
00001000
00000000
00000000
00000000
00000000
00000000
00000000
00000000
00000000
00000000
00000000
00000000
00000000
00000000
00000000
00000000
00000000
,
00000000
00001000
00000000
00000000
00000000
00000000
00000000
00000000
00000000
00000000
00000000
00000000
00000000
00000000
00001000
00000000
00000000
00000000
00000000
00000000
00000000
00000000
00000000
00000000
00000000
00000000
00000000
00000000
00000000
00000000
00031000
00000000
00000000
00000000
00000000
00000000
00000000
00000000
00000000
00000000
00000000
00000000
00000000
00000000
00000000
00000000
00000000
00000000
,
00001000
00010000
00000000
00011000
00000000
00000000
00010000
00001000
00000000
00100000
01000000
10000000
00000000
00100000
00000000
10000000
,
01000000
00000000
01100000
00000000
00100000
00001000
00010000
00001000
00000000
00010000
00000100
00001000
00000000
00000100
00000010
00000001
,
00000010
00000100
00000000
00000110
00000000
00000000
00000001
00000100
00000000
00000010
00001000
00000010
00000000
00000100
00000000
00001000
,
00010000
00000000
00011000
00000000
00010000
00001000
00100000
00001000
00000000
00100000
00010000
00100000
01000000
10000000
01000000
00100000
,
00010000
10000000
00000000
10010000
00000000
00000000
00010000
10000000
00000000
00100000
01000000
00100000
00000000
00010000
00001000
00010000
,
00000100
00000000
00001100
00000000
00000100
00001000
00000100
00000010
00000000
00000001
00000010
00000001
00001000
00000100
00000010
00000000
,
00000001
00001000
00000010
00001000
00000200
00000000
00000000
00000000
00010300
00001000
00100000
00001000
00020000
00000000
00000000
00000000
,
01030000
10000000
01000000
10000000
01000000
00100000
01000000
00100000
00001000
00010000
00001000
00010000
00000100
00001000
00000100
00000010
,
00000000
00000000
00000000
00000000
00000001
00000000
00000100
00000000
00000010
00001000
00000010
00000100
00000010
00000000
00001000
00000000
,
00000100
00000000
00000000
00000000
00010000
00000000
00001000
00100000
00001000
00000000
00010000
00000000
01000000
10000000
01000000
00100000
,
00010000
10000000
01000000
00000000
10000000
00000000
00100000
00000000
01000000
00010000
00100000
01000000
10000000
00000000
01000000
00000000
,
00100000
00000000
00000000
00000000
00001000
00010000
00001000
00000000
00000010
00000100
00000010
00000000
00000001
00000100
00001000
00000100
,
00000001
00000100
00001000
00000100
00000001
00000000
00000010
00000000
00000100
00010000
00001000
00010000
00001000
00000000
00100000
00000000
,
00010000
00000000
00000000
00000000
10000000
00000000
00100000
01000000
00010000
00000000
10000000
00000000
00100000
01000000
00010000
00100000
,
00010000
01000000
00010000
00000000
00100000
00000000
00001000
00000000
00010000
00000100
00001000
00000100
00000010
00000000
00000001
00000000
,
00000100
00000000
00000000
00000000
00000010
00001000
00000010
00010000
00001000
00100000
00001000
01000000
00010000
00100000
00010000
01000000
,
00100000
00000000
00000000
00000000
10000000
00000000
00100000
00000000
01000000
00010000
01000000
00100000
01000000
00000000
00010000
00000000
,
00100000
00000000
00000000
00000000
00001000
00000000
00010000
00000100
00010000
00000000
00001000
00000000
00000010
00000001
00000010
00000100
,
00001000
00000001
00000010
00000000
00000001
00000000
00000100
00000000
00000010
00001000
00000100
00000010
00000001
00000000
00000010
00000000
,
00000100
00000000
00000000
00000000
00010000
00001000
00010000
00000000
01000000
00100000
01000000
00000000
10000000
00100000
00010000
00100000
,
10000000
00100000
00010000
00100000
10000000
00000000
01000000
00000000
00100000
00001000
00010000
00001000
00010000
00000000
00000100
00000000
,
00001000
00000000
00000000
00000000
00000001
00000000
00000100
00000010
00001000
00000000
00000001
00000000
00000100
00000010
00001000
00000100
,
00001000
00000010
00001000
00000000
00000100
00000000
00010000
00000000
00001000
00100000
00010000
00100000
01000000
00000000
10000000
00000000
,
00100000
00000000
00000000
00000000
01000000
00010000
01000000
00001000
01000000
00010000
01000000
00000000
00001000
00010000
00001000
00000000
,
00000100
00000001
00000010
00000100
00001000
00000100
00000020
00000000
,
00001030
00010000
01000000
00100000
00010000
00100000
02000000
00000000
,
03010000
00001000
00000100
00000001
00000020
00000000
00001030
00010000
,
02000000
00000000
00000000
00000000
13000000
00000000
00100000
00000000
01000000
00000000
00010000
20000000
00020000
00000000
00000000
00000000
,
30030000
00000000
00000000
00000000
10000000
01000000
00100000
00010000
01000000
00100000
00010000
00001000
00010000
00000000
00000100
00000000
,
00001100
00000000
00001000
00000000
00000001
00000010
00000100
00001000
00000010
00000100
00001000
00010000
00001000
00000000
01000000
00000000
,
01010000
00010000
00100000
01000000
00010000
00001000
00000010
00000000
,
00000010
00000100
00001000
00000000
00000010
00000000
00000100
00000000
00001000
00000000
00010000
00000000
00100000
00000000
00000000
00000000
,
00000000
00000000
10000000
01000000
00100000
00010000
00100000
00010000
00100000
00001000
00100000
00001000
00010000
00000000
00001000
00000000
,
00011000
00000000
00010100
00000000
00001000
00000100
00001000
00000100
00000010
00000001
00000010
00000001
00001000
00000000
00000010
00000000
,
00000110
00000000
00000000
00000101
00000000
00000000
00000001
00000000
00000010
00000000
00000100
00000000
00001000
00000000
00000100
00000000
00000010
00000000
00000001
00000000
00000010
00000000
00001000
00000000
,
00010000
01000000
10000000
01000000
00100000
00010000
00100000
01000000
10000000
00100000
00010000
00001000
,
00000100
00000001
00001000
00001001
00000000
00000000
00000100
00000000
00000000
00011000
00000000
00000000
,
01100000
20010000
01000000
30000000
,
10000000
01000000
00100000
00010000
10000000
00000000
00100000
01000000
00100000
00000000
00010000
00001000
00010000
00000000
00001000
00000000
,
00000100
00000000
00000010
00000000
00001000
00000000
00000001
00000010
00000001
00000000
00001000
00000010
00000100
00000001
00000010
00000000
,
00000100
00010000
00001000
00000000
00010000
00000000
00000000
01000000
00100000
00000000
00010000
00000000
01000000
00000000
00100000
10000000
,
00100000
00000000
01000000
00000000
00010000
00000000
00100000
01000000
10000000
00000000
01000000
00100000
00001000
00010000
00001000
00000000
,
00010000
00000100
00010000
00000000
00000100
00000000
00000010
00000001
00000010
00000000
00000100
00001000
00000100
00000000
00000010
00000001
,
00000100
00000000
00000000
00000000
00000000
00000000
00001000
00000000
00000000
00000100
00000000
00000000
00001000
00000000
00000000
00000000
00000000
00000000
00010000
00000000
00000000
00001000
00000000
00000000
00010000
00000000
00000000
00000000
00000000
00000000
00100000
00000000
00000000
01000000
00000000
00000000
00100000
00000000
00000000
00000000
00000000
00000000
10000000
00000000
00100000
00000000
01000000
00000000
,
00100000
00000000
10000000
00000000
20020000
00000000
30030000
00000000
00100000
10000000
01000000
00100000
00020000
00000000
00000000
00000000
,
00031000
00000100
00000010
00000000
00000011
00000000
00001000
00000000
00001010
00000000
00000001
00000000
00000101
00000000
00000000
00000000
,
00000001
00000100
00000010
00001000
00000001
00000000
00000010
00000100
00000010
00000000
00001000
00010000
00001000
00000000
00010000
00000000
,
01000000
00000000
00100000
00000000
00010000
00000000
10000000
00100000
10000000
00000000
00010000
00100000
01000000
10000000
00100000
00000000
,
01000000
00001000
00010000
00000000
00001000
00000000
00000000
00000100
00000010
00000000
00001000
00000000
00000100
00000000
00000010
00000001
,
00000010
00000000
00000100
00000000
00001000
00000000
00000010
00000100
00000001
00000000
00000100
00000010
00010000
00001000
00010000
00000000
,
00001000
01000000
00001000
00000000
01000000
00000000
00100000
10000000
00100000
00000000
01000000
00010000
01000000
00000000
00100000
10000000
,
01000000
00000000
00000000
00000000
00000000
00000000
00010000
00000000
00000000
01000000
00000000
00000000
00010000
00000000
00000000
00000000
00000000
00000000
00001000
00000000
00000000
00010000
00000000
00000000
00001000
00000000
00000000
00000000
00000000
00000000
00000010
00000000
00000000
00000100
00000000
00000000
00000010
00000000
00000000
00000000
00000000
00000000
00000001
00000000
00000010
00000000
00000100
00000000
,
00000010
00000000
00000001
00000000
00002002
00000000
00003003
00000000
00000010
00000001
00000100
00000010
00002000
00000000
00000000
00000000
,
00013000
01000000
00100000
00000000
10100000
00000000
00100000
00010000
00001000
00000000
00000100
00000000
00001002
00000000
00000000
00000000
,
00002003
00000000
00000000
00000000
00003010
00000100
00000010
00000100
00000000
00000000
00000010
00001000
00000000
00000100
00000010
00000001
,
00000000
00000100
00000000
00000001
00000010
00000000
00000110
00000000
00000100
00010000
00001000
00010000
00000000
00001000
00100000
00010000
,
00100000
01000000
10000000
01000000
00100000
00010000
10000000
00100000
00000000
00000000
10000000
00100000
00000000
01000000
00010000
01000000
,
00000000
00100000
00000000
00010000
00001000
00000000
00011000
00000000
00001000
00010000
00000100
00010000
00000000
00000100
00001000
00000100
,
00000010
00000001
00000010
00000100
00001000
00000001
00001000
00000001
00000000
00000000
00000100
00000001
00000000
00000100
00000010
00000100
,
00000000
00001000
00000000
00010000
00001000
00000000
00101000
00000000
00100000
00010000
00100000
01000000
00000000
10000000
01000000
10000000
,
00010000
00100000
01000000
00000000
10000000
00010000
01000000
00010000
00100000
00001000
00010000
00000000
00001000
00010000
00000100
00010000
,
00000100
00001000
00000010
00000000
00000100
00000001
00000010
00000100
00001000
00000010
00000100
00001000
00010000
00100000
01000000
00010000
,
00100000
01000000
10000000
00000000
00100000
00000000
10000000
01000000
00010000
00000000
10000000
00100000
00010000
00000000
10000000
01000000
,
00010000
00000000
00001000
00000010
00000001
00000000
00001001
00000000
00000001
00001000
00000010
00000100
00000000
00000010
00010000
00001000
,
00000010
00000100
00001000
00000000
00000010
00000000
00001000
00000100
00000001
00000000
00001000
00000010
00000001
00000000
00001000
00000100
,
00000001
00000000
00000100
00010000
00001000
00000000
00011000
00000000
00010000
01000000
10000000
01000000
00000000
00100000
00001000
00010000
,
00001000
01000000
00010000
00000000
00100000
00000000
00010000
01000000
00100000
00000000
10000000
01000000
00100000
00000000
00010000
01000000
,
00100000
00010000
00001000
00000100
00000010
00000000
00000100
00000001
00000010
00000000
00000100
00001000
00000010
00000000
00000100
00000001
,
00000010
00001000
00010000
01000000
00100000
00010000
01000000
00100000
10000000
00000000
11000000
00000000
01000000
00100000
00010000
00001000
,
00000100
00000000
00000110
00000000
00000001
00000100
00000001
00000100
00000010
00001000
00000010
00001000
00010000
01000000
00100000
10000000
,
01000000
00100000
00001000
00010000
00000000
00000000
00001000
00020000
00002000
00000000
00000000
00000000
00000000
00000000
00000000
00000000
,
00000000
00000000
00000000
00000000
,
00000000
00000000
00000000
00000000
,
00033000
00000000
00000000
00000000
,
00000000
00000000
00000000
00000000
;
