#TITLE:True Blue;
#ARTIST:dj TAKA feat.AiMEE;
#BANNER:True Blue.png;
#BACKGROUND:True Blue-bg.png;
#CDTITLE:./CDTitles/jubeat saucer.png;
#MUSIC:True Blue.ogg;
#SAMPLESTART:92.186;
#SAMPLELENGTH:15;
#DISPLAYBPM:164;
#BPMS:0=164;
#NOTES:
     dance-single:
     :
     Beginner:
     3:
     :
0000
0000
0000
0000
,
0000
0000
0000
0000
,
0000
0000
0000
0000
,
0000
0000
0000
0000
,
0000
0000
0000
0000
,
0000
0000
0000
0000
,
0000
0000
0000
0000
,
0000
0000
0000
0000
,
0000
0000
0000
0000
,
0100
0000
0000
0000
,
1000
0000
0000
0000
,
0001
0000
0000
0000
,
0010
0000
0000
0000
,
1000
0000
0000
0000
,
0001
0000
0000
0000
,
1001
0000
0000
0000
,
0000
0000
0000
0000
,
1001
0000
0000
0000
,
0000
0000
0000
0000
,
1001
0000
0000
0000
,
1001
0000
0000
0000
,
0100
0000
0100
0000
,
0100
0100
0100
0100
,
0000
0000
0000
0000
,
1000
1000
1000
0000
,
0001
0001
0001
0000
,
0010
0010
0010
0000
,
0100
0000
0100
0000
,
1000
1000
1000
0000
,
0001
0001
0001
0000
,
0100
0100
0100
0000
,
0100
0000
0100
0100
,
0100
0000
0000
0000
,
0001
0000
0001
0000
,
0100
0000
0000
0000
,
0100
0000
0000
0000
,
1000
0000
1000
0000
,
0100
0000
0000
0000
,
0100
0000
0100
0000
,
0100
0000
0000
0000
,
0001
0000
0001
0000
,
0001
0001
0001
0000
,
1000
0000
1000
0000
,
1000
1000
1000
0000
,
0100
0000
0100
0000
,
0100
0100
0100
0000
,
0100
0000
0000
0000
,
0010
0000
0000
0000
,
2000
0000
3000
0000
,
0002
0000
0003
0000
,
0100
0000
0200
0000
,
0300
0000
0000
0000
,
0001
0000
0001
0000
,
0001
0000
0000
0000
,
1000
0000
1000
0000
,
1000
0000
0000
0000
,
0020
0000
0030
0000
,
0200
0000
0300
0000
,
0010
0000
0010
0000
,
0010
0000
0000
0000
,
1001
0000
0000
0000
,
0100
0000
0100
0000
,
0100
0000
0100
0000
,
0010
0010
0010
0000
,
0001
0001
0001
0000
,
0010
0010
0010
0000
,
1000
1000
1000
0000
,
0100
0100
0100
0000
,
1000
1000
1000
0000
,
0001
0001
0001
0000
,
0010
0010
0010
0000
,
0010
0010
0010
0010
,
0010
0000
0001
0000
,
1000
1000
1000
0000
,
0100
0000
0001
0000
,
0010
0010
0010
0000
,
1001
0000
0000
0000
,
1001
0000
0000
0000
,
1001
0000
1001
0000
,
1001
1001
1001
0000
,
1001
0000
0000
0000
,
0000
0000
0000
0000
;
#NOTES:
     dance-single:
     :
     Easy:
     7:
     :
0000
0000
0000
0000
,
0000
0000
0000
0000
,
0000
0000
0000
0000
,
0000
0000
0000
0000
,
0000
0000
0000
0000
,
0000
0000
0000
0000
,
0000
0000
0000
0000
,
0000
0000
0000
0000
,
0000
0000
0000
0000
,
0020
1000
1030
0000
,
0020
0001
0031
0000
,
0200
0010
0310
1000
,
0001
1000
0001
0000
,
2000
0100
3100
0000
,
0002
0100
0103
0000
,
2002
0000
0000
0000
,
0000
0000
0000
3003
,
0220
0000
0000
0000
,
0000
0000
0000
0330
,
2002
0000
0000
3003
,
0220
0000
0000
0330
,
2002
3003
0220
0330
,
1001
0110
1001
0220
,
0330
0000
0000
0000
,
0010
0100
0001
1000
,
0100
0000
0010
0000
0001
1000
0001
0000
,
1000
0100
0010
0001
,
0100
0000
0010
0000
1000
0001
1000
0000
,
0100
0010
0001
1000
,
0010
0100
0001
0010
,
0100
1000
0010
0001
,
0100
0000
1000
0000
0001
1000
0001
0000
,
0100
0100
0010
1000
,
0001
0010
0100
1000
,
0002
0100
0000
0103
,
2000
0010
0000
3010
,
0100
0100
0001
0010
,
1000
0100
0010
0001
,
0200
0010
0000
0310
,
0100
0000
0001
0000
1000
0000
0100
0100
,
0100
1000
0001
0010
,
1000
0001
0100
0010
,
0002
0100
0100
1003
,
2000
0100
0100
3001
,
0001
1000
0010
0100
,
0001
0001
0010
0100
,
1000
1000
1000
0001
,
0100
0000
0010
0000
0100
0010
0100
0000
,
2002
0000
0000
3000
,
0200
0000
0000
0303
,
0020
0000
0000
0000
,
0000
0000
0030
0000
,
2000
0000
0000
0000
,
0002
0000
0000
3003
,
0200
0000
0000
0000
,
0000
0000
0300
0000
,
0020
0000
0000
0000
,
0002
0000
0000
0030
,
2000
0000
0000
0003
,
0200
0000
0000
3300
,
1001
0100
0100
0100
,
0100
0100
0010
0010
,
1000
0100
0010
0001
,
1001
1001
0110
0110
,
1001
0100
1000
0001
,
1000
0000
0010
0000
0100
0010
0100
0000
,
0001
0010
1000
0010
,
0001
0000
0001
0000
1000
0001
1000
0000
,
0010
0001
0100
1000
,
0100
0001
0010
0100
,
1000
0010
0100
0001
,
0010
0100
0010
0000
1000
0001
1000
0000
,
1001
0010
1000
0100
,
0010
1000
0010
0001
,
0100
0010
0100
1000
,
0100
0000
0001
0000
0100
0010
0100
0000
,
1002
0010
0010
0013
,
2001
0010
0010
3010
,
1002
0103
2001
3100
,
1001
0000
0110
0000
1000
0001
1000
0000
,
1001
0000
0000
0000
,
0000
0000
0000
0000
;
#NOTES:
     dance-single:
     :
     Medium:
     11:
     :
0000
0000
0000
0000
,
0000
0000
0000
0000
,
0000
0000
0000
0000
,
0000
0000
0000
0000
,
0000
0000
0000
0000
,
0000
0000
0000
0000
,
0000
0000
0000
0000
,
0000
0000
0000
0000
,
0000
0000
0000
0000
,
0110
0000
0000
0000
0000
0000
0000
0001
1000
0000
0000
0000
0000
0000
0000
0000
,
0010
0000
0000
0000
0000
0000
0000
1000
0001
0000
0000
0000
0000
0000
0000
0000
,
0100
0000
0001
0010
0100
1000
0001
0100
,
0010
1000
0001
0010
,
0001
1000
0010
0000
0100
0001
0010
0000
,
0100
1000
0010
0001
,
1001
0000
0000
0010
0100
0000
0000
1000
,
0001
0000
0000
0010
0100
0010
0001
0000
,
1100
0000
0000
0010
0100
0000
0000
0001
,
1000
0000
0000
0100
0010
0100
1000
0000
,
0101
0000
0000
0000
0100
0001
0010
0000
,
0011
0000
0000
0000
0100
1000
0010
0000
,
1010
0100
0011
0100
,
0010
0100
0010
0100
0001
1000
0001
1000
,
0000
0000
0000
0000
,
1000
0100
1000
0100
1000
0010
0000
0010
,
1000
0001
1000
0001
1000
0010
0000
0010
,
1000
0010
1000
0010
0100
0001
0100
0001
,
0010
0001
1000
0100
0010
0001
1000
0000
,
0001
0100
0001
0100
0001
1000
0000
1000
,
0001
0010
0001
0010
0001
0100
0000
0100
,
0001
0100
0001
0100
1000
0100
1000
0100
,
0001
0100
0010
1000
0100
0010
0001
1000
,
0100
0000
0000
1000
0100
0000
0000
0000
0010
0000
0000
0000
0101
0000
0000
0000
,
0010
0000
0000
1000
0010
0000
0000
0000
0100
0000
0000
0000
1001
0000
0000
0000
,
0100
0000
0000
0010
0100
0000
0000
0000
0010
0000
0000
1000
0100
0000
0000
0000
,
0101
0000
0010
0000
1000
0100
0010
0000
,
0001
0000
0000
1000
0100
0000
0000
0000
0001
0000
0000
0000
1010
0000
0000
0000
,
0001
0000
0000
1000
0010
0000
0000
0000
0100
0000
0000
0000
0011
0000
0000
0000
,
1000
0000
0000
0001
0100
0000
0000
0000
0010
0000
0000
1000
0001
0000
0000
0000
,
1000
0100
0010
1000
0001
0100
0010
0001
,
1000
0000
0000
0010
1000
0000
0000
0000
0100
0000
0001
0000
0010
0000
0000
0000
,
0001
0000
0000
1000
0001
0000
0000
0000
0010
0000
1000
0000
0010
0000
0000
0000
,
1000
0000
0000
0001
1000
0000
0000
0000
0100
0000
0001
0000
0100
0000
0000
0000
,
0001
0000
1000
0000
0010
0000
0000
0010
0100
0000
0001
0000
1000
0000
0000
0000
,
0001
0000
0000
0010
0001
0000
0000
0000
0010
0000
0001
0000
0100
0000
0000
0100
,
0010
0000
0000
0010
1000
0000
0000
0000
0001
0000
0100
0000
0010
0000
0000
0010
,
1000
0000
0000
1000
0100
0000
0000
0000
0010
0000
0001
0000
1000
0000
0000
1000
,
0010
0000
0000
0010
0100
0000
0000
0000
0001
0000
1000
0000
0001
0000
1000
0000
,
2002
0000
0000
3000
,
0200
0000
0000
0003
,
0020
0000
0000
0300
,
2000
0030
0200
3000
,
0020
0000
0000
0300
,
0002
0000
0000
0030
,
0200
0000
0000
0003
,
0020
0000
0000
0330
,
1001
0000
0000
0010
0000
0010
0000
0010
,
0000
0100
0000
0100
0000
0001
0000
1000
,
0001
1000
0001
0010
0000
0010
0000
0100
,
0000
0100
0000
1000
0000
0001
0000
1000
,
0001
0001
0001
0001
,
0001
0000
0001
0000
0001
0001
0001
0000
,
0001
1000
0001
1000
0001
1000
0001
1000
,
0001
0010
0100
1000
0100
0010
0001
0000
,
0100
0000
1010
0000
0010
1000
0001
0010
,
0100
1000
0100
1000
0100
0010
0001
0000
,
0001
1000
0001
0100
0010
0100
0001
1000
,
0010
1000
0100
0010
0100
1000
0001
0000
,
0100
0010
0001
1000
0001
0010
0100
1000
,
0001
0100
0010
1000
0010
0100
0001
0000
,
0010
1000
0010
0100
0001
0100
0001
0010
,
0001
0010
0001
1000
0100
1000
0010
0000
,
0101
0000
0000
0000
1010
0000
0000
0100
0001
0000
0000
1000
0010
0000
0000
0000
,
0001
0100
0001
0100
0010
1000
0010
0000
,
1100
0000
0000
0010
0001
0000
0000
0100
1000
0000
0000
0000
0011
0000
0000
0000
,
1000
0100
0010
0001
1000
0100
0010
0000
,
0110
0001
0000
0001
0000
0001
0100
0000
,
0110
1000
0000
1000
0000
1000
0100
0000
,
0110
0001
0000
0001
0110
1000
0000
1000
,
0110
0000
1001
0000
0001
0010
0100
1000
,
1001
0000
0000
0000
,
0000
0000
0000
0000
;
#NOTES:
     dance-single:
     :
     Hard:
     16:
     :
0000
0000
0000
0000
,
0000
0000
0000
0000
,
0000
0000
0000
0000
,
0000
0000
0000
0000
,
0000
0000
0000
0000
,
0000
0000
0000
0000
,
0000
0000
0000
0000
,
0000
0000
0000
0000
,
0000
0000
0000
0000
,
0110
0000
1000
0100
0000
0000
1000
0010
0100
0000
0010
1000
0000
0000
0100
1000
,
0000
0000
0001
0100
0000
0000
0001
0010
0100
0000
0010
0001
0000
0000
0100
0001
,
0000
0000
0010
0100
0000
0000
0010
0001
0000
0000
0100
1000
0000
0000
0100
0010
,
0000
0000
0010
0001
0000
0000
0001
0100
0000
0000
0100
0010
0000
0000
0010
1000
,
0000
0000
0001
0100
0000
0000
0001
0010
0000
0000
1000
0100
0000
0000
1000
0010
,
0000
0000
0001
1000
0000
0000
0010
0100
0000
0000
1000
0001
0000
0000
0100
0000
,
0101
0000
0010
0001
0000
1000
0000
0010
0001
0000
1000
0010
0000
0001
0000
1000
,
0010
0000
0100
0001
0000
1000
0000
0100
0001
0000
0010
0000
0100
0000
1000
0000
,
1100
0000
0010
1000
0000
0001
0000
0010
1000
0000
0001
0100
0000
1000
0000
0001
,
0100
0000
0010
1000
0000
0001
0000
0010
1000
0000
0001
0000
0100
0000
0010
0000
,
1010
0000
0001
0010
0000
0100
0000
1000
0010
0000
0100
0000
0001
0000
0010
0000
,
0011
0000
1000
0010
0000
0100
0000
0001
0010
0000
0100
0000
1000
0000
0001
0000
,
0101
0100
0010
1000
1100
0100
0010
0001
,
0100
0001
1000
0001
0100
0001
1000
0001
0100
0010
0000
0100
0000
0010
1000
0001
,
0000
0000
0000
0000
,
1001
0000
0100
0001
0010
0000
0010
0001
0100
0000
0001
0000
0010
0000
0100
0000
,
1000
0000
0100
1000
0010
0000
0010
1000
0100
0000
1000
0000
0010
0000
0100
0000
,
0010
1000
0001
0000
0010
0001
1000
0000
0010
1000
0100
1000
0100
0010
0001
0010
,
0001
0000
0100
0000
0010
0100
0000
0010
0100
0000
0010
1000
0100
0000
1000
0000
,
0001
0000
0010
0001
0100
0000
0100
0001
0010
0000
0001
0000
0100
0000
0010
0000
,
1000
0000
0010
1000
0100
0000
0100
1000
0010
0000
1000
0000
0100
0000
0010
0000
,
0100
1000
0001
0000
0100
0001
1000
0000
0010
1000
0001
0000
0100
0001
1000
0000
,
0010
1000
0001
1000
0100
1000
0001
1000
0010
0000
0010
0000
0100
0000
0100
0000
,
0110
0000
0000
1000
0100
0000
0000
0010
0001
0000
0000
1000
0001
0000
0100
0000
,
0010
0000
0000
0100
0001
0000
0000
1000
0100
0000
0000
0010
0001
0000
0100
0000
,
0010
0000
0000
1000
0010
0000
0000
0100
0001
0000
0000
1000
0001
0000
0100
0000
,
0010
0000
0000
0010
0100
0000
0000
0010
1000
0000
0001
0000
1001
0000
0000
0000
,
0011
0000
0000
0001
0100
0000
0000
0010
0100
0000
0000
1000
0001
0000
0100
0000
,
0010
0000
0000
1000
0001
0000
0000
1000
0100
0000
0000
0010
0001
0000
0100
0000
,
0010
0000
0000
1000
0010
0000
0000
0100
0001
0000
0000
1000
0100
0000
1000
0000
,
0010
1000
0010
1000
0100
1000
0100
0010
0001
0100
0001
0100
0001
0010
0001
0010
,
0001
0000
0000
0000
1001
0000
0000
1000
0100
0000
0000
0100
0010
0000
0001
0000
,
1000
0000
0000
0000
0101
0000
0000
0001
1000
0000
0000
1000
0010
0000
0100
0000
,
0010
0000
0000
0000
1100
0000
0000
0010
0100
0000
0000
0100
0001
0000
1000
0000
,
0001
0000
0000
0000
0110
0000
0000
0100
1000
0000
0000
0001
0100
0000
0010
0000
,
1000
0000
0000
1000
0100
0000
0000
0001
1000
0000
0000
0010
0001
0000
0100
0000
,
0001
0000
0000
0010
0001
0000
0000
0100
1000
0000
0000
1000
0001
0000
0100
0000
,
0010
0000
0000
1000
0001
0000
0000
0010
1000
0000
0000
0100
0010
0000
1000
0000
,
0001
0000
0000
1000
1001
0000
0000
0001
0100
0000
0100
0000
0010
0000
0010
0000
,
0220
0000
0000
0300
,
2000
0000
0000
0030
,
0200
0000
0000
0300
,
0002
3000
0200
0303
,
0022
0000
0000
0030
,
2000
0000
0000
3000
,
0200
0000
0000
0003
,
0020
0000
0000
0330
,
2002
0000
0000
0000
3003
0000
1000
0100
0000
0000
1000
0001
0000
0000
0010
0001
,
0000
0000
0001
1000
0000
0000
0001
0100
0000
0000
0010
0100
0000
0000
0100
0001
,
0000
0000
1000
0001
0000
0000
1000
0100
0000
0000
0100
0010
0000
0000
0100
1000
,
0000
0000
0001
1000
0000
0000
0010
0100
0000
0000
0001
1000
0000
0000
0100
0000
,
1001
1001
1001
1001
,
1001
0000
0000
0000
1001
0000
0000
1000
0001
0000
1000
0000
0001
1000
0000
1000
,
0100
1000
0100
1000
0001
1000
0001
1000
,
0001
0010
0001
0010
0001
1000
0001
1000
0100
1000
0100
1000
0001
1000
0001
1000
,
0010
0000
0100
0001
0010
0000
0100
1000
0010
0000
0010
1000
0100
0000
1000
0000
,
0001
0100
0000
0001
0100
0000
0001
0100
0001
0000
1000
0010
0100
0000
0010
0000
,
1000
0001
1000
0001
0010
0000
0100
0000
1000
0001
1000
0001
0100
0000
0001
0000
,
1000
0000
0100
1000
0010
0000
0100
0001
0010
0000
0100
1000
0010
0000
0100
0000
,
0001
0010
0001
0000
1000
0010
0000
1000
0100
0000
0010
0001
0100
0001
0100
0000
,
0010
1000
0010
1000
0001
0000
0100
0001
0100
0001
1000
0000
0010
0000
0100
0000
,
0001
0010
0100
0000
0010
0100
1000
0000
0100
1000
0010
0000
1000
0010
0100
0000
,
0010
0100
0010
0100
0001
0010
0100
1000
0010
0100
0001
0010
0100
0000
0100
0000
,
1000
0000
0010
1000
0100
0000
0100
1000
0010
0000
0100
0001
0010
0000
0100
0000
,
1000
0001
0000
1000
0001
0000
1000
0001
0100
0010
0100
0010
1000
0001
1000
0000
,
0001
1000
0001
1000
0100
0000
1000
0001
0010
0001
0010
0000
1000
0001
0100
0000
,
0010
1000
0001
1000
0100
1000
0001
1000
0010
1000
0001
1000
0100
0000
0100
0000
,
1100
0000
0001
0100
0000
0000
0001
0010
0000
0000
0001
0100
0000
0000
0001
0000
,
0101
0000
1000
0010
0000
0000
1000
0100
0000
0000
1000
0010
1000
0000
0100
0000
,
1100
0000
0010
0001
0000
0000
0010
0000
0101
0000
0010
1000
0000
0000
0010
0000
,
1100
0000
1000
0000
0101
0000
0001
0000
1001
0000
0010
0000
1000
0100
0010
0001
,
1000
0000
0000
0000
,
0000
0000
0000
0000
;
#NOTES:
     dance-double:
     :
     Easy:
     6:
     :
00000000
00000000
00000000
00000000
,
00000000
00000000
00000000
00000000
,
00000000
00000000
00000000
00000000
,
00000000
00000000
00000000
00000000
,
00000000
00000000
00000000
00000000
,
00000000
00000000
00000000
00000000
,
00000000
00000000
00000000
00000000
,
00000000
00000000
00000000
00000000
,
00000000
00000000
00000000
00000000
,
20020000
30030000
00100000
00000000
,
01000000
00000000
00010000
00000000
,
00001000
00000000
00010000
00001000
,
00000100
00000000
00000010
00000000
,
00001000
00000000
00000010
00000000
,
00000001
00000000
00000010
00000000
,
00002002
00000000
00000000
00000000
,
00003003
00000000
00000000
00000000
,
00022000
00000000
00000000
00000000
,
00033000
00000000
00000000
00000000
,
20020000
00000000
30030000
00000000
,
02200000
00000000
03300000
00000000
,
20020000
30030000
02200000
03300000
,
10010000
10010000
10010000
10010000
,
00000000
00000000
00000000
00000000
,
10000000
00010000
00100000
01000000
,
00010000
00001000
00010000
00000100
,
00000010
00000001
00001000
00000010
,
00000100
00000000
00000001
00000000
00001000
00000001
00001000
00000000
,
00001000
00000001
00000100
00000010
,
00001000
00000100
00010000
00001000
,
01000000
00010000
00100000
00010000
,
10000000
00000000
01000000
00000000
00100000
01000000
00100000
00000000
,
01100000
00000000
10000000
01000000
,
00100000
00010000
01000000
00010000
,
00100000
00001000
00010000
00000100
,
00000010
00000100
00001000
00000001
,
00000100
00000010
00000100
00001000
,
00010000
00001000
00100000
01000000
,
00100000
00010000
01000000
00100000
,
00010000
00001000
00010000
00001000
,
00011000
00000000
00010000
00000100
,
00000010
00000100
00001000
00000001
,
00000100
00000010
00000100
00001000
,
00010000
00001000
01000000
00100000
,
10000000
00010000
01000000
00010000
,
00100000
00001000
00010000
00000100
,
00000010
00000001
00000100
00000010
,
00001000
00000001
00000100
00000010
,
00002002
00000000
00000003
00000000
,
00000020
00000000
00003030
00000000
,
00000220
00000000
00000300
00000000
,
00020000
00000000
00030030
00000000
,
00022000
00000000
00003000
00000000
,
02000000
00000000
03030000
00000000
,
02200000
00000000
00300000
00000000
,
20000000
00000000
33000000
00000000
,
10010000
00100000
00000000
00100000
,
00000000
00100000
00000000
00100000
,
01000000
00010000
00000000
00010000
,
00000000
00001000
00000000
00001000
,
00010000
00010000
00010000
00010000
,
00001000
00001000
00001000
00001000
,
00010000
00010000
00001000
00001000
,
00010000
00001000
00010000
00001000
,
00011000
00100000
00010000
00001000
,
00000100
00000100
00000010
00001000
,
00000010
00000001
00001000
00000100
,
00010000
00001000
01000000
00010000
,
10000000
00100000
01000000
00010000
,
00100000
00001000
00010000
00000100
,
00000010
00000001
00001000
00000100
,
00010000
00000000
00001000
00000000
00010000
00001000
00010000
00000000
,
00011000
01000000
10000000
00010000
,
01000000
00000000
00100000
00000000
10000000
00100000
10000000
00000000
,
00010000
00100000
00001000
00010000
,
00000100
00000000
00000010
00000000
00000001
00001000
00000001
00000000
,
00001001
00000001
00000010
00000100
,
00000110
00000010
00000100
00001000
,
00011000
00000000
00011000
00000000
,
00010000
00100000
01000000
10000000
,
10010000
00000000
00000000
00000000
,
00000000
00000000
00000000
00000000
;
#NOTES:
     dance-double:
     :
     Medium:
     11:
     :
00000000
00000000
00000000
00000000
,
00000000
00000000
00000000
00000000
,
00000000
00000000
00000000
00000000
,
00000000
00000000
00000000
00000000
,
00000000
00000000
00000000
00000000
,
00000000
00000000
00000000
00000000
,
00000000
00000000
00000000
00000000
,
00000000
00000000
00000000
00000000
,
00000000
00000000
00000000
00000000
,
00110000
00000000
00000000
00000000
00000000
00000000
00000000
00010000
00001000
00000000
00000000
00000000
00000000
00000000
00000000
00000000
,
00001100
00000000
00000000
00000000
00000000
00000000
00000000
00000100
00000010
00000000
00000000
00000000
00000000
00000000
00000000
00000000
,
00001000
00000000
00000001
00000100
00000010
00001000
00000100
00010000
,
00001000
01000000
00100000
10000000
,
00010000
01000000
00100000
00000000
10000000
01000000
00100000
00000000
,
00001000
00010000
00000100
00001000
,
00001001
00000000
00000000
00000010
00000100
00000000
00000000
00000001
,
00001000
00000000
00000000
00000010
00000100
00001000
00010000
00000000
,
00011000
00000000
00000000
00000100
00010000
00000000
00000000
00001000
,
00100000
00000000
00000000
00010000
01000000
00100000
01000000
00000000
,
10010000
00000000
00000000
00000000
01000000
00010000
00001000
00000000
,
00011000
00000000
00000000
00000000
00001000
00000010
00000001
00000000
,
00001001
00000100
00000110
00001000
,
00010000
00001000
00010000
00001000
01000000
00010000
10000000
00100000
,
00000000
00000000
00000000
00000000
,
10000000
00100000
01000000
00100000
10000000
00100000
00000000
00100000
,
01000000
00010000
00100000
00010000
01000000
00010000
00000000
00010000
,
00100000
00001000
00010000
00001000
01000000
00001000
00010000
00001000
,
00010000
00000100
00010000
00001000
00010000
00000010
00010000
00000000
,
00000100
00001000
00000100
00000010
00000100
00001000
00000000
00001000
,
00000010
00000100
00000010
00000001
00000010
00000100
00000000
00000100
,
00000001
00001000
00000010
00000100
00000010
00001000
00000100
00010000
,
00001000
01000000
00010000
00100000
00010000
10000000
00100000
10000000
,
01000000
00000000
00000000
10000000
01000000
00000000
00000000
00000000
00100000
00000000
00000000
00000000
11000000
00000000
00000000
00000000
,
00010000
00000000
00000000
00100000
00001000
00000000
00000000
00000000
00010000
00000000
00000000
00000000
00011000
00000000
00000000
00000000
,
00000100
00000000
00000000
00001000
00000010
00000000
00000000
00000000
00000100
00000000
00000000
00000001
00000100
00000000
00000000
00000000
,
00000001
00000010
00000100
00001000
,
00000010
00000000
00000000
00001000
00000100
00000000
00000000
00000000
00010000
00000000
00000000
00000000
00011000
00000000
00000000
00000000
,
00100000
00000000
00000000
00001000
00010000
00000000
00000000
00000000
01000000
00000000
00000000
00000000
10010000
00000000
00000000
00000000
,
01000000
00000000
00000000
00100000
10000000
00000000
00000000
00000000
00010000
00000000
00000000
00100000
01000000
00000000
00000000
00000000
,
10000000
01000000
00100000
01000000
00100000
00001000
00010000
00001000
,
00010000
00000000
00000000
00010000
00001000
00000000
00000000
00000000
00001000
00000000
00000100
00000000
00000001
00000000
00000000
00000000
,
00001000
00000000
00000000
00001000
00000001
00000000
00000000
00000000
00000001
00000000
00000100
00000000
00001000
00000000
00000000
00000000
,
00010000
00000000
00000000
00010000
00001000
00000000
00000000
00000000
00001000
00000000
00010000
00000000
01000000
00000000
00000000
00000000
,
10000000
00000000
10010000
00000000
10000000
00100000
01000000
00000000
,
00010000
00000000
00000000
00010000
00100000
00000000
00000000
00000000
10000000
00000000
00100000
00000000
00010000
00000000
00000000
00000000
,
00001000
00000000
00000000
00001000
00000100
00000000
00000000
00000000
00000001
00000000
00000100
00000000
00001000
00000000
00000000
00000000
,
00000001
00000000
00000000
00000001
00001000
00000000
00000000
00000000
00000001
00000000
00000100
00000000
00001000
00000000
00000000
00000000
,
00010000
00000000
00000000
00010000
00001000
00000000
00000000
00001000
00010000
00000000
01000000
00000000
10000000
00000000
00100000
00000000
,
20200000
00000000
00000000
30000000
,
00020000
00000000
00000000
00300000
,
00002000
00000000
00000000
00030000
,
00000020
00003000
00000200
00000030
,
00000020
00000000
00000000
00000300
,
00000002
00000000
00000000
00000030
,
00000200
00000000
00000000
00000003
,
00002000
00000000
00000000
00003300
,
00011000
00000000
00000000
00100000
00000000
00100000
00000000
00100000
,
00000000
00100000
00000000
00100000
00000000
00100000
00000000
00100000
,
10000000
00100000
10000000
00100000
00000000
00100000
00000000
00100000
,
00000000
00100000
00000000
00100000
00000000
00100000
00000000
00100000
,
00010000
10000000
00010000
10000000
,
00010000
00000000
10000000
00000000
01000000
01000000
01000000
00000000
,
00010000
00001000
00010000
00001000
00010000
00001000
00010000
00001000
,
00010000
00000100
00001000
00000010
00000100
00000001
00000010
00000000
,
00000011
00000000
00000101
00000000
00000010
00001000
00000001
00000100
,
00000010
00001000
00000100
00000010
00000100
00001000
00000010
00000000
,
00001000
00000100
00010000
00001000
00100000
00010000
01000000
00100000
,
10000000
01000000
00010000
01000000
10000000
01000000
00010000
00000000
,
01000000
00100000
00001000
01000000
00100000
00010000
00001000
00010000
,
00000100
00001000
00000010
00001000
00000100
00000010
00000001
00000000
,
00000100
00000010
00000100
00001000
00010000
00001000
01000000
00010000
,
00100000
01000000
10000000
01000000
00100000
00100000
00100000
00000000
,
11000000
00000000
00000000
00000000
01010000
00000000
00000000
00100000
10000000
00000000
00000000
00100000
00010000
00000000
00001000
00000000
,
00100000
00001000
00010000
00000100
00001000
00000100
00000010
00000000
,
00000101
00000000
00000000
00000000
00001100
00000000
00000000
00000010
00000001
00000000
00000000
00000010
00001000
00000000
00010000
00000000
,
00001000
00100000
00001000
00010000
00000010
00010000
00001000
00000000
,
00011000
00100000
00000000
00100000
00000000
00100000
00001000
00000000
,
00011000
00000010
00000000
00000010
00000000
00000010
00010000
00000000
,
00011000
01000000
00000000
01100000
00010000
00001000
00000000
00011000
,
00000100
00000000
00000110
00000000
00000001
00000010
00000100
00001000
,
00010000
00000000
00000000
00000000
,
00000000
00000000
00000000
00000000
;
#NOTES:
     dance-double:
     :
     Hard:
     16:
     :
00000000
00000000
00000000
00000000
,
00000000
00000000
00000000
00000000
,
00000000
00000000
00000000
00000000
,
00000000
00000000
00000000
00000000
,
00000000
00000000
00000000
00000000
,
00000000
00000000
00000000
00000000
,
00000000
00000000
00000000
00000000
,
00000000
00000000
00000000
00000000
,
00000000
00000000
00000000
00000000
,
00011000
00000000
00010000
00000100
00000000
00000000
00001000
00000010
00000000
00000000
00000010
00000100
00000000
00000000
00000001
00001000
,
00000000
00000000
00000100
00010000
00000000
00000000
00001000
00100000
00000000
00000000
00100000
00010000
00000000
00000000
10000000
00010000
,
00000000
00000000
00010000
01000000
00000000
00000000
00100000
10000000
00000000
00000000
00010000
00100000
00000000
00000000
00001000
00010000
,
00000000
00000000
00000100
00001000
00000000
00000000
00000010
00000100
00000000
00000000
00000001
00000010
00000000
00000000
00000010
00000100
,
00000000
00000000
00000010
00000001
00000000
00000000
00001000
00000010
00000000
00000000
00000010
00001000
00000000
00000000
00000100
00010000
,
00000000
00000000
00010000
00001000
00000000
00000000
01000000
00010000
00000000
00000000
00010000
10000000
00000000
00000000
00010000
00000000
,
01100000
00000000
00100000
01000000
00000000
00100000
00000000
10000000
01000000
00000000
00100000
01000000
00000000
00100000
00000000
00010000
,
01000000
00000000
00100000
01000000
00000000
00100000
00000000
10000000
01000000
00000000
00010000
00000000
00001000
00000000
00000100
00000000
,
00000110
00000000
00000100
00000010
00000000
00000100
00000000
00000001
00000010
00000000
00000100
00000010
00000000
00000100
00000000
00001000
,
00000010
00000000
00000100
00000010
00000000
00000100
00000000
00000001
00000010
00000000
00001000
00000000
00010000
00000000
01000000
00000000
,
11000000
00000000
00010000
10000000
00000000
00100000
00000000
10000000
01000000
00000000
00010000
00000000
00001000
00000000
00010000
00000000
,
00011000
00000000
00010000
00001000
00000000
00000100
00000000
00000010
00000100
00000000
00000001
00000000
00001000
00000000
00000001
00000000
,
00000011
00000010
00000001
00000100
00000110
00000010
00001000
00000100
,
00001000
00000100
00010000
00000100
00001000
00000100
00010000
00000100
00010000
00001000
00000000
00010000
00000000
00001000
01000000
00010000
,
00000000
00000000
00000000
00000000
,
10010000
00000000
10000000
00100000
01000000
00000000
01000000
00100000
10000000
00000000
00010000
00000000
00100000
00000000
01000000
00000000
,
00100000
00000000
00010000
00100000
00001000
00000000
00001000
00100000
00010000
00000000
01000000
00000000
00010000
00000000
00100000
00000000
,
00001000
00100000
00001000
00000000
00010000
00001000
00010000
00000000
00000100
00001000
00000100
00000000
00001000
00000010
00001000
00000010
,
00000100
00000001
00000100
00000000
00000010
00000100
00000000
00000010
00000100
00000000
00000001
00001000
00000001
00000000
00000100
00000000
,
00000010
00000000
00001000
00000100
00000010
00000000
00000010
00000100
00001000
00000000
00000001
00000000
00000100
00000000
00000010
00000000
,
00001000
00000000
00000100
00010000
00001000
00000000
00001000
00010000
00000100
00000000
00000010
00000000
00001000
00000000
00010000
00000000
,
00001000
00010000
00001000
00000000
00100000
00001000
00100000
00000000
00001000
00010000
00001000
00000000
00010000
00000100
00010000
00000000
,
00001000
00100000
00010000
00100000
00001000
00100000
00010000
00100000
00001000
00000000
00010000
00000000
01000000
00000000
10000000
00000000
,
10010000
00000000
00000000
10000000
01000000
00000000
00000000
00100000
00010000
00000000
00000000
01000000
00100000
00000000
10000000
00000000
,
01000000
00000000
00000000
00100000
01000000
00000000
00000000
00010000
00001000
00000000
00000000
00010000
00000010
00000000
00001000
00000000
,
00000001
00000000
00000000
00000100
00000010
00000000
00000000
00001000
00000001
00000000
00000000
00000010
00000001
00000000
00000100
00000000
,
00001000
00000000
00000000
00010000
00001000
00000000
00000000
00100000
00010000
00000000
10000000
00000000
00100000
00000000
00000000
00000000
,
01000000
00000000
00000000
00100000
10000000
00000000
00000000
00010000
01000000
00000000
00000000
00100000
00010000
00000000
00001000
00000000
,
00010000
00000000
00000000
00000100
00001000
00000000
00000000
00000010
00001000
00000000
00000000
00000001
00000010
00000000
00000100
00000000
,
00001000
00000000
00000000
00000100
00010000
00000000
00000000
00001000
01000000
00000000
00000000
00010000
01000000
00000000
00100000
00000000
,
10000000
01000000
10000000
00000000
00010000
00100000
00010000
00000000
01000000
00010000
01000000
00010000
00100000
00001000
00100000
00001000
,
00010000
00000000
00000000
00000000
00011000
00000000
00000000
00010000
00001000
00000000
00000000
00001000
00000100
00000000
00000001
00000000
,
00001000
00000000
00000000
00000000
00000011
00000000
00000000
00001000
00010000
00000000
00000000
00010000
01000000
00000000
10000000
00000000
,
00010000
00000000
00000000
00000000
11000000
00000000
00000000
00100000
00010000
00000000
00000000
00010000
00001000
00000000
00010000
00000000
,
01000000
00000000
00000000
00000000
01100000
00000000
00000000
00010000
00001000
00000000
00000000
00001000
00000010
00000000
00000100
00000000
,
00000010
00000000
00000000
00000001
00000100
00000000
00000000
00000010
00001000
00000000
00000000
00000100
00010000
00000000
00001000
00000000
,
00100000
00000000
00000000
00100000
00001000
00000000
00000000
01000000
00010000
00000000
00000000
10000000
00100000
00000000
01000000
00000000
,
00010000
00000000
00000000
10000000
01000000
00000000
00000000
00100000
00010000
00000000
00000000
00001000
00000100
00000000
00000010
00000000
,
00000001
00000000
00000000
00001000
00000001
00000000
00000000
00000001
00000100
00000000
00000100
00000000
00001000
00000000
00001000
00000000
,
00022000
00000000
00003000
00000000
,
02000000
00000000
03000000
00000000
,
00000020
00000000
00000030
00000000
,
00002000
00003000
02000000
03030000
,
00202000
00000000
00300000
00000000
,
00000200
00000000
00000300
00000000
,
00000020
00000000
00000030
00000000
,
00020000
00000000
00000000
00033000
,
00011000
00000000
00000000
00000000
00000000
00000000
01000000
00010000
00000000
00000000
10000000
01000000
00000000
00000000
00100000
10000000
,
00000000
00000000
00010000
00100000
00000000
00000000
00001000
00010000
00000000
00000000
00000100
00001000
00000000
00000000
00000001
00000100
,
00000000
00000000
00000010
00000001
00000000
00000000
00001000
00000010
00000000
00000000
00010000
00001000
00000000
00000000
00100000
00010000
,
00000000
00000000
10000000
00100000
00000000
00000000
01000000
10000000
00000000
00000000
00010000
01000000
00000000
00000000
00001000
00000000
,
00011000
00011000
00011000
00011000
,
00011000
00000000
00000000
00000000
00011000
00000000
00000000
00010000
00001000
00000000
00010000
00000000
00001000
00010000
00000000
00001000
,
00100000
00010000
00001000
00000100
00000010
00001000
00010000
01000000
,
00100000
01000000
00100000
00000000
00010000
00100000
00010000
00000000
00100000
00001000
00100000
00001000
00010000
00001000
00010000
00001000
,
00010000
00000000
00001000
00010000
00000100
00000000
00000100
00010000
00001000
00000000
00001000
00010000
00000010
00000000
00001000
00000000
,
00000001
00000010
00000000
00000100
00001000
00000000
00000010
00000100
00000010
00000000
00000100
00000000
00000001
00000000
00000010
00000000
,
00000100
00001000
00000100
00001000
00000010
00000000
00010000
00000000
00001000
00010000
00001000
00010000
00000100
00000000
00010000
00000000
,
00001000
00000000
00010000
00001000
00100000
00000000
00100000
00001000
00010000
00000000
00010000
00001000
01000000
00000000
00100000
00000000
,
10000000
00100000
01000000
00000000
00100000
10000000
01000000
10000000
01000000
00000000
00100000
00010000
01000000
00010000
01000000
00000000
,
00010000
00100000
00010000
00100000
00001000
00000000
00010000
00000100
00010000
00000100
00001000
00000000
00000010
00000000
00000001
00000000
,
00000001
00000010
00000100
00000000
00000010
00000100
00001000
00000000
00000100
00001000
00010000
00000000
00001000
00010000
00100000
00000000
,
00010000
00100000
01000000
00000000
00100000
01000000
00100000
01000000
00100000
10000000
00100000
10000000
01000000
00000000
01000000
00000000
,
10000000
00000000
00100000
10000000
01000000
00000000
01000000
00100000
00010000
00000000
00010000
00100000
00001000
00000000
00010000
00000000
,
00001000
00010000
00000000
00000100
00001000
00000000
00000010
00000100
00000000
00000001
00000010
00000000
00000001
00001000
00000001
00000000
,
00000100
00000001
00000100
00000001
00000010
00000000
00000001
00000100
00000001
00000100
00000010
00000000
00001000
00000100
00001000
00000000
,
00000100
00001000
00000100
00010000
00000100
00001000
00000100
00010000
00001000
00100000
00001000
00010000
00001000
00100000
00001000
00010000
,
00001000
00000000
00100000
00001000
00000000
00000000
01000000
00001000
00000000
00000000
00100000
00001000
00000000
00000000
00010000
00000000
,
00011000
00000000
00000010
00010000
00000000
00000000
00000100
00010000
00000000
00000000
00000010
00010000
00001000
00000000
00001000
00000000
,
00011000
00000000
00100000
00010000
00000000
00000000
01000000
00000000
01000000
00000000
10000000
00010000
00000000
00000000
00100000
00000000
,
01000000
00000000
00010000
00000000
00001000
00000000
00000100
00000000
00000010
00000000
00000100
00000000
00000001
00001000
00000001
00001000
,
00000001
00000000
00000000
00000000
,
00000000
00000000
00000000
00000000
;
