#TITLE:突撃!ガラスのニーソ姫!;
#ARTIST:山本椛 (monotone);
#TITLETRANSLIT:Totsugeki! Glass no kneeso hime!;
#ARTISTTRANSLIT:Momiji Yamamoto (monotone);
#BANNER:Totsugeki! Glass no kneeso hime!.png;
#BACKGROUND:Totsugeki! Glass no kneeso hime!-bg.png;
#CDTITLE:./CDTitles/beatmania IIDX 19 Lincle.png;
#MUSIC:Totsugeki! Glass no kneeso hime!.ogg;
#SAMPLESTART:71.351;
#SAMPLELENGTH:15;
#BPMS:0=185;

//---------------dance-single - ----------------
#NOTES:
     dance-single:
     :
     Beginner:
     4:
     0.249,0.450,0.096,0.148,0:
0000
0000
0000
0000
,
0000
0000
0000
0000
,
0000
0000
0000
0000
,
0000
0000
0000
0000
,
0000
0000
0000
0000
,
0000
0000
0000
0000
,
0000
0000
0000
0000
,
0000
0000
0000
0000
,
0000
0000
0000
0000
,
0000
0000
0000
0000
,
0001
0000
0000
0000
,
1000
0000
0000
0000
,
0002
0003
2000
3000
,
0001
1000
1001
0000
,
1000
0000
1000
0000
,
0010
0001
0011
0000
,
0001
0000
0001
0000
,
1000
0010
1010
0000
,
0001
0000
1000
0000
,
0100
0000
0100
0000
,
0002
0003
2000
3000
,
0001
1000
1001
0000
,
1000
1000
0100
0100
,
0010
0000
0010
0000
,
0001
0001
0010
0010
,
0200
0000
0300
0000
,
1000
1000
1000
1000
,
0001
1000
0001
0000
,
0010
0010
0010
0010
,
0200
0000
0300
0000
,
0001
0001
0100
0100
,
0010
0000
0010
0000
,
1000
1000
0010
0010
,
0200
0000
0300
0000
,
0001
0001
0001
0001
,
1000
0001
1000
0000
,
0010
0010
0010
0010
,
0200
0000
0300
0000
,
1000
0000
0001
0000
,
1000
0001
1001
0000
,
0001
0000
1000
0000
,
0001
1000
1001
0000
,
0002
1003
2000
3001
,
0002
1003
2000
3001
,
0010
0000
0100
0000
,
0110
0000
0000
0000
,
0000
0000
0000
0000
,
0000
0000
0000
0000
,
0001
0000
0010
0000
,
0100
0000
1000
0000
,
0001
0000
0100
0000
,
0010
0000
1000
0000
,
2002
0000
0000
0000
,
3003
0000
0000
0000
,
0000
0000
0000
0000
,
0000
0000
0000
0000
,
1000
1000
0001
0001
,
0010
0100
0010
0000
,
1000
1000
0001
0001
,
0100
0010
0100
0000
,
1000
1000
0100
0100
,
0010
0000
0001
0000
,
1000
0100
0001
0010
,
1000
0000
0000
0000
,
1000
1000
0001
0001
,
0010
0100
0010
0000
,
1000
1000
0001
0001
,
0100
0010
0100
0000
,
1000
1000
0100
0100
,
0010
0000
0001
0000
,
1000
0100
0001
0010
,
1000
0000
0002
0000
,
1003
0000
1000
0000
,
0010
0001
0011
0000
,
0001
0000
0001
0000
,
1000
0010
1010
0000
,
0001
0000
1000
0000
,
0100
0000
0100
0000
,
0002
0003
2000
3000
,
0001
1000
1001
0000
,
0000
0000
0000
0000
;

//---------------dance-single - ----------------
#NOTES:
     dance-single:
     :
     Easy:
     7:
     0.385,0.450,0.296,0.323,0:
0000
0000
0000
0000
,
0000
0000
0000
0000
,
0000
0000
0000
0000
,
0000
0000
0000
0000
,
2000
0000
3100
0001
,
0000
0100
0000
0020
,
0000
0000
0031
0010
,
0100
0000
0000
0100
,
1000
0001
0000
0100
,
0010
0000
1000
0001
,
1001
0000
0000
0000
,
0110
0000
0000
0000
,
0002
0003
2000
3000
,
0010
0100
1001
0000
,
1000
1000
0100
0010
,
0011
0110
1001
0000
,
0001
0010
0100
1000
,
0001
0100
0010
0000
,
0001
0100
1000
0100
,
0110
1010
1001
0000
,
0002
0000
2003
0000
,
3001
1000
1001
0000
,
1000
0100
0001
0100
,
1000
0010
0001
0010
,
1000
0010
0100
0002
,
0000
0013
0010
0010
,
0200
1000
1000
1300
,
0020
0100
0100
0130
,
0002
1000
1000
1003
,
0200
0000
0000
0300
,
1000
0100
0001
0100
,
1000
0010
0001
0010
,
1000
0010
0100
0002
,
0000
0013
0010
0010
,
0200
1000
1000
1300
,
0020
0100
0100
0130
,
0002
1000
1000
1003
,
0200
0010
0310
0000
,
1100
0000
0011
0000
,
1000
0001
1001
0000
,
0101
0000
1010
0000
,
0001
1000
1001
0000
,
1001
0100
1001
0010
,
1001
0100
1001
0010
,
0002
0010
0023
0100
,
0230
1000
1300
0000
,
0010
0000
0010
0000
,
0100
0000
0100
0000
,
0002
0103
0200
0310
,
0020
1030
2000
3100
,
0200
0310
0020
0031
,
0002
0103
0200
0310
,
2000
0000
0000
0000
,
0002
0000
0000
0000
,
3003
0000
0000
0000
,
0002
0000
1003
0000
,
1000
0100
0001
0100
,
0010
0001
1001
0000
,
0001
1000
0010
0100
,
0001
1000
1001
0000
,
0010
1000
0001
0100
,
0001
0010
0100
1000
,
0001
0100
1100
0110
,
0101
0000
1000
1000
,
0001
0100
1000
0100
,
0010
1000
1001
0000
,
1000
0001
0010
0100
,
1000
0001
1001
0000
,
0010
0001
1000
0100
,
1000
0010
0100
0001
,
2000
3002
0023
0230
,
1300
0000
0002
0000
,
1003
1000
0100
0010
,
0011
0110
1001
0000
,
0001
0010
0100
1000
,
0001
0100
0010
0000
,
0001
0100
1000
0100
,
0110
1010
1001
0000
,
0002
0000
2003
0000
,
3001
1000
1001
0000
,
0000
0000
0000
0000
;

//---------------dance-single - ----------------
#NOTES:
     dance-single:
     :
     Medium:
     11:
     0.499,0.520,0.183,0.279,0.039:
0000
0000
0000
0000
,
0000
0000
0000
0000
,
0000
0000
0000
0000
,
0000
0000
0000
0000
,
2000
0000
0001
0100
,
0000
3002
0000
0013
,
0000
0000
0100
1000
,
0001
0000
0000
0010
,
0001
0010
0100
0000
0000
0000
1000
0100
,
1000
0000
0001
0100
,
0020
0000
0000
0000
,
2030
0000
0000
0000
,
3001
0000
1000
0000
,
0001
0000
0000
0010
0000
0000
0100
0000
0000
1000
0000
0000
0100
0000
0000
0000
,
0020
0000
0031
0000
1000
0100
0010
0001
,
0011
0000
0110
0000
1000
0100
1000
0000
,
0002
0000
1003
0000
0010
0100
0001
1000
,
0100
0010
0001
0000
0110
0000
0000
0000
,
0002
0000
0103
0000
0010
1000
0100
0010
,
0011
0000
0110
0000
1000
0100
0010
0000
,
0002
0203
2300
3002
,
0013
0100
0010
0000
1001
0000
0000
0000
,
0000
1000
0100
0000
0010
0001
0010
0100
,
1000
0010
0100
0001
0000
1000
0001
0000
,
0010
0100
1000
0100
0010
0001
0100
0020
,
0000
0100
0100
0000
0100
0000
0130
0000
,
0001
1000
0001
1000
0001
1000
0010
0200
,
0000
0001
0001
0000
0001
0000
0301
0000
,
1000
0010
1000
0010
1000
0010
0100
0002
,
0000
0000
0000
0003
,
0000
0001
0100
0000
0010
1000
0010
0100
,
0001
0010
0100
1000
0000
0001
1000
0000
,
0010
0100
0001
0100
0010
1000
0100
0020
,
0000
0100
0100
0000
0100
0000
0130
0000
,
1000
0001
1000
0001
1000
0001
0010
0200
,
0000
1000
1000
0000
1000
0000
1300
0000
,
0001
0010
0001
0010
0001
0010
0100
2000
,
0000
0001
0001
0000
0001
3001
0000
0000
,
1000
1000
0000
0000
0001
0001
0000
0000
,
0101
1100
0110
0000
,
0001
0001
0000
0000
1000
1000
0000
0000
,
1100
0101
0110
0000
,
1000
0100
0001
0010
,
1000
0100
0001
0010
,
1000
0100
1000
0000
0001
0010
0001
0000
,
1000
0001
1000
0001
0100
0010
0100
0000
,
0001
0100
0001
0000
1000
0010
1000
0000
,
0001
0010
0001
0000
1000
0100
1000
0000
,
0010
0100
0010
0000
1000
0001
1000
0000
,
0100
0010
0100
0000
1000
0001
1000
0000
,
0001
0010
0100
0000
1000
0010
0100
0000
,
0001
1000
0100
0000
0010
0001
1000
0000
,
0002
0000
0000
0000
,
2000
0000
0000
0000
,
3003
0000
0000
0000
,
0002
0000
2003
0000
,
3001
0000
0100
0010
0000
1000
0100
0020
,
0000
0000
0001
0000
1030
0000
0000
0001
,
0100
1000
0000
0100
0010
0000
1000
0001
,
0200
0000
0000
0001
0301
0000
0000
0000
,
1000
0000
0001
1000
0000
0010
0000
0100
,
0000
0100
0001
0010
1000
0010
0000
0002
,
0000
0000
0003
0000
0001
0000
0000
0000
1000
0000
0000
0001
0000
0000
1000
0000
,
1001
0000
0010
0100
,
0001
1000
0001
0100
0000
0010
0000
2000
,
0000
0000
0100
0000
3001
0000
0000
1000
,
0001
1000
0000
0010
0100
0000
0001
1000
,
0001
0000
0000
0010
0100
0000
0000
1000
,
0100
0000
0000
0100
0000
0000
0100
0000
0010
0000
0000
0001
0000
0000
0010
0000
,
0001
0000
0000
0001
0000
0000
0001
0000
0010
0000
0000
0100
0000
0000
1000
0000
,
0001
0000
0000
0100
0000
0000
0010
0000
1000
0000
0000
0100
0000
0000
0010
0000
,
1001
0000
0110
0000
,
0020
0000
1030
0000
0001
0100
0010
1000
,
1010
0000
0110
0000
0001
0100
0001
0000
,
2000
0000
3001
0000
0010
0100
1000
0001
,
0100
0010
1000
0000
0110
0000
0000
0000
,
2000
0000
3100
0000
0010
0001
0100
0010
,
1010
0000
0110
0000
0001
0100
0010
0000
,
2000
3200
0302
2003
,
3010
0100
0010
0000
1001
0000
0000
0000
;

//---------------dance-single - ----------------
#NOTES:
     dance-single:
     :
     Hard:
     14:
     0.679,0.866,0.410,0.183,0.309:
0000
0000
0000
0000
,
0000
0000
0000
0000
,
0000
0000
0000
0000
,
0000
0000
0000
0000
,
2000
0000
0001
0100
,
0000
0001
0000
3020
,
0000
0000
0100
0001
,
0230
0000
0000
0301
,
1000
0001
1000
0000
0000
0000
0100
0010
,
0100
0000
0010
0100
,
2002
0000
0000
3003
,
0220
0000
0000
0330
,
1001
0000
0110
0000
,
0010
0001
0000
0001
0100
0000
0100
0010
0000
0010
1000
0000
1100
0000
0000
0000
,
0110
0000
0011
0000
1000
0100
0001
0100
,
0010
0001
0010
0100
1000
0000
0000
0000
0001
0000
1000
0000
0001
0000
1000
0000
,
0101
0000
1001
0000
0001
0010
1000
0010
,
0100
0000
0010
0001
1000
0000
0001
0100
0010
0000
0000
0000
1001
0000
0000
0000
,
1010
0000
0110
0000
0001
0010
1000
0010
,
0100
0010
0001
0010
0100
0000
0000
0000
1000
0000
0001
0000
1000
0000
0001
0000
,
0000
0100
0010
0100
0001
1000
0001
1000
,
0100
0010
0100
0010
0100
0000
0000
0000
1001
0000
0000
0000
0000
0000
0000
0000
,
0000
1000
0001
0100
0010
1000
0001
0010
,
0100
1000
0001
0100
0000
0010
0100
0010
,
1000
0001
0010
0100
1000
0100
0001
0200
,
0000
0010
0010
0310
0001
0100
0010
1000
,
0001
0010
0001
0010
0001
0010
0001
0010
0001
0010
0001
0010
0100
0000
1000
0000
,
0000
0100
0010
0001
1000
0010
0100
0001
,
1000
0010
1000
0010
1000
0010
1000
0010
1000
0010
1000
0010
0100
0000
0002
0000
,
0000
0000
0000
0003
,
0001
0100
1000
0100
0010
1000
0001
1000
,
0001
0010
0100
1000
0001
0100
0010
0100
,
0001
1000
0100
0010
0001
0100
1000
0200
,
0000
0010
0010
0310
1000
0100
0010
0001
,
1000
0010
1000
0010
1000
0010
1000
0010
1000
0010
1000
0010
0100
0000
0001
0000
,
0000
0100
0010
1000
0001
0010
0100
1000
,
0001
0010
0001
0010
0001
0010
0001
0010
0001
0010
0001
0010
0100
0000
1000
0000
,
0000
0010
1000
0010
0100
0001
0010
0000
,
1000
0100
1000
0100
0000
0000
0000
0000
0001
0010
0001
0010
0000
0000
0000
0000
,
0001
1000
0100
0000
0010
0001
1000
0000
1001
0000
0000
0000
0000
0000
0000
0000
,
0001
0010
0001
0010
0000
0000
0000
0000
1000
0100
1000
0100
0000
0000
0000
0000
,
0001
1000
0010
0000
0100
0001
1000
0000
1001
0000
0000
0000
0000
0000
0000
0000
,
1200
1000
0310
0000
0120
0100
0031
0000
,
0100
0010
0100
0000
0001
0000
1000
0000
0100
0000
0010
0000
0001
0000
0000
0000
,
0010
1000
1010
0000
0100
0001
0101
0000
,
0020
0000
0100
0100
0000
0100
0130
0000
,
0001
1000
0010
0000
0100
0001
1000
0000
,
0100
0010
0001
0000
1000
0010
0100
0000
,
0001
0010
1000
0000
0010
0001
0100
0000
,
1000
0100
0001
0000
0010
1000
0001
0000
,
0100
1000
0001
0000
0100
0010
0001
0000
,
1000
0100
0010
0000
1000
0001
0010
0000
,
0200
0000
0000
0000
,
0020
0000
0000
0000
,
0330
0000
0000
0000
,
0002
0000
2003
0000
,
3010
0000
0100
0000
0001
0000
0010
0000
0100
0000
1000
0000
0010
0000
0100
0001
,
0010
1000
0010
0001
1000
0001
1000
0010
,
0100
0001
0100
0000
0000
0000
0010
1000
0010
0000
0000
0000
0100
0000
0001
0000
,
0020
0000
1000
1000
0100
0000
0031
0000
,
0001
0000
0010
0000
1000
0000
0001
0000
0100
0000
1000
0000
0100
0000
0010
0001
,
1000
0010
0100
1000
0100
0001
0000
0011
,
0000
0000
1000
0000
0100
0000
0001
0000
0101
0000
0000
0110
0000
0000
1100
0000
,
1001
0000
1100
1001
,
0010
0001
0010
0001
0000
1000
0100
0010
,
0000
0001
1000
0010
0100
0001
0010
0000
,
0001
1000
0001
0000
0000
0000
0100
0010
0100
0000
0000
0000
0001
0000
1000
0000
,
0002
0000
0000
0000
0013
0000
0100
1000
0100
0000
0000
0000
0000
0000
0001
0000
,
0011
0000
0000
0110
0000
0000
0011
0000
0110
0000
0000
1100
0000
0000
0110
0000
,
1100
0000
0000
1001
0000
0000
1010
0000
1001
0000
0000
0011
0000
0000
0101
0000
,
0001
0000
0000
0010
0000
0000
0100
0000
1000
0000
0000
0100
0000
0000
0010
0000
,
0001
0000
2002
3003
,
0110
0000
1010
0000
0001
0100
1000
0100
,
0010
1000
0010
0100
0001
0000
0000
0000
1000
0000
0001
0000
1000
0000
0001
0000
,
1100
0000
1001
0000
1000
0010
0001
0010
,
0100
0000
0010
1000
0001
0000
1000
0100
0010
0000
0000
0000
1001
0000
0000
0000
,
0011
0000
0110
0000
1000
0010
0001
0010
,
0100
0010
1000
0010
0100
0000
0000
0000
0001
0000
1000
0000
0001
0000
1000
0000
,
0000
0100
0010
0100
1000
0001
1000
0001
,
0100
0010
0100
0010
0100
0000
0000
0000
1001
0000
0000
0000
0000
0000
0000
0000
;

//---------------dance-double - ----------------
#NOTES:
     dance-double:
     :
     Easy:
     7:
     0.357,0.450,0.183,0.279,0:
00000000
00000000
00000000
00000000
,
00000000
00000000
00000000
00000000
,
00000000
00000000
00000000
00000000
,
00000000
00000000
00000000
00000000
,
20000000
00000000
31000000
00010000
,
00000000
00001000
00000000
00020000
,
00000000
00000000
00030100
00000010
,
00000001
00000000
00000000
00000100
,
00001000
00010000
00000000
00100000
,
01000000
00000000
00010000
10000000
,
10010000
00000000
00000000
00000000
,
01100000
00000000
00000000
00000000
,
00020000
00030000
20000000
30000000
,
00100000
01000000
10010000
00000000
,
10000000
10000000
01000000
00010000
,
00001000
00010000
00011000
00000000
,
00000010
00000001
00001000
00000100
,
00000001
00000100
00001000
00000000
,
00000001
00000001
00000100
00001000
,
00010000
00001000
00011000
00000000
,
00200000
00000000
02300000
00000000
,
03010000
10000000
10010000
00000000
,
10000000
01000000
00010000
01000000
,
10000000
00100000
00010000
00100000
,
10000000
01000000
00010000
00002000
,
00000000
00003010
00000010
00000010
,
00000002
00000100
00000100
00000103
,
00002000
00010000
00013000
00000000
,
00200000
01000000
01000000
01300000
,
00020000
00000000
00030000
00000000
,
10000000
01000000
00010000
01000000
,
10000000
00100000
00010000
00100000
,
10000000
01000000
00010000
00002000
,
00000000
00003010
00000010
00000010
,
00000002
00000100
00000100
00000103
,
00002000
00010000
00013000
00000000
,
00200000
01000000
01000000
01300000
,
00020000
10000000
10030000
00000000
,
11000000
00000000
00110000
00000000
,
00001000
00010000
00011000
00000000
,
00000011
00000000
00001100
00000000
,
00010000
00001000
00011000
00000000
,
00010000
00100000
10000000
01000000
,
00010000
00001000
00000010
00000000
,
00000002
00000010
00000023
00000100
,
00000230
00001000
00001300
00000000
,
00000010
00000000
00000010
00000000
,
00000100
00000000
00000100
00000000
,
00000002
00000103
00000200
00000310
,
00000020
00001030
00002000
00003100
,
00000200
00010300
00020000
00031000
,
00002000
00103000
00200000
00310000
,
00020000
00000000
00000000
00000000
,
20000000
00000000
00000000
00000000
,
30030000
00000000
00000000
00000000
,
00020000
00000000
10030000
00000000
,
10000000
01000000
00010000
01000000
,
00100000
00001000
00011000
00000000
,
00000010
00000001
00000100
00001000
,
00100000
00001000
00011000
00000000
,
00100000
10000000
00010000
01000000
,
00001000
00010000
00001000
00000010
,
00000001
00000100
00001000
00000100
,
00000101
00000000
00001000
00001000
,
00000001
00000100
00001000
00000100
,
00000010
00010000
00011000
00000000
,
00100000
10000000
01000000
00010000
,
00000100
00010000
00011000
00000000
,
00000010
00000001
00001000
00000100
,
00010000
00001000
00010000
00100000
,
10000000
00010000
00100000
01000000
,
11000000
00000000
00000000
00000000
,
10000000
10000000
01000000
00010000
,
00001000
00010000
00011000
00000000
,
00000010
00000001
00001000
00000100
,
00000001
00000100
00001000
00000000
,
00000001
00000001
00000100
00001000
,
00010000
00001000
00011000
00000000
,
00200000
00000000
02300000
00000000
,
03010000
10000000
10010000
00000000
,
00000000
00000000
00000000
00000000
;

//---------------dance-double - ----------------
#NOTES:
     dance-double:
     :
     Medium:
     11:
     0.478,0.485,0.174,0.279,0.039:
00000000
00000000
00000000
00000000
,
00000000
00000000
00000000
00000000
,
00000000
00000000
00000000
00000000
,
00000000
00000000
00000000
00000000
,
20000000
00000000
00010000
01000000
,
00000000
30020000
00000000
00130000
,
00000000
00000000
00001000
00010000
,
00001000
00000000
00000000
00000010
,
00000001
00000010
00000100
00000000
00000000
00000000
00001000
00000100
,
00001000
00000000
00000001
00000100
,
00002000
00000000
00000000
00000000
,
00023000
00000000
00000000
00000000
,
00130000
00000000
10000000
00000000
,
00010000
00000000
00000000
00100000
00000000
00000000
01000000
00000000
00000000
10000000
00000000
00000000
01000000
00000000
00000000
00000000
,
00200000
00000000
00310000
00000000
10000000
01000000
00100000
00000000
,
00110000
00000000
01100000
00000000
10000000
01000000
10000000
00000000
,
00020000
00000000
10030000
00000000
01000000
00010000
00001000
00000000
,
00010000
00001000
00000010
00000000
00000110
00000000
00000000
00000000
,
00000002
00000000
00000103
00000000
00000010
00001000
00000100
00000000
,
00000110
00000000
00000011
00000000
00001000
00000100
00000010
00000000
,
00000002
00000203
00002300
00023000
,
00130000
10000000
01000000
00000000
01100000
00000000
00000000
00000000
,
00000000
10000000
01000000
00000000
00100000
00010000
00100000
00000000
,
01000000
10000000
01000000
00010000
00000000
00001000
00010000
00000000
,
00001000
00000010
00000001
00000000
00001000
00000001
00001000
00000020
,
00000000
00000100
00000100
00000130
,
00001000
00010000
00001000
00010000
00001000
00010000
00100000
20000000
,
00000000
01000000
01000000
31000000
,
00010000
00001000
00010000
00001000
00010000
00001000
00000100
00000020
,
00000000
00000000
00000000
00000030
,
00000000
00000001
00000100
00000000
00000010
00001000
00000010
00000000
,
00000100
00000001
00000100
00001000
00000000
00010000
00001000
00000000
,
00010000
00100000
10000000
00000000
00010000
10000000
00010000
00200000
,
00000000
01000000
01000000
01300000
,
00010000
00001000
00010000
00001000
00010000
00001000
00000010
00000002
,
00000000
00000100
00000100
00000103
,
00001000
00010000
00001000
00010000
00001000
00010000
00100000
02000000
,
00000000
00000000
00100000
00000000
00100000
03100000
00000000
00000000
,
10000000
10000000
00000000
00000000
01000000
01000000
00000000
00000000
,
01010000
00011000
00001010
00000000
,
00000001
00000001
00000000
00000000
00000100
00000100
00000000
00000000
,
00001100
00011000
00110000
00000000
,
10000000
01000000
00010000
01000000
,
10000000
00100000
00010000
00100000
,
10000000
01000000
10000000
00000000
01000000
00010000
01000000
00000000
,
00010000
00001000
00010000
00001000
00000010
00001000
00000010
00000000
,
00000001
00000100
00000001
00000000
00000100
00001000
00010000
00000000
,
00100000
01000000
00100000
00000000
10000000
01000000
00010000
00000000
,
00001000
00010000
00001000
00000000
00000010
00000001
00000100
00000000
,
00001000
00010000
00001000
00000000
00100000
01000000
10000000
00000000
,
01000000
00010000
00001000
00000000
00000010
00000001
00000100
00000000
,
00001000
00010000
00100000
00000000
10000000
01000000
00010000
00000000
,
00002000
00000000
00000000
00000000
,
00000002
00000000
00000000
00000000
,
00003003
00000000
00000000
00000000
,
00000200
00000000
00000320
00000000
,
00000031
00000000
00000100
00000010
00000000
00001000
00000000
00000200
,
00000000
00000000
00010300
00000000
00001000
00000000
00000000
00010000
,
01000000
10000000
00000000
00100000
01000000
00000000
00010000
10000000
,
02000000
00000000
00000000
00010000
03010000
00000000
00000000
00000000
,
00001000
00000000
00010000
00001000
00000000
00000010
00000000
00000001
,
00000000
00000001
00000100
00000010
00001000
00000010
00000000
00000200
,
00000000
00000000
00000300
00000000
00000100
00000000
00000000
00000000
00001000
00000000
00000000
00010000
00000000
00000000
00001000
00000000
,
00010000
00000000
00100000
01000000
,
00010000
10000000
00010000
01000000
00000000
00100000
00000000
20000000
,
00000000
00000000
31000000
00000000
00010000
00000000
00000000
00001000
,
00010000
00001000
00000000
00000010
00000100
00000000
00001000
00000001
,
00001000
00000000
00000000
00000010
00000100
00000000
00000000
00000001
,
00000100
00000000
00000000
00000100
00000000
00000000
00000100
00000000
00001000
00000000
00000000
00010000
00000000
00000000
00001000
00000000
,
00010000
00000000
00000000
00010000
00000000
00000000
00010000
00000000
00100000
00000000
00000000
10000000
00000000
00000000
00100000
00000000
,
10000000
00000000
00000000
01000000
00000000
00000000
00010000
00000000
00001000
00000000
00000000
00000010
00000000
00000000
00000001
00000000
,
00001001
00000000
00000110
00000000
,
00000020
00000000
00001030
00000000
00000001
00000100
00000010
00000000
,
00001010
00000000
00000110
00000000
00000001
00000100
00000001
00000000
,
00002000
00000000
00003001
00000000
00000100
00001000
00010000
00000000
,
00001000
00010000
00100000
00000000
01100000
00000000
00000000
00000000
,
20000000
00000000
31000000
00000000
00100000
00010000
01000000
00000000
,
01100000
00000000
10100000
00000000
00010000
01000000
00100000
00000000
,
20000000
32000000
03020000
00032000
,
00003010
00000001
00000100
00000000
00000110
00000000
00000000
00000000
;

//---------------dance-double - ----------------
#NOTES:
     dance-double:
     :
     Hard:
     14:
     0.633,0.658,0.392,0.192,0.139:
00000000
00000000
00000000
00000000
,
00000000
00000000
00000000
00000000
,
00000000
00000000
00000000
00000000
,
00000000
00000000
00000000
00000000
,
20000000
00000000
00010000
00100000
,
00000000
00010000
00000000
32000000
,
00000000
00000000
00100000
00010000
,
03200000
00000000
00000000
00301000
,
00010000
00001000
00010000
00000000
00000000
00000000
00000100
00000010
,
00000100
00000000
00000010
00000100
,
00002001
00000000
00000000
00003000
,
00021000
00000000
00000000
00030000
,
10010000
00000000
01100000
00000000
,
00100000
00010000
00000000
00010000
01000000
00000000
01000000
00100000
00000000
00100000
10000000
00000000
11000000
00000000
00000000
00000000
,
01100000
00000000
00110000
00000000
10000000
01000000
00010000
01000000
,
00100000
00010000
00100000
00000000
00001000
00000000
00000010
00000000
00000100
00000000
00000000
00000000
00001100
00000000
00000000
00000000
,
00000110
00000000
00000011
00000000
00000001
00000010
00001000
00000010
,
00000100
00000000
00010000
00001000
00100000
00000000
00010000
10000000
01000000
00000000
00000000
00000000
10010000
00000000
00000000
00000000
,
11000000
00000000
01100000
00000000
00010000
00100000
10000000
00100000
,
01000000
00000000
00010000
00001000
00010000
00000000
00000100
00000000
00000010
00000000
00000000
00000000
00001001
00000000
00000000
00000000
,
00000000
00000100
00000010
00000100
00001000
00010000
00001000
00010000
,
00100000
01000000
00100000
01000000
00100000
00000000
00000000
00000000
10010000
00000000
00000000
00000000
00000000
00000000
00000000
00000000
,
10000000
01000000
00010000
01000000
00100000
00010000
00001000
00010000
,
00001000
00000010
00000100
00000001
00001000
00000100
00000010
00000100
,
00010000
00001000
00000100
00001000
00010000
00100000
10000000
00020000
,
00000000
00100000
00130000
00010000
10000000
01000000
00010000
02000000
,
00100000
00100000
10000000
13000000
01000000
00010000
00001000
00000010
,
00000001
00000100
00000010
00000001
00001000
00000100
00000010
00000200
,
00000001
00000001
00000010
00000310
00000100
00001000
00010000
00200000
,
00000000
00000000
00000000
00300000
,
10000000
01000000
00010000
01000000
00100000
00010000
00001000
00010000
,
00001000
00000010
00000100
00000001
00001000
00000100
00000010
00000100
,
00010000
00001000
00000100
00001000
00010000
00100000
10000000
00020000
,
00000000
00100000
00130000
00010000
10000000
01000000
00010000
02000000
,
00100000
00100000
10000000
13000000
01000000
00010000
00001000
00000020
,
00000000
00000130
00000010
00000001
00001000
00000001
00000100
00000020
,
00000001
00000001
00000100
00000130
00000010
00001000
00010000
02000000
,
00000000
03100000
00010000
00100000
10000000
01000000
00100000
00000000
,
11000000
10000000
00000000
00000000
00110000
00010000
00000000
00000000
,
10010000
00011000
00001001
00000000
,
00000011
00000001
00000000
00000000
00001100
00001000
00000000
00000000
,
00001001
00011000
10010000
00000000
,
10000000
01000000
00100000
00000000
01000000
00100000
00010000
00000000
,
00100000
00010000
00100000
00000000
00001000
00000000
00010000
00000000
00001000
00000000
00000100
00000000
00000010
00000000
00000000
00000000
,
00000001
00000100
00000101
00000000
00001000
00010000
00011000
00000000
,
00200000
00000000
01000000
01000000
00000000
01000000
01300000
00000000
,
10000000
00100000
00010000
00000000
00001000
00000100
00000001
00000000
,
00000001
00000010
00001000
00000000
00010000
01000000
10000000
00000000
,
10000000
00100000
00010000
00001000
00000100
00000001
00000100
00000000
,
00000001
00000010
00001000
00010000
01000000
10000000
01000000
00000000
,
10000000
00100000
00010000
00001000
00000100
00000001
00000010
00001000
,
00010000
00000000
01000000
00000000
10000000
00000000
00100000
00000000
00010000
00000000
00001000
00000000
00000100
00000001
00000100
00000000
,
00000020
00000000
00000000
00000000
,
00002000
00000000
00000000
00000000
,
00003030
00000000
00000000
00000000
,
00020000
00000000
20030000
00000000
,
30100000
00000000
01000000
00000000
00010000
00000000
00100000
00000000
01000000
00000000
10000000
00000000
00100000
00000000
01000000
00010000
,
00100000
10000000
00100000
00010000
00001000
00010000
00001000
00000100
,
00000010
00000001
00000010
00000000
00000000
00000000
00000100
00001000
00000100
00000000
00000000
00000000
00010000
00000000
00001000
00000000
,
00000200
00000000
00000001
00000001
00001000
00000000
00000310
00000000
,
00000001
00000000
00000010
00000000
00001000
00000000
00010000
00000000
01000000
00000000
10000000
00000000
01000000
00000000
00100000
00001000
,
00010000
00100000
01000000
10000000
01000000
00010000
00000000
00110000
,
00000000
00000000
10000000
00000000
01000000
00000000
00010000
00000000
01010000
00000000
00000000
00011000
00000000
00000000
00001010
00000000
,
00000011
00000000
00001100
00011000
,
00100000
00010000
00100000
00010000
00000000
10000000
01000000
00100000
,
00000000
00001000
00010000
01000000
10000000
00100000
01000000
00000000
,
00010000
10000000
00010000
00000000
00000000
00000000
00100000
01000000
00100000
00000000
00000000
00000000
00001000
00000000
00010000
00000000
,
00001000
00000000
00000100
00000000
00000010
00000000
00000100
00001000
00000100
00000000
00000001
00000000
00000010
00000000
00000000
00000000
,
00000001
00000000
00000000
00000100
00000000
00000000
00001000
00000000
00010000
00000000
00000000
00100000
00000000
00000000
10000000
00000000
,
01000000
00000000
00000000
00010000
00000000
00000000
00001000
00000000
00000010
00000000
00000000
00000001
00000000
00000000
00000100
00000000
,
00001000
00000000
00000000
00100000
00000000
00000000
10000000
00000000
00010000
00000000
00000000
00000010
00000000
00000000
00000001
00000000
,
00001000
00000000
00022000
00033000
,
00000110
00000000
00001100
00000000
00000001
00000010
00001000
00000010
,
00000100
00001000
00000100
00000000
00010000
00000000
01000000
00000000
00100000
00000000
00000000
00000000
00110000
00000000
00000000
00000000
,
11000000
00000000
01100000
00000000
10000000
01000000
00010000
01000000
,
00100000
00000000
00001000
00010000
00000100
00000000
00001000
00000001
00000010
00000000
00000000
00000000
00001001
00000000
00000000
00000000
,
00000011
00000000
00000110
00000000
00001000
00000100
00000001
00000100
,
00000010
00000000
00001000
00010000
00001000
00000000
00100000
00000000
01000000
00000000
00000000
00000000
10010000
00000000
00000000
00000000
,
00000000
00100000
01000000
00100000
00010000
00001000
00010000
00001000
,
00000100
00000010
00000100
00000010
00000100
00000000
00000000
00000000
00001001
00000000
00000000
00000000
00000000
00000000
00000000
00000000
;
