
//----- song id: thlo
#TITLE:The Lonely Streets;
#ARTIST:DJ Yoshitaka feat.Robert "RAaB" Stevenson;
#BANNER:The Lonely Streets.png;
#BACKGROUND:The Lonely Streets-bg.png;
#CDTITLE:./CDTITLES/DDR HOTTEST PARTY 2.png;
#MUSIC:The Lonely Streets.ogg;
#SAMPLESTART:51.947;
#SAMPLELENGTH:15;
#DISPLAYBPM:115;
#BPMS:0=115;
#NOTES:
     dance-single:
     :
     Beginner:
     2:
     :
0000
0000
0000
0000
,
0000
0000
0000
0000
,
0000
0000
0000
0000
,
0000
0000
0000
0000
,
0000
0000
0000
0000
,
0000
0100
0000
0000
,
0000
0100
0000
0000
,
0000
0100
0000
0000
,
0000
0000
0000
0000
,
0000
0000
0000
0001
,
0000
0000
0000
0000
,
0000
0000
0000
0001
,
0000
0000
0000
0000
,
0000
0000
0000
1000
,
0000
0000
0000
0000
,
0000
0000
0000
1000
,
0000
0000
0000
0000
,
0000
0010
0000
0000
,
0000
0100
0000
0000
,
0000
0010
0000
0000
,
0000
0100
0000
0000
,
0110
0000
1001
0000
,
0110
0000
1001
0000
,
0010
0000
0010
0000
,
1000
0000
0001
0000
,
0001
0000
0001
0000
,
1000
0000
1000
0000
,
0001
0000
0001
0000
,
0010
0000
0100
0000
,
0001
0001
0000
0000
,
1000
1000
0000
0000
,
0001
0001
0000
0000
,
0010
0000
0100
0000
,
0001
0000
0010
0000
,
1000
0000
0100
0000
,
0001
0000
0010
0000
,
0010
0000
0100
0000
,
0001
0001
0001
0000
,
1000
1000
1000
0000
,
0001
0001
0001
0000
,
0001
0000
1000
0000
,
0000
0000
0000
0000
;
#NOTES:
     dance-single:
     :
     Easy:
     4:
     :
0000
0000
0000
0000
,
0000
0000
0000
0000
,
0000
0000
0000
0000
,
0000
0000
0000
0000
,
0000
0000
0000
0000
,
0000
0001
0000
0000
,
0000
1000
0000
0000
,
0000
0001
0000
0000
,
0000
0000
0000
1001
,
0000
0000
0000
0001
,
0000
0000
0000
0001
,
0000
0000
0000
0001
,
0000
0000
0110
1001
,
0000
0000
0000
1000
,
0000
0000
0000
1000
,
0000
0000
0000
1000
,
0000
0000
0110
1001
,
0000
0010
0000
0001
,
0000
0100
0000
1000
,
0000
0010
0000
0001
,
0000
0100
0000
0100
,
0110
0110
1001
1001
,
0110
0110
1001
1001
,
0010
0100
0100
0010
,
1000
0001
1000
0000
,
0001
1000
1000
0000
,
1000
0001
0001
0000
,
0001
1000
1000
0000
,
0010
0001
0100
1000
,
0001
0100
0001
0000
,
1000
0010
1000
0000
,
0001
0100
0001
0000
,
0010
0001
0100
1000
,
0001
0010
0100
0000
,
1000
0100
0010
0000
,
0001
0010
0100
0000
,
0010
0001
0100
1000
,
0001
0010
1000
0000
,
1000
0100
0001
0000
,
0001
0010
1000
0000
,
0001
1000
0100
0001
,
0000
0000
0000
0000
;
#NOTES:
     dance-single:
     :
     Medium:
     7:
     :
0000
0000
0000
0000
,
0000
0000
0000
0000
,
0000
0000
0000
0000
,
0000
0000
0000
0000
,
0000
0000
0000
0000
,
0000
0001
0000
0001
,
0000
1000
0000
1000
,
0000
0001
0000
1000
,
0110
0000
0000
1001
,
0000
0001
0000
0000
0000
0100
0100
0101
,
0000
0001
0000
0000
0000
0010
0010
0101
,
0000
0001
0000
0000
0000
1000
1000
0101
,
0000
0001
0000
0000
1100
0000
0011
0000
,
0000
1000
0000
0000
0000
0010
0010
1010
,
0000
1000
0000
0000
0000
0100
0100
1010
,
0000
1000
0000
0000
0000
0001
0001
1010
,
0000
1000
0000
0000
0011
0000
1100
0000
,
0001
0000
0010
0000
0000
0100
0101
0000
,
1000
0000
0100
0000
0000
0010
1010
0000
,
0001
0000
0010
0000
0000
0100
0101
0000
,
1000
0100
0010
0001
,
1100
0000
0011
0000
1001
0110
1001
0000
,
0101
0000
1010
0000
1001
0110
1001
0000
,
0001
0010
0100
0000
0001
1000
0010
0100
,
1000
0010
1000
0000
,
0001
1000
0100
0001
,
1000
0001
0010
1000
,
0001
1000
0100
0001
,
0010
0000
0001
0000
0100
0100
1000
0001
,
0001
0000
0100
0000
0001
1000
0001
0000
,
1000
0000
0010
0000
1000
0010
0001
0000
,
0001
0000
0010
0000
1000
0001
1000
0000
,
0010
0000
0001
0000
0100
0100
1000
0001
,
0001
0010
0001
0000
0001
0100
1000
0000
,
1000
0100
1000
0000
1000
0010
0001
0000
,
0001
0010
0001
0000
0001
0100
1000
0000
,
0010
0000
0001
0000
0100
0100
1000
0001
,
0001
0100
0001
0100
0001
0100
1000
0000
,
1000
1000
0010
1000
0010
1000
0001
0000
,
0001
0001
0100
0001
0100
0001
1000
0000
,
0001
0000
0010
0000
0100
1000
0001
1000
,
0000
0002
0000
0000
0000
0000
0000
0000
,
0000
0000
0000
0003
,
0000
0000
0000
0000
;
#NOTES:
     dance-single:
     :
     Hard:
     11:
     :
0000
0000
0000
0000
,
0000
0000
0000
0000
,
0000
0000
0000
0000
,
0000
0000
0000
0000
,
0000
0000
0000
0000
,
0000
1000
0000
0100
,
0000
0010
0000
0001
,
0000
1000
0000
0100
,
0110
0000
0000
0000
0000
0001
1001
0000
,
0000
1000
0100
1100
0000
1000
0010
1010
,
0000
1000
0001
1100
0000
1000
0100
1010
,
0000
1000
0010
1100
0000
1000
0001
1010
,
0000
1000
0100
0010
0011
0000
1100
0000
,
0000
0001
0010
0011
0000
0001
0100
0101
,
0000
0001
1000
0011
0000
0001
0010
0101
,
0000
0001
0100
0011
0000
0001
1000
0101
,
0000
0001
0010
0100
1100
0000
0011
0000
,
1000
0100
0100
0100
0000
0010
1010
0000
,
0001
0010
0010
0010
0000
0100
0101
0000
,
1000
0100
0100
0100
0000
0010
1010
0000
,
0001
0010
0100
1000
,
0011
0011
1100
1100
1001
0110
1001
0000
,
1010
1010
0101
0101
1001
0110
1001
0000
,
1000
0100
0010
0001
0100
0010
0100
0010
,
0001
0010
0100
1000
0001
0000
0000
0000
,
1000
0000
0100
0001
0010
0010
1100
0000
,
0001
0000
0010
1000
0100
0010
0101
0000
,
1000
0000
0100
0001
0010
0010
1100
0000
,
0100
0100
1000
0000
0010
0010
0001
1000
,
1000
0000
0000
0000
0010
0000
0001
0000
1000
0100
1000
0000
0011
0000
0000
0000
,
0001
0000
0000
0000
0100
0000
1000
0000
0001
0010
0100
0000
1010
0000
0000
0000
,
1000
0000
0000
0000
0100
0000
0001
0000
1000
0100
1000
0000
0011
0000
0000
0000
,
0100
0100
1000
0000
0010
0010
0001
1000
,
1000
0000
0100
0000
1000
0000
0000
0000
1000
0100
0010
0000
0101
0000
0001
0000
,
0001
0000
0010
0000
0001
0000
0000
0000
0001
0010
0100
0000
1010
0000
1000
0000
,
1000
0000
0100
0000
1000
0000
0000
0000
1000
0100
0010
0000
0101
0000
0001
0000
,
0100
0100
1000
0000
0010
0010
0001
1000
,
1000
0100
1000
0000
0010
0000
1000
0000
1000
0100
0010
0000
1001
0000
0001
0000
,
0001
0010
0001
0000
0100
0000
0001
0000
0001
0010
0001
0000
1001
0000
1000
0000
,
1000
0100
1000
0000
0010
0000
1000
0000
1000
0100
0010
0000
1001
0000
0000
0000
,
1000
0000
0000
0000
0001
0000
0000
0000
0010
0001
0100
0000
1000
0000
0001
0000
,
0000
2000
0000
0000
0000
0000
0100
0000
,
0100
0000
0000
3000
,
0000
0000
0000
0000
;
#NOTES:
     dance-single:
     :
     Challenge:
     12:
     :
0000
0000
0000
0000
,
0000
0000
0000
0000
,
0000
0000
0000
0000
,
0000
0000
0000
0000
,
0000
0000
0000
0000
,
2000
0100
0000
3100
,
0002
0100
0000
0103
,
2000
0100
0000
3100
,
0220
0000
0000
0000
0330
0010
1001
0000
,
0001
0010
0100
1100
1000
0010
0001
0010
,
1000
0010
0100
0101
0001
0010
1000
0010
,
0001
0010
0100
1100
1000
0010
0001
0010
,
1000
0001
0100
0010
1010
0000
0101
0000
,
0010
0000
1000
0000
0100
0000
0010
0100
1000
0000
0010
0000
1000
0000
1001
0000
,
0010
0000
0001
0000
0100
0000
0010
0100
0001
0000
0010
0000
0001
0000
1001
0000
,
0010
0000
1000
0000
0100
0000
1000
0001
0100
0000
0010
0000
1000
0000
0100
0000
,
0220
0000
0000
0000
0330
0100
1001
0000
,
0010
0010
0100
0010
0000
1000
0010
0000
,
0100
0100
0010
0100
0000
0001
0100
0000
,
0001
0001
0010
0001
0000
0100
0010
0000
,
1000
0010
0001
0100
,
0010
1000
0010
1000
0001
1000
0100
0000
0010
0000
0001
1000
0000
0000
0001
0000
,
0100
0010
0100
0010
1000
0100
0010
0000
0001
0000
0010
0100
0000
0000
0100
0000
,
1000
0100
0001
0100
1000
0100
0001
1000
,
0010
0001
1000
0010
0001
0010
1000
0000
,
0021
0000
0130
0000
1000
0100
0010
0000
0101
0000
0110
0000
1010
0000
0000
0000
,
0001
1000
0001
1000
0100
0010
0001
0000
1000
0001
1000
0001
0100
0010
1000
0000
,
1020
0000
0130
0000
0010
1000
0100
0000
0110
0000
1001
0000
0110
0000
0000
0000
,
0010
0000
1000
0000
0100
0001
0010
1000
,
1002
0000
0103
0000
0010
1000
0001
0000
0011
0000
0110
0000
1100
0000
0000
0000
,
0001
0100
0001
0100
0010
1000
0100
0000
0010
0100
0010
0100
1000
0001
0100
0000
,
0120
0000
1030
0000
0001
1000
0100
0000
0110
0000
1001
0000
0110
0000
0000
0000
,
1000
0000
0010
0000
0001
0100
1000
0010
,
1020
0000
0130
0000
0001
0001
0100
0000
0010
0010
0100
0000
0110
0000
0000
0000
,
0001
0100
1000
0100
0001
0100
1000
0000
0001
0010
1000
0010
0001
0010
1000
0000
,
0021
0000
0130
0000
1000
1000
0100
0000
0010
0010
0100
0000
0110
0000
0000
0000
,
0001
0000
0010
0000
1000
0100
0001
0010
,
0210
0000
1300
0000
0001
0001
1000
0000
0010
0010
1000
0000
1001
0000
0000
0000
,
1000
0100
0001
0100
1000
0100
0001
0000
1000
0010
0001
0010
1000
0010
0001
0000
,
0210
0000
0301
0000
1000
1000
0001
0000
0010
0010
0001
0000
1001
0000
0000
0000
,
1000
0000
0010
0000
0001
0100
1000
0010
,
0001
1000
0002
0000
0000
0000
1000
0000
,
2000
0000
0000
3003
,
0000
0000
0000
0000
;
#NOTES:
     dance-double:
     :
     Easy:
     5:
     :
00000000
00000000
00000000
00000000
,
00000000
00000000
00000000
00000000
,
00000000
00000000
00000000
00000000
,
00000000
00000000
00000000
00000000
,
00000000
00000000
00000000
00000000
,
00000000
10000000
00000000
00010000
,
00000000
00001000
00000000
00000001
,
00000000
00001000
00000000
00010000
,
00012000
00000000
00000000
00013000
,
00000000
00001000
00000100
00000001
,
00000000
00010000
01000000
10000000
,
00000000
00001000
00000100
00000001
,
00000000
00020000
00001000
00031000
,
00000000
00010000
00100000
10000000
,
00000000
00001000
00000010
00000001
,
00000000
00010000
00100000
10000000
,
00002000
00000000
00000000
00013000
,
00000000
00100000
00010000
01000000
,
00000000
00100000
10000000
01000000
,
00000000
00010000
00001000
00000100
,
00000000
00000001
00000010
00000100
,
00001000
00001000
00000001
00000100
,
00001000
00001000
00010000
01000000
,
10000000
01000000
00100000
00010000
,
20020000
00000000
00000000
30030000
,
00100000
00001000
00010000
00010000
,
00001000
00000100
00000001
00000010
,
00000001
00001000
00000001
00000001
,
00001000
00000000
00010000
00000000
,
00100000
00010000
01000000
01000000
,
00100000
10000000
01000000
00010000
,
00001000
00000100
00000001
00000001
,
00001000
00000000
00000001
00000000
,
00000010
00001000
00010000
00000010
,
00001000
00010000
01000000
01000000
,
00010000
00100000
01000000
10000000
,
00200000
00300000
02000000
03000000
,
00100000
00010000
00001000
00100000
,
00010000
00001000
00000100
00000100
,
00001000
00000010
00000100
00000001
,
00000110
00000000
00000100
00010000
,
00001000
00200000
00000000
00000000
,
00000000
00000000
00000000
00300000
,
00000000
00000000
00000000
00000000
;
#NOTES:
     dance-double:
     :
     Medium:
     7:
     :
00000000
00000000
00000000
00000000
,
00000000
00000000
00000000
00000000
,
00000000
00000000
00000000
00000000
,
00000000
00000000
00000000
00000000
,
00000000
00000000
00000000
00000000
,
00001000
00010000
01000000
10000000
,
00010000
00001000
00000100
00000001
,
00001000
00010000
00100000
10000000
,
02200000
00000000
03300000
10010000
,
00000000
01000000
01000000
01000000
00000000
00100000
00010000
01000000
,
00000000
00001000
00001000
00001000
00000000
00010000
00000010
00001000
,
00000000
00000100
00000100
00000100
00000000
00000010
00000001
00000100
,
00000000
00000010
00000010
00000010
00010000
00000000
00001000
00000000
,
00000000
00010000
00010000
00010000
00000000
01000000
10000000
00010000
,
00000000
01000000
01000000
01000000
00000000
00100000
10000000
01000000
,
00000000
00010000
00010000
00010000
00000000
00001000
00010000
00001000
,
00000100
00000000
00000010
00001001
,
00000010
00000001
00000100
00000000
00000000
00000010
00001000
00000000
,
00010000
01000000
00100000
00000000
00000000
01000000
00010000
00000000
,
10000000
01000000
00010000
00000000
00000000
01000000
10000000
00000000
,
00100000
00010000
00001000
00000100
,
00000010
00000000
00010000
00000010
00000100
00000010
00010000
00000000
,
00001000
00000000
00100000
00010000
00100000
01000000
00100000
00000000
,
00010000
00001000
00000100
00000000
00000010
00000100
00001000
00000000
,
00001020
00000000
00000000
00000130
,
00000001
00000000
00000010
00000000
00000100
00001000
00000010
00000000
,
00000100
00000010
00010000
00000000
00001000
00100000
00010000
00000000
,
10000000
00000000
00010000
00000000
01000000
00100000
10000000
00000000
,
01000000
00010000
00001000
00000100
,
00000001
00000000
00000010
00000000
00000100
00001000
00000100
00000000
,
00000010
00001000
00010000
00000000
00000010
00001000
00010000
00000000
,
01000000
00000000
00100000
00000000
10000000
01000000
10000000
00000000
,
00100000
00010000
00001000
00000010
,
00000001
00000000
00001000
00000100
00000010
00000100
00001000
00000000
,
00000010
00001000
00000010
00001000
00010000
00001000
00010000
00000000
,
01000000
00000000
00100000
10000000
00010000
10000000
01000000
00000000
,
10000000
00010000
00001000
00000001
,
00000010
00000000
00000001
00000100
00001000
00000100
00000001
00000000
,
00000010
00000001
00001000
00000100
00010000
00001000
00010000
00000000
,
00001000
00000000
00010000
01000000
10000000
00010000
10000000
00000000
,
01100000
00000000
00000000
00000000
00100000
00010000
00001000
00000100
,
00000000
00000020
00000000
00000000
00000000
00000000
00000100
00000000
,
00000200
00000000
00000000
00000330
,
00000000
00000000
00000000
00000000
;
#NOTES:
     dance-double:
     :
     Hard:
     11:
     :
00000000
00000000
00000000
00000000
,
00000000
00000000
00000000
00000000
,
00000000
00000000
00000000
00000000
,
00000000
00000000
00000000
00000000
,
00000000
00000000
00000000
00000000
,
00000000
00100000
10000000
00010000
00000000
00100000
00010000
01000000
,
00000000
00001000
00010000
00000100
00000000
00000010
00000001
00000100
,
00000000
00000010
00000100
00000001
00000000
00000010
00001000
00010000
,
00011000
00000000
00000000
01100000
,
01000000
10000000
00100000
00010000
00100000
10000000
01000000
00010000
,
00001000
00000010
00001000
00010000
00001000
00000100
00000001
00000010
,
00001000
00000010
00000001
00000100
00001000
00000001
00000010
00001000
,
00010000
01000000
10000000
01000000
01010000
00000000
11000000
00000000
,
00010000
00100000
00010000
10000000
00010000
01000000
00010000
00001000
,
00000010
00001000
00000001
00001000
00000100
00001000
00010000
00100000
,
00001000
00010000
00100000
00010000
00001000
00010000
00100000
10000000
,
10010000
00000000
00010000
00001000
,
00010000
00001000
00000010
00000002
00000000
00000013
00001000
00000000
,
00001000
00010000
00100000
20000000
00000000
30100000
00010000
00000000
,
00010000
00001000
00000100
00000002
00000000
00000103
00001000
00000000
,
00010000
00100000
10000000
01000000
,
00100000
00000000
01000000
00000000
00010000
00001000
00010000
00000000
00000010
00000000
00000100
00000000
00000010
00000000
00000000
00000000
,
00001000
00000000
00000001
00000000
00000010
00000100
00000010
00000000
00001000
00000000
00010000
00000000
00001000
00000000
00000000
00000000
,
00100000
00010000
00001000
00010000
00100000
00001000
01000000
00100000
,
10200000
00000000
00000000
01300000
,
00001000
00000000
00100000
00000000
01000000
00100000
01000000
00000000
00100000
00000000
00001000
00000000
00010000
00000000
00000000
00000000
,
00000010
00001000
00010000
00001000
00000010
00000100
00000001
00000000
,
00001000
00000000
00000100
00000000
00010000
00001000
00010000
00000000
00001000
00000000
00100000
00000000
00010000
00000000
00000000
00000000
,
20000000
30200000
00320000
02030000
,
13000000
00000000
01000000
00000000
00100000
01000000
00100000
00000000
00010000
00000000
00001000
00000000
00000100
00000000
00000000
00000000
,
00000001
00001000
00010000
00001000
00000001
00001000
00010000
00000000
,
00100000
00000000
00010000
00000000
00001000
00010000
00001000
00000000
00000010
00000000
00000001
00000000
00001000
00000000
00000000
00000000
,
00000100
00001000
00010000
00100000
,
10000000
00000000
01000000
00000000
00100000
01000000
00100000
00000000
00110000
00000000
00011000
00000000
00001100
00000000
00000000
00000000
,
00000010
00001000
00010000
00001000
00000010
00001000
00010000
00001000
,
00000100
00000000
00000001
00000000
00001000
00000001
00001000
00000000
00001010
00000000
00011000
00000000
01010000
00000000
00000000
00000000
,
00200000
00320000
02030000
23000000
,
30010000
00000000
00100000
00000000
01000000
10000000
00010000
00000000
01010000
00000000
00011000
00000000
00001010
00000000
00000000
00000000
,
00010000
00001000
00000001
00001000
00010000
00001000
00000001
00000000
,
00000010
00000000
00001000
00000000
00000100
00000010
00000001
00000000
00001100
00000000
00011000
00000000
01010000
00000000
00000000
00000000
,
10000000
00000000
00000000
00000000
00000000
00000000
00000000
00000000
01000000
00100000
00010000
00000000
00001000
00000000
00000100
00000000
,
00000000
00000010
00000002
00000000
00000000
00000000
00000100
00000000
,
00000200
00000000
00000000
00000303
,
00000000
00000000
00000000
00000000
;
#NOTES:
     dance-double:
     :
     Challenge:
     12:
     :
00000000
00000000
00000000
00000000
,
00000000
00000000
00000000
00000000
,
00000000
00000000
00000000
00000000
,
00000000
00000000
00000000
00000000
,
00000000
00000000
00000000
00000000
,
00000000
00000002
00000000
00002003
,
00000000
00023000
00000000
20030000
,
00000000
30020000
00000000
00031000
,
00002002
00000000
00003003
00000110
,
00000000
00000001
00000100
00020000
00000000
00031000
00100000
10000000
,
00000000
10000000
01000000
00002000
00000000
00013000
00000010
00000001
,
00000000
00000001
00000100
00020000
00000000
00031000
00100000
10000000
,
00000000
10000000
01000000
00001000
00010000
00000000
00110000
00000000
,
00000000
00010000
01000000
20000000
00000000
30010000
00001000
00000200
,
00000000
00010300
00001000
00000020
00000000
00010030
00001000
00000010
,
00000000
00001000
00000100
00000002
00000000
00001003
00010000
02000000
,
00000000
03001000
00010000
00100000
00001000
00000000
00010000
00000000
,
00000010
00000000
00100000
00000000
00000000
00100000
00000010
00000000
,
00000001
00000000
00010000
00000000
00000000
00010000
00000001
00000000
,
00000100
00000000
01000000
00000000
00000000
01000000
00000100
00000000
,
00001000
00001000
10000000
10000000
,
00100000
10000000
00010000
01000000
00001000
00010000
00000100
00000000
00000010
00000000
00000100
00000000
00001000
00000000
00000000
00000000
,
00000010
00000001
00001000
00000100
00010000
00001000
01000000
00000000
00100000
00000000
01000000
00000000
00010000
00000000
00000000
00000000
,
10000000
01000000
00010000
01000000
10000000
00100000
00010000
00001000
,
00000020
00000000
00000000
00000130
,
00000010
00001000
00100000
00001000
00010000
00100000
10000000
00000000
,
10000000
01000000
10000000
01000000
00010000
00000000
00001000
00000000
00000100
00000001
00000100
00000001
00000010
00000000
00000100
00000000
,
00000010
00001000
00100000
00001000
00010000
00100000
10000000
00000000
,
10020000
00031000
00002001
00013000
,
10000000
01000000
00001000
00010000
00001000
01000000
10000000
00000000
,
00010000
01000000
00010000
01000000
00100000
00000000
00010000
00000000
00001000
00000100
00001000
00000100
00000001
00000000
00000010
00000000
,
00000001
00000100
00010000
00001000
00010000
00000100
00000001
00000000
,
00002001
00013000
10020000
00031000
,
00000100
00001000
00000010
00001000
00100000
00001000
00000010
00000000
,
00010000
00001000
00100000
00010000
01000000
00000000
00100000
00000000
10000000
01000000
00100000
00001000
00010000
00000000
00000010
00000000
,
00000100
00001000
01000000
00001000
00100000
00001000
00010000
00000000
,
00012000
00003001
00021000
10030000
,
00010000
01000000
10000000
00100000
00010000
00000010
00001000
00000000
,
00000001
00000010
00000100
00001000
00000010
00000000
00000100
00000000
00000010
00010000
00001000
00100000
00010000
00000000
10000000
00000000
,
00100000
00010000
00000010
00010000
00000100
00010000
01000000
00010000
,
00012000
00003001
00021000
10030000
,
01100000
00000000
00000000
20000000
,
00020000
00000000
00000000
30030000
,
00000000
00000000
00000000
00000000
;
