
//----- song id: kaiy
#TITLE:ザッツ!KAIYODO;
#ARTIST:はちきんガールズ 【高知】;
#TITLETRANSLIT:That's! KAIYODO;
#ARTISTTRANSLIT:Hachikin Girls [Kochi];
#BANNER:That's! KAIYODO.png;
#BACKGROUND:That's! KAIYODO-bg.png;
#CDTITLE:./CDTitles/DDR (2014).png;
#MUSIC:That's! KAIYODO.ogg;
#SAMPLESTART:75.705;
#SAMPLELENGTH:15;
#DISPLAYBPM:149;
#BPMS:0=149;
#NOTES:
     dance-single:
     :
     Beginner:
     2:
     :
0000
0000
0000
0000
,
0000
0000
0000
0000
,
0000
0000
0000
0000
,
0000
0000
0000
0000
,
0000
0000
0000
0000
,
1000
0000
0000
0000
,
1000
0000
0000
0000
,
0001
0000
0000
0000
,
0001
0000
0000
0000
,
1000
0000
0001
0000
,
1000
0000
0001
0000
,
1000
0000
0001
0000
,
1000
0000
0001
0000
,
0001
0000
0000
0000
,
1000
0000
0000
0000
,
1001
0000
1001
0000
,
0000
0100
0100
0000
,
0000
0100
0100
0000
,
0001
0000
0100
0000
,
0001
0000
1000
0000
,
0001
0000
0000
0000
,
0100
0000
0000
0000
,
0010
0000
0000
0000
,
1000
0000
0000
0000
,
0001
0000
0001
0000
,
1000
0000
1000
0000
,
0001
0001
0000
0000
,
1000
0000
1000
0000
,
1001
0000
0000
0000
,
1000
0000
1000
0000
,
0001
0000
0001
0000
,
1000
0000
0001
0000
,
1000
1000
1000
0000
,
1000
0000
0000
0000
,
0001
0000
0000
0000
,
2002
0000
3003
0000
,
0001
0001
0001
0000
,
1001
0000
0000
0000
,
0000
0010
0010
0000
,
0001
0000
0001
0000
,
1000
0000
1000
0000
,
0001
0000
0000
0001
,
0001
0000
0001
0000
,
1000
0000
1000
0000
,
0001
0000
0001
0000
,
1000
0000
0001
0000
,
0100
0100
0100
0000
,
0001
0000
0010
0000
,
0100
0000
1000
0000
,
1000
0000
0100
0000
,
0010
0000
0001
0000
,
1000
0000
0010
0000
,
0100
0000
0001
0000
,
0001
0000
0100
0000
,
0010
0000
1000
0000
,
0001
0000
1000
0000
,
0001
0000
1000
0000
,
0002
0000
0003
0000
,
0001
0000
1000
0000
,
2002
0000
3003
0000
,
1000
0000
0001
0000
,
2002
0000
3003
0000
,
1001
0000
0000
0000
,
0000
0000
0000
0000
;
#NOTES:
     dance-single:
     :
     Easy:
     5:
     :
0000
0000
0000
0000
,
0000
0000
0000
0000
,
0000
0000
0000
0000
,
0000
0000
0000
0000
,
0000
0000
0000
0000
,
0010
1000
0100
0000
,
0010
0001
0000
0000
,
0010
0001
0100
0000
,
0010
1000
0000
0000
,
0001
0001
1000
1000
,
0001
0001
1000
1000
,
0001
0001
0010
0010
,
0001
0001
0100
0100
,
0001
0010
0100
0000
,
1000
0100
0010
0000
,
0110
0000
1001
0000
,
0000
0001
1000
0020
,
0000
0030
0010
0000
,
0001
0100
0100
0000
,
1000
0100
0100
0000
,
0001
0100
0001
0000
,
0010
1000
0010
0000
,
0001
0001
1000
1000
,
0001
0001
1001
0000
,
1000
0010
0100
0001
,
1000
0100
0010
0001
,
1000
2002
0000
3003
,
1000
1000
0001
0000
,
0010
0000
0000
0020
0000
0000
0030
0000
,
0001
0001
1000
0001
,
1000
1000
0001
1000
,
2000
0000
0000
3000
,
0002
0000
0000
0003
,
0001
0100
0010
0010
,
0000
1000
0001
0000
,
0001
0002
0000
0003
,
0001
0001
1000
0000
,
0010
0000
0000
0020
0000
0000
0030
0000
,
1000
1000
0001
0010
,
0001
0100
0001
0000
,
1000
0010
1000
0000
,
1001
0000
0000
1001
,
1001
0000
0100
0100
,
0002
0000
0000
0003
,
2000
0000
0000
3000
,
0001
0000
1000
0000
,
0001
1000
0001
0000
,
0001
0010
0001
0000
,
1000
0100
1000
0000
,
0010
1000
0001
0100
,
0001
1000
0001
1000
,
0001
0100
0001
0000
,
1000
0010
1000
0000
,
0100
1000
0001
0010
,
0001
1000
0001
0000
,
0001
0000
1000
0000
,
0001
0000
1000
0000
,
2002
0000
0000
3003
,
1000
0000
0001
0000
,
2002
0000
0000
3003
,
0001
0000
1000
0000
,
2002
0000
0000
3003
,
1001
0000
0000
0000
,
0000
0000
0000
0000
;
#NOTES:
     dance-single:
     :
     Medium:
     7:
     :
0000
0000
0000
0000
,
0000
0000
0000
0000
,
0000
0000
0000
0000
,
0000
0000
0000
0000
,
0000
0000
0000
0000
,
0010
0000
1000
0000
1000
0100
0000
0000
,
0001
0100
0001
0100
0000
0000
0000
0000
,
0010
0000
0001
0000
0001
0100
0000
0000
,
1000
0100
1000
0100
0000
0000
0000
0000
,
0101
0001
1000
1000
,
0101
0001
1000
1000
,
0011
0001
1000
1000
,
0011
0001
1000
1000
,
0001
0100
0010
1000
,
0001
0010
0100
1000
,
0110
0000
1001
0000
,
0000
0001
0100
0001
0100
0000
0020
0000
,
0000
0130
0010
0101
,
0001
0100
0001
1000
,
0010
1000
0100
1000
,
0001
0100
0001
0000
0100
0000
0100
0000
,
0010
1000
0010
0000
1000
0000
1000
0000
,
0001
0100
0010
1000
,
0001
0010
0001
0100
0001
0000
1001
0000
,
0010
0100
0001
1000
,
0001
0100
0001
0000
0001
0010
0001
0000
,
1001
2002
0000
3003
,
1000
0001
1000
0000
0001
1000
0001
0000
,
0010
0010
0000
0020
0000
0000
0030
0000
,
1001
0001
1000
1000
,
0110
0000
0100
0000
0001
1000
0001
0000
,
2002
0000
0000
3003
,
0001
0100
0001
0000
1000
0100
1000
0000
,
0001
0010
1000
0100
,
0000
1000
0100
1000
0010
1000
0000
0000
,
1001
2002
0000
3003
,
0001
0100
0001
0000
1000
0100
1000
0000
,
0010
0010
0000
0020
0000
0000
0030
0000
,
1000
0010
0100
0001
,
0001
0100
0010
0000
1000
0010
0100
0000
,
0010
0010
1001
0000
,
0110
0000
0000
0110
,
1001
0000
0010
0010
,
1001
0000
0000
0000
0000
1000
0000
1000
,
0001
0000
0000
0000
0000
0001
0000
0001
,
1000
0000
1100
0000
,
1001
0110
1001
0000
,
0001
0010
0001
0000
0010
0000
0010
0000
,
1000
0100
1000
0000
0100
0000
0100
0000
,
0010
0001
1000
0000
0001
0000
0100
0000
,
0001
0100
1000
0000
0100
0000
1000
0000
,
0100
0010
1000
0000
0001
0010
0100
0000
,
1000
0100
1000
0010
,
0100
0010
0100
0000
0001
0000
0010
0000
,
0101
0101
1001
0000
,
1001
0000
0110
0000
,
1001
0000
0100
0100
,
2002
0000
0000
3003
,
1001
0000
0000
0001
1000
0000
0000
0000
,
2002
0000
0000
3003
,
1001
0000
0000
1000
0001
0000
0000
0000
,
0220
0000
0000
0330
,
1001
0000
0000
0000
,
0000
0000
0000
0000
;
#NOTES:
     dance-single:
     :
     Hard:
     11:
     :
0000
0000
0000
0000
,
0000
0000
0000
0000
,
0000
0000
0000
0000
,
0000
0000
0000
0000
,
0000
0000
0000
0000
,
0001
0000
1000
0000
0010
0100
0000
0000
,
0010
0100
0010
2000
0000
0000
3000
0000
,
1000
0000
0001
0000
0010
0100
0000
0000
,
0010
0100
0010
0002
0000
0000
0003
0000
,
0011
0001
1010
1000
,
0000
1000
0010
1000
0010
0000
1001
0000
,
0011
0001
1010
1000
,
0000
0001
0010
0001
1000
0000
0001
0000
,
0001
0010
0100
0000
1000
0000
1000
0000
,
1000
0100
0010
0000
0001
0000
0001
0000
,
0220
0330
2002
3003
,
0000
0010
0001
0100
0001
0000
0010
0000
,
0000
0010
0000
0010
0001
0000
0011
0000
,
1000
0100
1000
0000
0001
0010
0001
0000
,
1000
0010
1000
0000
0001
0100
0001
0000
,
1000
0000
0010
0000
1000
0100
1000
0010
,
1000
0000
0100
0000
0010
0010
0000
0000
,
0001
0000
0000
0001
1000
0000
1000
0000
0001
0000
0001
0000
1000
0000
1000
0000
,
0001
0010
0100
1000
0100
0000
1001
0000
,
0000
0010
0010
1000
0000
0100
0100
1000
,
0000
0001
0100
0001
0010
0001
1000
1000
,
1100
0202
0000
0303
,
0001
0001
0001
1000
0001
1000
0001
1000
,
0100
0100
0000
0200
0000
0000
0300
0000
,
1000
0000
0000
1000
0001
0000
0001
0000
1000
0000
1000
0000
0001
0000
0001
0000
,
1000
0100
0010
0001
0000
0001
0100
0001
,
0100
0000
0100
0000
0100
0001
0100
0001
,
1000
0000
0100
0010
0000
0000
0011
0000
,
0100
0010
1000
0000
0001
0100
0010
0000
,
0100
0010
1000
0001
1000
0020
0000
0000
,
1000
2000
0000
3030
,
1000
1000
1000
0001
1000
0001
1000
0001
,
0010
0010
0000
0010
0000
0000
1001
0000
,
0000
0010
0001
0100
0001
0010
0001
0100
,
0001
0000
0001
0100
0000
0100
0100
0001
,
1000
0000
0100
0010
0001
0000
0010
0000
,
1001
0000
0000
1010
,
0011
0000
0000
0000
0000
0001
0010
0001
,
1000
0000
0001
0001
1000
0010
0000
0010
,
1000
0000
1000
1000
0001
0010
0000
0010
,
0001
0100
0001
0000
1000
0010
1000
0100
,
1100
0101
1001
0000
,
0010
0100
0001
0000
0100
0010
1000
0100
,
1000
0010
0100
0001
,
0001
0000
0000
0001
0010
0000
0010
0000
0100
0000
0100
0000
1000
0000
0000
0000
,
1000
0000
0000
1000
0010
0000
0010
0000
0100
0000
0001
0000
0001
0000
0000
0000
,
0100
0010
1000
0000
0010
0100
0001
1000
,
0001
0000
0000
0001
1000
0000
0010
0000
0100
0000
0000
0000
0110
0000
0000
0000
,
0010
0000
0000
0010
1000
0000
1000
0000
0001
0000
0001
0000
0100
0000
0000
0000
,
1010
0101
0110
1001
,
1000
0000
0000
1000
0001
0000
0000
0000
0001
0000
0000
0001
1000
0000
0000
0000
,
1000
0000
0000
0010
0100
0000
0100
0000
0001
0000
0000
0000
0010
0000
0000
0000
,
0000
1010
0000
0100
0010
0000
0010
1000
,
0001
0000
0000
0001
0001
0000
0000
1000
,
1000
0100
0000
0010
0000
0001
0000
1000
,
1000
0000
0000
0001
0001
0000
0000
1000
,
1000
0000
0000
0000
0000
0000
1000
0000
0100
0000
1000
0000
0001
0100
0001
0100
,
0001
0000
0000
0000
,
0000
0000
0000
0000
;
#NOTES:
     dance-double:
     :
     Easy:
     5:
     :
00000000
00000000
00000000
00000000
,
00000000
00000000
00000000
00000000
,
00000000
00000000
00000000
00000000
,
00000000
00000000
00000000
00000000
,
00000000
00000000
00000000
00000000
,
00001000
00001000
00010000
00000000
,
00001000
00010000
00000000
00000000
,
00010000
00010000
01000000
00000000
,
01000000
00010000
00000000
00000000
,
00010000
00010000
00001000
00000000
,
00000100
00000100
00001000
00000000
,
00000100
00000100
00000001
00000000
,
00000010
00000010
00000001
00000000
,
00000001
00000100
00001000
00000000
,
00001000
00010000
00010000
00000000
,
00011000
00000000
00011000
00000000
,
00010000
00010000
01000000
00200000
,
00000000
00301000
00010000
00000000
,
00001000
00010000
01000000
00000000
,
10000000
01000000
00100000
00000000
,
00001000
00001000
00010000
00000000
,
00001000
00001000
00100000
00000000
,
00001000
00001000
00010000
00001000
,
00001000
00000010
00000001
00000000
,
00000000
00000100
00000100
00001000
,
00001000
00100000
00100000
00001000
,
00010000
00022000
00000000
00033000
,
00010000
01000000
01000000
10000000
,
10000000
00100000
00000000
00200000
00000000
00000000
00300000
00000000
,
10000000
10000000
00100000
01000000
,
01000000
00001000
00010000
00001000
,
00002000
00000000
00003000
00010000
,
00010000
00001000
00000100
00001000
,
00001000
00000100
00000100
00000001
,
00000000
00000001
00001000
00000000
,
00000010
00000020
00000000
00000030
,
00001000
00001000
00000000
00000000
,
00000001
00000010
00000000
00000020
00000000
00000000
00000030
00000000
,
00000100
00000100
00010000
00001000
,
00010000
00010000
01000000
00000000
,
10000000
00100000
00010000
00000000
,
00011000
00000000
00000000
00011000
,
00011000
00000000
00010000
00001000
,
00020000
00000000
00000000
00030000
,
00002000
00000000
00000000
00003000
,
00010000
00001000
00000100
00001000
,
00010000
00011000
00011000
00000000
,
00010000
00001000
00000100
00000000
,
00001000
00010000
00100000
00000000
,
00100000
00010000
00010000
00001000
,
00001000
00000100
00000001
00000100
,
00001000
00010000
00100000
00000000
,
00010000
00001000
00000100
00000000
,
00000100
00000010
00010000
00001000
,
00010000
00011000
00011000
00000000
,
00010000
00001000
01000000
00001000
,
00010000
00010000
00000100
00010000
,
00022000
00000000
00000000
00033000
,
00000010
00000000
00010000
00000000
,
00022000
00000000
00000000
00033000
,
00100000
00000000
00001000
00000000
,
00022000
00000000
00000000
00033000
,
00011000
00000000
00000000
00000000
,
00000000
00000000
00000000
00000000
;
#NOTES:
     dance-double:
     :
     Medium:
     8:
     :
00000000
00000000
00000000
00000000
,
00000000
00000000
00000000
00000000
,
00000000
00000000
00000000
00000000
,
00000000
00000000
00000000
00000000
,
00000000
00000000
00000000
00000000
,
00010000
00000000
00010000
00000000
00001000
00001000
00000000
00000000
,
00001000
00000100
00001000
00000100
00000000
00000000
00000000
00000000
,
00000010
00000000
00000100
00000000
00001000
00001000
00000000
00000000
,
00010000
01000000
00010000
01000000
00000000
00000000
00000000
00000000
,
10000000
00100000
00010000
00001000
,
00000100
00000010
00010000
00000100
,
00000010
00001000
00010000
00100000
,
01000000
00010000
10000000
00100000
,
10000000
01000000
00010000
00000000
00001000
00000000
00010000
00000000
,
00001000
00000100
00000001
00000000
00001000
00000000
00000100
00000000
,
00011000
00000000
00011000
00000000
,
00001000
00010000
01000000
10000000
10000000
00000000
00200000
00000000
,
00000000
01300000
00100000
00010000
,
00010000
00001000
00000100
00010000
,
00001000
00000100
00000010
00000100
,
00010000
00001000
00100000
00000000
00010000
00000000
00010000
00000000
,
01000000
00100000
00010000
00000000
00100000
00000000
01000000
00000000
,
00010000
00100000
00001000
00000100
,
00000010
00000100
00001000
00010000
00000010
00000100
00001000
00000000
,
00000100
00001000
00010000
01000000
,
10000000
01000000
10000000
00000000
00010000
00100000
00010000
00000000
,
00001000
00022000
00000000
00033000
,
00010000
00001000
00000100
00000000
00000010
00001000
00000100
00000000
,
00001000
00001000
00000000
00002000
00000000
00000000
00003000
00000000
,
00001000
00000100
00000010
00001000
,
00010000
00000000
00001000
00000000
00010000
00001000
00000100
00000000
,
00000002
00000000
00000000
00000003
,
00000100
00000010
00001000
00000000
00000010
00010000
00000100
00000000
,
00010000
00010000
01000000
10000000
,
00000000
00100000
01000000
00100000
10000000
00100000
01000000
00000000
,
10010000
20020000
00000000
30030000
,
10000000
01000000
00010000
00000000
01000000
00010000
00001000
00000000
,
00010000
00010000
00000000
00020000
00000000
00000000
00030000
00000000
,
00000100
00001000
00000010
00000010
,
00000010
00001000
00000100
00000000
00010000
00001000
00010000
00000000
,
01000000
00100000
01010000
00000000
,
00011000
00000000
00000000
00011000
,
00001100
00000000
00000001
00000100
,
00000011
00000000
00000000
00000000
00000000
00000100
00000000
00000100
,
00001000
00000000
00000000
00000000
00000000
00001000
00000000
00001000
,
00010000
00001000
00010000
00001000
,
00010000
01100000
10010000
00000000
,
10000000
01000000
00010000
00000000
00001000
00000000
00010000
00000000
,
00001000
00000100
00000001
00000000
00001000
00000000
00000001
00000000
,
00001000
00000010
00000100
00000000
00001000
00000000
00010000
00000000
,
00010000
01000000
00100000
00000000
00010000
00000000
10000000
00000000
,
10000000
00100000
00010000
00000000
00001000
00000000
00010000
00000000
,
00001000
00000010
00000001
00000000
00001000
00000000
00000001
00000000
,
00000010
00000100
00001000
00000000
00000100
00000000
00010000
00000000
,
00011000
01000000
10000000
00000000
,
10000000
00100000
00010000
00000100
,
00000010
00001000
00010000
00000100
,
00022000
00000000
00000000
00033000
,
00011000
00000000
00000000
00010000
00001000
00000000
00000000
00000000
,
00022000
00000000
00000000
00033000
,
00011000
00000000
00000000
00001000
00010000
00000000
00000000
00000000
,
00022000
00000000
00000000
00033000
,
00011000
00000000
00000000
00000000
,
00000000
00000000
00000000
00000000
;
#NOTES:
     dance-double:
     :
     Hard:
     11:
     :
00000000
00000000
00000000
00000000
,
00000000
00000000
00000000
00000000
,
00000000
00000000
00000000
00000000
,
00000000
00000000
00000000
00000000
,
00000000
00000000
00000000
00000000
00000000
00000000
00000000
00000000
00000000
00000000
00000000
00000000
00001000
00010000
00001000
00010000
,
00001000
00000000
00000100
00000000
00000001
00000010
00000000
00000000
,
00001000
00010000
01000000
20000000
00000000
00000000
30000000
00000000
,
00100000
00000000
00010000
00000000
00001000
00000100
00000000
00000000
,
00000001
00000010
00001000
00020000
00000000
00000000
00030000
00000000
,
00101000
00001000
00010010
00010000
,
00000000
00000010
00010000
00001000
00010000
00000000
00011000
00000000
,
00101000
00001000
00010010
00010000
,
00000000
00000010
00010000
00001000
00010000
00000000
00011000
00000000
,
00010000
01000000
10000000
00000000
10000000
00000000
00100000
00000000
,
00010000
00001000
00010000
00000000
00001000
00000000
00010000
00000000
,
00101000
00000000
00010010
00000000
,
00000000
00000010
00010000
00001000
00010000
00100000
01000000
00010000
,
00000000
00100000
00001000
00010000
00001000
00000000
00011000
00000000
,
00010000
00100000
01000000
00000000
00010000
00100000
01000000
00000000
,
00010000
00001000
00000100
00000000
00000010
00001000
00000100
00000000
,
00011000
00000000
00010000
00000000
00010000
00000100
00010000
00001000
,
00010000
00000000
00001000
00000000
00000100
00000001
00000000
00000000
,
00000001
00000000
00000000
00000001
00000100
00000000
00000100
00000000
00001000
00000000
00001000
00000000
00010000
00000000
00010000
00000000
,
01000000
10000000
00100000
10000000
00100000
00000000
01100000
00000000
,
00000000
00100000
00100000
00010000
00000000
00001000
00001000
00000100
,
00000000
00000001
00000100
00001000
00010000
00001000
00100000
00001000
,
00101000
00022000
00000000
00033000
,
00001000
00001000
00001000
00010000
00001000
00010000
00000100
00010000
,
00001000
00001000
00000000
00002000
00000000
00000000
00003000
00000000
,
00010000
00000000
00000000
00010000
01000000
00000000
01000000
00000000
10000000
00000000
10000000
00000000
00100000
00000000
00100000
00000000
,
00010000
00001000
00000100
00000001
00000000
00001000
00000100
00001000
,
00000100
00000000
00000100
00000000
00000100
00010000
00001000
00010000
,
01000000
00000000
10000000
00100000
00000000
00000000
10100000
00000000
,
01000000
00100000
00010000
00000000
00001000
00000100
00000010
00000000
,
00001000
00000100
00001000
00000010
00010000
00002000
00000000
00000000
,
00010000
00020000
00000000
00033000
,
00010000
00010000
00010000
00001000
00010000
00000100
00010000
00001000
,
00010000
00010000
00000000
00020000
00000000
00000000
00030000
00000000
,
00000000
00010000
00100000
10000000
01000000
00010000
00001000
00000100
,
00000001
00000000
00001000
00000001
00000000
00000100
00000100
00001000
,
00010000
00000000
01000000
00100000
00010000
00000000
00100000
00000000
,
00101000
00000000
00000000
00011000
,
00010010
00000000
00000000
00000000
00000000
00010000
00001000
00010000
,
00001000
00000000
00000100
00000100
00000001
00000010
00000000
00000010
,
00001000
00000000
00010000
00010000
01000000
10000000
00000000
10000000
,
00010000
01000000
00010000
00000000
00100000
00001000
00100000
00001000
,
00101000
00011000
00010010
00000000
,
00000010
00001000
00000100
00000000
00000010
00000001
00000100
00001000
,
00010000
01000000
10000000
00010000
,
10000000
00000000
00000000
10000000
00100000
00000000
00100000
00000000
00010000
00000000
00010000
00000000
00001000
00000000
00000000
00000000
,
00001000
00000000
00000000
00001000
00000100
00000000
00000100
00000000
00000001
00000000
00000010
00000000
00000010
00000000
00000000
00000000
,
00000001
00000100
00001000
00000000
00010000
01000000
10000000
00000000
,
00010000
00000000
00000000
00010000
00100000
00000000
00001000
00000000
00010000
00000000
00000000
00000000
00011000
00000000
00000000
00000000
,
00001000
00000000
00000000
00001000
00000100
00000000
00000100
00000000
00000001
00000000
00000001
00000000
00000010
00000000
00000000
00000000
,
00001100
00011000
00110000
10010000
,
10000000
00000000
00000000
10000000
00100000
00000000
00000000
00000000
00010000
00000000
00000000
00010000
00000100
00000000
00000000
00000000
,
00001000
00000000
00000000
00001000
00000010
00000000
00000010
00000000
00010000
00000000
00000000
00000000
00001000
00000000
00000000
00000000
,
00000000
00011000
00000000
00010000
01000000
00000000
10000000
10000000
,
10000000
00000000
00000000
00100000
00100000
00000000
00000000
00010000
,
00010000
00001000
00000000
00000100
00000000
00000001
00000000
00000001
,
00000001
00000000
00000000
00000010
00000010
00000000
00000000
00001000
,
00001000
00000000
00000000
00000000
00000000
00000000
00010000
00000000
00010000
00000000
00001000
00000000
00010000
00001000
00010000
00001000
,
00010000
00000000
00000000
00000000
,
00000000
00000000
00000000
00000000
;
