
//----- song ID: xmas -----//
#TITLE:Thank You Merry Christmas;
#ARTIST:VENUS;
#BANNER:Thank You Merry Christmas.png;
#BACKGROUND:Thank You Merry Christmas-bg.png;
#CDTITLE:./CDTitles/DDR (2014).png;
#MUSIC:Thank You Merry Christmas.ogg;
#SAMPLESTART:65.455;
#SAMPLELENGTH:15;
#BPMS:0=220;
#BGSTAGE:2;
#NOTES:
     dance-single:
     :
     Beginner:
     3:
     :
0000
0000
0000
0000
,
0000
0000
0000
0000
,
0000
0000
0000
0000
,
0000
0000
0000
0000
,
0000
0000
0000
0000
,
0000
0000
0000
0000
,
0000
0000
0000
0000
,
0000
0000
0000
0000
,
0000
0000
0000
0000
,
0000
0000
0000
0000
,
0000
0000
0000
0000
,
0000
0000
0000
0000
,
0000
0000
0000
0000
,
0000
0000
0000
0000
,
0000
0000
0001
0000
,
0000
0000
0000
0000
,
0000
0000
1000
0000
,
0000
0000
0000
0000
,
0000
0000
0001
0000
,
0000
0000
0000
0000
,
0000
0000
1000
0000
,
0001
0000
0000
0000
,
0001
0000
0001
0000
,
1000
0000
0000
0000
,
1000
0000
1000
0000
,
0010
0000
0000
0000
,
0010
0000
0010
0000
,
0100
0000
0000
0000
,
0100
0000
0100
0000
,
0001
0000
0000
0000
,
0000
0000
0000
0000
,
1000
0000
0100
0000
,
0010
0000
0001
0000
,
1000
0000
0000
0000
,
0001
0000
0000
0000
,
1000
0000
0001
0000
,
1000
0000
0001
0000
,
1000
0000
0000
0000
,
0010
0000
0000
0000
,
0001
0000
0001
0000
,
0001
0000
0000
0000
,
0001
0000
0000
0000
,
0010
0000
0000
0000
,
1000
0000
1000
0000
,
1000
0000
0000
0000
,
1001
0000
0000
0000
,
1001
0000
0000
0000
,
1001
0000
0000
0000
,
1001
0000
0000
0000
,
0001
0000
0000
0000
,
0010
0000
0000
0000
,
0100
0000
0000
0000
,
1000
0000
0000
0000
,
0001
0000
0000
0000
,
0100
0000
0000
0000
,
1000
0000
0000
0000
,
0100
0000
0000
0000
,
0001
0000
0001
0000
,
1000
0000
1000
0000
,
0001
0000
1000
0000
,
0001
0000
0000
0000
,
0010
0000
0000
0000
,
0001
0000
1000
0000
,
0010
0000
0000
0000
,
1000
0000
0001
0000
,
0010
0000
0000
0000
,
0001
0000
1000
0000
,
0010
0000
0000
0000
,
1000
0000
0001
0000
,
0010
0000
0000
0000
,
0000
0000
0000
0000
,
0001
0000
0010
0000
,
1000
0000
0100
0000
,
0001
0000
0000
0000
,
1000
0000
0000
0000
,
0001
0000
0001
0000
,
1000
0000
1000
0000
,
0001
0000
0000
0000
,
1001
0000
0000
0000
,
0002
0000
0000
0000
,
0000
0000
0003
0000
,
0020
0000
0000
0000
,
0000
0000
0030
0000
,
2000
0000
0000
0000
,
0000
0000
3000
0000
,
0200
0000
0000
0000
,
0000
0000
0300
0000
,
0001
0000
0000
0000
,
0001
0000
0000
0000
,
0010
0000
0000
0000
,
0010
0000
0000
0000
,
1000
0000
0000
0000
,
1000
0000
0000
0000
,
0100
0000
0000
0000
,
0100
0000
0000
0000
,
0000
0000
0000
0000
,
1000
0000
0000
0000
,
1000
0000
0010
0000
,
0001
0000
0000
0000
,
0001
0000
0010
0000
,
1000
0000
0000
0000
,
1000
0000
0010
0000
,
0001
0000
0000
0000
,
0001
0000
1000
0000
,
0001
0000
0000
0000
,
0000
0000
0000
0000
,
0100
0000
0010
0000
,
1000
0000
0001
0000
,
1000
0000
1000
0000
,
0001
0000
0001
0000
,
1000
0000
0001
0000
,
1000
0000
0001
0000
,
1000
0000
0000
0000
,
2002
0000
0000
0000
,
0000
3003
0000
0000
,
0000
0000
0000
0000
;
#NOTES:
     dance-single:
     :
     Easy:
     5:
     :
0000
0000
0000
0000
,
0000
0000
0000
0000
,
0000
0000
0000
0000
,
0000
0000
0000
0000
,
0000
0000
0000
0000
,
0000
0000
0000
0000
,
0000
0000
0000
0000
,
0000
0000
0000
0000
,
0000
0000
0000
0000
,
2002
0000
0000
0000
,
0000
0000
0000
0000
,
0000
0000
0000
0000
,
0000
0000
3003
0000
,
0000
0001
0000
0001
,
0000
1000
0000
1000
,
0000
0001
0000
0001
,
0000
1000
0000
1000
,
1000
0000
0100
0000
,
0010
0000
0001
0000
,
1000
0000
0001
0000
,
1001
0000
0000
0000
,
0010
0010
0000
0000
,
0001
0000
1000
0000
,
0010
0010
0000
0000
,
1000
0000
0001
0000
,
0010
0010
0000
0000
,
0001
0000
1000
0000
,
0010
0010
0000
0000
,
0001
0000
0100
0000
,
0001
2000
0000
0000
,
0000
3001
0001
0000
,
1000
0000
0001
0000
,
1000
0000
0001
0000
,
0010
0000
1001
0000
,
0100
0000
1001
0000
,
0001
0000
1000
0000
,
0010
1000
0001
0000
,
0000
1000
0000
0100
,
0000
0010
0000
0001
,
0000
0100
0000
0010
,
0000
1000
0000
0100
,
0000
1000
0000
0010
,
0000
0001
0000
0010
,
0000
1000
0000
0010
,
0000
0001
0000
0010
,
0010
0020
0000
0000
,
0031
0000
0000
0000
,
1000
2000
0000
0000
,
3001
0000
0000
0000
,
0010
0000
1000
0000
,
0100
0000
0001
0000
,
0010
0000
1000
0000
,
0001
0000
0000
0000
,
1000
0000
0100
0000
,
0010
0000
0000
0000
,
0001
0000
0100
0000
,
0010
0000
0000
0000
,
0001
0000
0100
0000
,
1000
0000
0010
0000
,
0001
0000
1000
0000
,
0010
1000
0001
0000
,
0010
0010
0000
0000
,
0001
1000
0001
0000
,
0010
0010
0000
0000
,
1000
0001
1000
0000
,
0010
0010
0000
0000
,
0001
1000
0001
0000
,
0010
0010
0000
0000
,
0100
0010
0100
0000
,
0010
0010
0000
0000
,
0000
1000
0001
0000
,
0010
0000
0001
0000
,
0100
0000
1000
0000
,
0010
0000
1001
0000
,
0100
0000
1001
0000
,
0001
0000
0010
0000
,
1000
0000
0100
0000
,
0020
0000
0000
0000
,
0200
0000
0000
0330
,
0001
0000
0100
0000
,
0010
0000
1000
0000
,
0010
0000
0001
0000
,
1000
0000
0100
0000
,
1000
0000
0001
0000
,
1000
0000
0001
0000
,
0010
0000
0001
0000
,
1000
0000
0000
0000
,
0020
0000
0000
0030
,
2000
0000
0000
3000
,
0200
0000
0000
0300
,
0002
0000
0000
0003
,
0020
0000
0000
0030
,
0002
0000
0000
0003
,
2000
0000
0000
3000
,
0002
0000
0000
0003
,
0010
0000
0000
0000
,
0010
0010
0000
0000
,
1000
0100
1000
0000
,
0010
0010
0000
0000
,
0001
0100
0001
0000
,
0010
0010
0000
0000
,
1000
0001
1000
0000
,
0010
0010
0000
0000
,
0100
0010
0100
0000
,
0010
0010
0000
0000
,
0000
0001
1000
0000
,
0010
0000
1000
0000
,
0100
0000
0001
0000
,
0010
0000
1001
0000
,
0100
0000
1001
0000
,
1000
0000
0010
0000
,
0100
0000
0001
0000
,
0020
0000
0000
0000
,
0200
0000
0000
0000
,
0000
0330
0000
0000
,
0000
0000
0000
0000
;
#NOTES:
     dance-single:
     :
     Medium:
     9:
     :
0000
0000
0000
0000
,
0000
0000
0000
0000
,
0000
0000
0000
0000
,
0000
0000
0000
0000
,
0000
0000
0000
0000
,
0000
0000
0000
0000
,
0000
0000
0000
0000
,
0000
0000
0000
0000
,
0000
0000
0000
0000
,
0220
0000
0000
0000
,
0000
0000
0000
0000
,
0000
0000
0000
0000
,
0000
0000
0330
0000
,
1000
0010
0200
0000
,
0001
0000
0301
0000
,
0010
1000
0002
0000
,
0010
0000
0013
0000
,
0001
0100
1000
0000
,
0001
0010
1000
0000
,
0110
0000
1001
0000
,
1000
0010
0100
0001
,
1000
0100
0000
0100
,
1000
0100
0001
0100
,
1000
0100
0000
0100
,
1000
0100
0001
0100
,
1000
0100
0000
0100
,
1000
0100
0001
0100
,
1000
0100
0000
0100
,
1000
0010
0100
0001
,
1000
0002
0000
0000
,
0000
1003
0100
0010
,
0001
0000
0000
1000
0000
0001
0000
0000
1000
0001
0000
0000
,
0000
0010
0100
1000
,
1100
0000
0011
0000
,
1010
0000
0101
0000
,
1000
0000
0001
0000
,
0010
0001
0110
0000
,
0010
0001
1000
0000
,
0010
1000
0001
0010
,
1000
0001
0100
0000
,
0001
1000
0100
1000
,
0001
0010
0001
0000
,
0010
0001
1000
0100
,
0001
0000
0010
0000
,
1000
0000
0001
0100
,
0010
0020
0000
0000
,
2000
0000
0000
3030
,
0100
0200
0000
0000
,
2000
0000
0000
3300
,
0020
0030
0002
0003
,
0200
0300
2000
3000
,
0010
0001
0100
1000
,
0010
0000
0010
0100
,
0001
0001
0100
0000
,
1001
0000
0101
0000
,
1000
1000
0100
0000
,
1001
0000
1100
0000
,
0010
0000
0100
0000
,
0001
0000
0010
0000
,
1000
0100
0001
0010
,
1000
0001
1000
0000
,
0010
1001
0000
1000
,
0100
0010
0001
0100
,
0010
1001
0000
1000
,
0100
0010
0001
0100
,
0010
1001
0000
1000
,
0100
0010
0001
0100
,
0010
1001
0000
0001
,
0100
0010
1000
0010
,
0100
1001
0000
0010
,
0000
0001
1000
0100
,
0010
0000
0000
0001
0000
1000
0000
0000
0001
1000
0000
0000
,
0000
0001
0100
0010
,
1010
0000
0101
0000
,
0011
0000
1100
0000
,
0010
0010
0001
0000
,
0100
0100
1000
0000
,
0020
0000
0000
0000
,
0200
0000
0000
0330
,
1000
0010
0100
0000
,
0010
0100
0001
0000
,
0010
0001
1000
0000
,
0001
1000
0100
0000
,
0001
0100
1000
0000
,
0001
0100
1000
0000
,
0001
0010
1000
0000
,
0001
0010
1000
0000
,
0020
0000
0032
0000
,
0203
0000
2300
0000
,
3020
0000
0032
0000
,
0203
0000
2300
0000
,
3020
0000
2030
0000
,
3200
0000
0302
0000
,
0023
0000
2030
0000
,
3200
0000
0302
0000
,
0013
0000
0000
0000
,
0010
1001
0000
0001
,
0010
0100
1000
0100
,
0010
1001
0000
0001
,
0100
0010
1000
0010
,
0100
1001
0000
1000
,
0100
0010
0001
0010
,
0100
1001
0000
1000
,
0010
0100
0001
0100
,
0010
1001
0000
0010
,
0000
1000
0001
0100
,
0010
0000
0000
1000
0000
0001
0000
0000
1000
0001
0000
0000
,
0000
1000
0100
0010
,
0011
0000
1100
0000
,
1010
0000
0101
0000
,
0010
1000
0100
0000
,
0010
0001
0100
0000
,
0020
0000
0000
0000
,
0200
0000
0000
0000
,
0000
0330
0000
0000
,
0000
0000
0000
0000
;
#NOTES:
     dance-single:
     :
     Hard:
     12:
     :
0000
0000
0000
0000
,
0000
0000
0000
0000
,
0000
0000
0000
0000
,
0000
0000
0000
0000
,
0000
0000
0000
0000
,
0000
0000
0000
0000
,
0000
0000
0000
0000
,
0000
0000
0000
0000
,
0000
0000
0000
0000
,
0220
0000
0000
0000
,
0000
0000
0000
0000
,
0000
0000
0000
0000
,
0000
0000
0330
0000
,
0001
0000
0000
0010
0000
0000
2000
0000
0000
0000
0000
0001
,
0000
0000
0001
3000
0000
0001
1000
0000
0000
0001
0000
0000
,
0010
0000
0000
0001
0000
0000
2000
0000
0000
0000
0000
0010
,
0000
0000
0010
3000
0000
0010
0100
0000
0000
0010
0000
0000
,
1000
0100
0001
0010
,
1000
0010
0001
0100
,
0010
0000
0100
0000
0000
0100
1000
0000
0100
0000
0000
0100
,
0001
0010
0110
1100
,
0001
0000
0000
0100
0000
0000
1000
0000
0000
0100
0000
0001
,
0000
0000
0001
0100
0000
0000
1000
0000
0000
0100
0000
0000
,
0001
0000
0000
0100
0000
0000
1000
0000
0000
0100
0000
0001
,
0000
0000
0001
0100
0000
0000
1000
0000
0000
0100
0000
0000
,
0001
0000
0000
0100
0000
0000
1000
0000
0000
0100
0000
0001
,
0000
0000
0001
0100
0000
0000
1000
0000
0000
0100
0000
0000
,
0001
0000
0000
0100
0000
0000
1000
0000
0000
0100
0000
0001
,
0000
0000
0001
0010
0000
0000
0100
0000
0000
1000
0000
0000
,
0001
1000
0000
1000
,
0000
1000
0001
0100
,
0010
0000
0000
1000
0000
0001
0000
0000
0100
0001
0000
0000
,
0010
0100
1000
0010
,
0001
0110
1000
0110
,
0010
0001
0010
1000
,
0001
0000
1000
0000
0000
1000
0001
0000
1000
0000
0000
1000
,
0001
1000
0110
0000
,
0010
0000
0000
1000
0000
0000
0001
0000
0000
0000
0000
0010
,
0000
0000
0001
0000
0000
1000
0010
0000
0000
1000
0000
0000
,
0001
0000
0000
1000
0000
0000
0100
0000
0000
0000
0000
1000
,
0000
0000
0001
0000
0000
0100
0001
0000
0000
1000
0000
0000
,
0001
0000
0000
0010
0000
0000
1000
0000
0000
0000
0000
0010
,
0000
0000
0001
0000
0000
1000
0001
0000
0000
0100
0000
0000
,
1000
0000
0000
0010
0000
0000
0001
0000
0000
0000
0000
0010
,
0000
0000
1000
0000
0000
0001
1000
0000
0000
0100
0000
0000
,
0110
1200
0000
0000
,
0002
0003
2000
3300
,
0110
0201
0000
0000
,
2000
3000
0002
0303
,
0020
0000
2030
0000
,
3200
0000
0302
0000
,
0013
1000
0100
0001
,
0010
0000
0010
0100
,
1100
1001
0100
0000
,
0010
1000
0100
0000
,
0101
1001
0100
0000
,
0010
0001
0100
0000
,
0001
0100
1000
0100
,
0001
0010
1000
0010
,
0001
0100
1000
0010
,
0001
1000
0001
0001
,
0010
0000
0000
1001
0000
0000
0000
0000
0000
0001
0000
0100
,
0010
0000
0100
0010
0000
0100
0010
0000
1000
0100
0000
0000
,
0010
0000
0000
1001
0000
0000
0000
0000
0000
0001
0000
0100
,
0010
0000
0100
0010
0000
0100
0010
0000
1000
0001
0000
0000
,
0010
0000
0000
1001
0000
0000
0000
0000
0000
1000
0000
0100
,
0010
0000
0100
0010
0000
0100
0010
0000
0001
0100
0000
0000
,
0010
0000
0000
1001
0000
0000
0000
0000
0000
1000
0000
0100
,
0010
0000
0100
0010
0000
0100
0010
0000
0001
1000
0000
0000
,
0010
0101
0000
0010
,
0000
1000
0001
0100
,
0010
0000
0000
0100
0000
0001
0000
0000
0100
0010
0000
0000
,
1000
0100
0010
0001
,
0010
1001
0100
1001
,
0010
1001
0100
1001
,
0010
0000
0010
1000
0000
0000
0001
0000
0001
0010
0000
0000
,
0100
0000
0100
1000
0000
1000
0001
0000
0001
0100
0000
0000
,
0020
0000
0000
0000
,
0200
0000
0000
0330
,
0001
0000
0000
0010
0000
0000
1000
0000
0100
1000
0000
0000
,
0010
0000
1000
0100
0000
1000
0100
0000
1000
0100
0000
0000
,
1000
0000
0000
0010
0000
0000
0001
0000
0100
0001
0000
0000
,
0010
0000
0001
0100
0000
0001
0100
0000
0001
0100
0000
0000
,
0010
0000
0000
0100
0000
0000
0001
0000
1000
0100
0000
0000
,
0010
0000
0100
0010
0000
0100
0010
0000
0100
0010
0000
0000
,
0001
0000
0000
1000
0000
0000
0010
0000
1000
0001
0000
0000
,
1000
0000
0100
0010
0000
0100
1000
0000
0100
0010
0000
0000
,
0002
0010
2003
0010
,
3002
0000
0000
0100
0000
0000
1003
0000
0100
2000
0000
0000
,
3002
0010
2003
0010
,
3002
0000
0000
0100
0000
0000
1003
0000
0100
2000
0000
0000
,
3020
2030
3200
0320
,
0032
0203
0320
2030
,
3002
0023
0230
2300
,
3200
0320
0032
2003
,
3001
0000
0000
0000
,
0010
0000
0000
1001
0000
0000
0000
0000
0000
1000
0000
0100
,
0010
0000
0100
0010
0000
0100
0010
0000
0001
0100
0000
0000
,
0010
0000
0000
1001
0000
0000
0000
0000
0000
1000
0000
0100
,
0010
0000
0100
0010
0000
0100
0010
0000
0001
1000
0000
0000
,
0010
0000
0000
1001
0000
0000
0000
0000
0000
0001
0000
0100
,
0010
0000
0100
0010
0000
0100
0010
0000
1000
0100
0000
0000
,
0010
0000
0000
1001
0000
0000
0000
0000
0000
0001
0000
0100
,
0010
0000
0100
0010
0000
0100
0010
0000
1000
0001
0000
0000
,
0010
1100
0000
0010
,
0000
0001
1000
0100
,
0010
0000
0000
0100
0000
1000
0000
0000
0100
0010
0000
0000
,
0001
0100
0010
1000
,
0010
1001
0100
1001
,
0010
1001
0100
1001
,
0010
0000
0010
0001
0000
0000
1000
0000
1000
0010
0000
0000
,
0100
0000
0100
0001
0000
0001
1000
0000
1000
0100
0000
0000
,
0020
0000
0000
0000
,
0200
0000
0000
0000
,
0000
0330
0000
0000
,
0000
0000
0000
0000
;
#NOTES:
     dance-single:
     :
     Challenge:
     16:
     :
0000
0000
0000
0000
,
0000
0000
0000
0000
,
0000
0000
0000
0000
,
0000
0000
0000
0000
,
0000
0000
0000
0000
,
0000
0000
0000
0000
,
0000
0000
0000
0000
,
0000
0000
0000
0000
,
0000
0000
0000
0000
,
0220
0000
0000
0000
,
0000
0000
0000
0000
,
0000
0000
0000
0000
,
0000
0000
0330
0000
,
1000
0000
0000
0100
0000
0000
1001
0000
0000
1000
0000
0001
,
0010
0000
0010
0100
0000
0100
1000
0000
0000
1001
0000
0000
,
0001
0000
0000
0100
0000
0000
1001
0000
0000
0001
0000
1000
,
0010
0000
0010
0100
0000
0100
0001
0000
0000
1001
0000
0000
,
0001
0000
0100
0001
0000
0000
0100
0000
0010
0100
0000
0000
,
0010
0000
1000
0010
0000
0000
1000
0000
0001
1000
0000
0000
,
0001
0000
0100
0000
0000
0100
1000
0000
0100
0000
0000
0100
,
0001
0000
0001
0010
0000
0010
0100
0000
0100
1000
0000
0000
,
1010
0000
0000
1001
0000
0000
0001
0000
0010
0100
0000
0100
,
1000
0000
1000
0001
0000
0001
0100
0000
0100
0001
0000
0000
,
0011
0000
0000
1001
0000
0000
1000
0000
0010
0100
0000
0100
,
0001
0000
0001
1000
0000
1000
0100
0000
0100
1000
0000
0000
,
1010
0000
0000
0110
0000
0000
0001
0000
1000
0100
0000
0100
,
0001
0000
0001
0100
0000
0100
1000
0000
1000
0001
0000
0000
,
0011
0000
0000
0110
0000
0000
1000
0000
0001
0100
0000
0100
,
1000
0000
1000
0100
0000
0100
0001
0000
0001
1000
0000
0000
,
1001
0000
0000
0110
0000
0000
0001
0000
0001
1000
0000
1000
,
0010
0000
0010
0100
0000
0100
0001
0000
0001
0010
0000
0010
,
0100
0000
0000
1000
0000
0010
0000
0000
1000
0100
0000
0000
,
0010
0000
0001
0100
0000
0001
0010
0000
0001
0100
0000
0000
,
0002
0000
0000
0013
0000
0100
2000
0000
0000
3010
0000
0100
,
0002
0000
0000
0013
0000
0100
2000
0000
0000
3010
0000
0100
,
0001
0000
0010
0000
0000
0010
1000
0000
0010
0000
0000
0010
,
0001
0000
0000
1000
0100
0010
0001
0000
0000
0000
0000
0000
,
1000
0000
0010
1000
0000
0000
1100
0000
0000
0001
0000
0010
,
0001
0000
0001
0100
0000
0100
0010
0000
0010
1000
0000
0000
,
0001
0000
0010
0001
0000
0000
0101
0000
0000
1000
0000
0010
,
1000
0000
1000
0100
0000
0100
0010
0000
0010
0001
0000
0000
,
1000
0000
0010
1000
0000
0000
1100
0000
0000
0001
0000
0010
,
0001
0000
0001
0100
0000
0100
0010
1000
0100
0010
0000
0000
,
0001
0000
0010
1000
0000
0000
1000
0000
0010
0001
0000
0000
,
1000
0000
0100
0001
0000
0000
0001
0000
0100
1000
0000
0000
,
0001
0000
0010
0100
0000
1000
0100
0000
0010
0001
0000
1000
,
0100
0000
0000
1100
0000
0000
1000
0010
0100
0001
0100
0010
,
1000
0000
0100
0010
0000
0001
0010
0000
0100
1000
0000
0011
,
0000
0000
0000
0011
0000
0000
0001
0100
0010
1000
0010
0100
,
0002
0000
0000
0003
0000
0001
0020
0000
0000
0030
0000
0000
,
2000
0000
0000
3000
0000
1000
0020
0000
0000
0030
0000
0000
,
0001
0000
0100
0010
0000
0000
0110
0000
0000
1000
0000
0100
,
0010
0000
0100
0000
0000
0100
0010
0000
0100
0010
0000
0000
,
0001
0000
0000
0101
0000
0100
0001
0000
0001
0010
0000
0010
,
0100
0000
0001
0100
0000
1000
0100
0000
0010
0001
0000
0000
,
1100
0000
0100
1000
0000
1000
0010
0000
0010
0100
0000
1000
,
0100
0000
0001
0100
0000
0010
1000
0010
1000
0001
0100
0001
,
0200
0000
0000
0300
0000
0010
2000
0000
0000
3000
0000
0000
,
0200
0000
0000
0300
0000
0010
0002
0000
0000
0003
0000
0000
,
1000
0000
0100
0010
0000
0000
0110
0000
0000
0001
0000
0100
,
0010
0000
0000
1000
0010
0100
0001
0010
0100
1000
0010
0100
,
0001
2002
0000
3003
,
1000
0100
1000
0001
0010
0001
1000
0100
0010
0001
0010
0100
,
1000
2002
0000
3003
,
0001
0100
0001
1000
0010
1000
0001
0100
0010
1000
0010
0100
,
0001
2002
0000
3003
,
1000
0001
0010
0001
1000
0010
0100
0001
1000
0001
0010
0100
,
1000
2002
0000
3003
,
0001
0100
0010
1000
0100
0010
0001
1000
0001
0010
0100
1000
,
0010
0220
0000
0000
,
0330
2000
3200
0302
,
0103
0000
0000
0100
0000
1000
0000
0000
1000
0002
0000
0000
,
0000
0100
0100
0103
,
0002
0100
0023
1000
,
0032
0010
0203
1000
,
0301
0000
0010
0000
0000
0010
0001
0000
0100
0000
0000
0100
,
0001
0000
0000
0001
0010
0100
1000
0000
0000
1001
0000
0000
,
0200
0000
0000
0000
,
0020
0000
0000
0330
,
1001
0000
0000
1000
0000
0000
0001
0000
0010
0100
0000
0000
,
1000
0000
0000
0001
0000
0100
1000
0000
1000
0100
0000
0000
,
0101
0000
0000
1001
0000
0000
1000
0000
0010
1000
0000
0000
,
0001
0000
0000
0100
0000
0010
0000
0000
0100
0010
0000
0010
,
1000
0000
0000
1100
0000
0000
0100
0000
0010
0001
0000
0000
,
0001
0000
0100
0010
0000
0010
1000
0000
1000
0001
0000
0000
,
0101
0000
0000
0110
0000
0000
1000
0000
0001
0000
0000
0000
,
1000
0000
0100
0010
0000
0001
1000
0000
0010
0100
0000
0100
,
0001
0010
0001
0010
0000
0000
0100
1000
0100
1000
0000
0000
,
0010
1000
0010
1000
0000
0000
0001
0100
0001
0100
0000
0000
,
0001
1000
0100
1000
0000
0000
0010
0100
0010
1000
0000
0000
,
0001
0010
0100
0010
0000
0000
0001
1000
0100
1000
0000
0000
,
0010
0100
0001
0100
0000
0000
0010
1000
0001
0010
0000
0000
,
0100
1000
0100
0010
0000
0000
0001
0100
0010
1000
0000
0000
,
0002
0000
0000
1000
,
2000
0000
0000
3003
,
0001
0100
0010
1000
0010
0100
0001
1000
0010
0100
0001
0100
,
0010
2002
0000
3003
,
1000
0001
0010
0001
0100
0010
1000
0010
0100
0001
1000
0100
,
0010
2002
0000
3003
,
1000
0010
0100
0001
0100
0010
1000
0001
0100
0010
1000
0010
,
0100
2002
0000
3003
,
0001
1000
0100
1000
0010
0100
0001
0100
0010
1000
0001
0010
,
0100
2002
0000
3003
,
1000
0100
1000
0010
0100
0001
0010
0100
0010
0001
1000
0100
,
0010
0000
0000
0011
0000
0000
0001
0000
0000
0100
0000
0001
,
0100
0000
0010
1000
0000
0010
0100
0000
0010
1000
0000
0100
,
0010
0000
0000
0001
0000
0100
0000
0000
1000
0200
0000
0000
,
0300
0101
0011
1001
,
1000
0100
1000
0100
0000
0000
0010
0001
0010
0001
0000
0000
,
0010
0100
0010
0100
0000
0000
1000
0001
1000
0001
0000
0000
,
0100
0000
1000
0000
0000
1000
0100
0000
0001
0000
0000
0001
,
1000
0001
0010
0100
1000
0001
0010
0000
0000
0110
0000
0000
,
2000
0000
0000
0000
,
0002
0000
0000
0000
,
0000
3003
0000
0000
,
0000
0000
0000
0000
;
#NOTES:
     dance-double:
     :
     Easy:
     5:
     :
00000000
00000000
00000000
00000000
,
00000000
00000000
00000000
00000000
,
00000000
00000000
00000000
00000000
,
00000000
00000000
00000000
00000000
,
00000000
00000000
00000000
00000000
,
00000000
00000000
00000000
00000000
,
00000000
00000000
00000000
00000000
,
00000000
00000000
00000000
00000000
,
00000000
00000000
00000000
00000000
,
00022000
00000000
00000000
00000000
,
00000000
00000000
00000000
00000000
,
00000000
00000000
00000000
00000000
,
00000000
00000000
00033000
00000000
,
00000000
00001000
00000000
00001000
,
00000000
00010000
00000000
00010000
,
00000000
00001000
00000000
00001000
,
00000000
00010000
00000000
00010000
,
00000010
00000000
00001000
00000000
,
00000100
00000000
00000010
00000000
,
00000001
00000000
00001000
00000000
,
00001001
00000000
00000000
00000000
,
00000010
00000010
00000000
00000000
,
00001000
00000000
00010000
00000000
,
00100000
00100000
00000000
00000000
,
00010000
00000000
00001000
00000000
,
00000100
00000100
00000000
00000000
,
00001000
00000000
00010000
00000000
,
01000000
01000000
00000000
00000000
,
00010000
00000000
00001000
00000000
,
00000010
00000010
00000000
00000000
,
00000001
00000000
00000100
00000000
,
00001000
00000000
00001000
00000000
,
00010000
00000000
00010000
00000000
,
00100000
01000000
00100000
00000000
,
10000000
00010000
10000000
00000000
,
01000000
00000000
00010000
00000000
,
00001000
00010000
00001000
00000000
,
00000000
00000010
00000000
00000001
,
00000000
00000100
00000000
00001000
,
00000000
00010000
00000000
00100000
,
00000000
10000000
00000000
01000000
,
00000000
00010000
00000000
00001000
,
00000000
00000010
00000000
00000001
,
00000000
00000100
00000000
00001000
,
00000000
00010000
00000000
00001000
,
01000000
02000000
00000000
00000000
,
03010000
00000000
00000000
00000000
,
00001000
00002000
00000000
00000000
,
00013000
00000000
00000000
00000000
,
00100000
00000000
10000000
00000000
,
01000000
00000000
00010000
00000000
,
00001000
00000000
00000010
00000000
,
00000001
00000000
00000000
00000000
,
00000001
00001000
00000001
00000000
,
00000100
00000000
00000000
00000000
,
00001000
00010000
00001000
00000000
,
00100000
00000000
00000000
00000000
,
00010000
00000000
00100000
00000000
,
10000000
00000000
01000000
00000000
,
00010000
00000000
00001000
00000000
,
00011000
00000000
00000000
00000000
,
00000010
00000010
00000000
00000000
,
00010000
00001000
00010000
00000000
,
00100000
00100000
00000000
00000000
,
00001000
00010000
00001000
00000000
,
00000100
00000100
00000000
00000000
,
00010000
00001000
00010000
00000000
,
01000000
01000000
00000000
00000000
,
00001000
00010000
00001000
00000000
,
00000010
00000010
00000000
00000000
,
00000001
00000000
00000100
00000000
,
00001000
00000000
00010000
00000000
,
01000000
00000000
10000000
00000000
,
00100000
10000000
01000000
00000000
,
00100000
00010000
01000000
00000000
,
00001000
00000000
00010000
00000000
,
00000010
00001000
00000100
00000000
,
00000020
00000000
00000000
00000000
,
00000200
00000000
00000000
00000330
,
00000020
00000000
00000030
00000000
,
00002000
00000000
00003000
00000000
,
00020000
00000000
00030000
00000000
,
02000000
00000000
03000000
00000000
,
00200000
00000000
00300000
00000000
,
00020000
00000000
00030000
00000000
,
00002000
00000000
00003000
00000000
,
00000020
00000000
00000030
00000000
,
00000001
00000000
00000001
00000000
,
00000100
00000000
00000100
00000000
,
00001000
00000000
00001000
00000000
,
00010000
00000000
00010000
00000000
,
01000000
00000000
01000000
00000000
,
10000000
00000000
10000000
00000000
,
00200000
00000000
00000000
00000000
,
02000000
00000000
00000000
03300000
,
00000000
00000000
00000000
00000000
,
00100000
00100000
00000000
00000000
,
00001000
00010000
00001000
00000000
,
00000010
00000010
00000000
00000000
,
00010000
00001000
00010000
00000000
,
01000000
01000000
00000000
00000000
,
00001000
00010000
00001000
00000000
,
00000100
00000100
00000000
00000000
,
00010000
00001000
00010000
00000000
,
00100000
00100000
00000000
00000000
,
10000000
00000000
01000000
00000000
,
00010000
00000000
00001000
00000000
,
00000100
00000000
00000001
00000000
,
00000010
00000001
00000100
00000000
,
00000010
00001000
00000100
00000000
,
00010000
00000000
00001000
00000000
,
00100000
00010000
10000000
00000000
,
00200000
00000000
00000000
00000000
,
02000000
00000000
00000000
00000000
,
00000000
03300000
00000000
00000000
,
00000000
00000000
00000000
00000000
;
#NOTES:
     dance-double:
     :
     Medium:
     9:
     :
00000000
00000000
00000000
00000000
,
00000000
00000000
00000000
00000000
,
00000000
00000000
00000000
00000000
,
00000000
00000000
00000000
00000000
,
00000000
00000000
00000000
00000000
,
00000000
00000000
00000000
00000000
,
00000000
00000000
00000000
00000000
,
00000000
00000000
00000000
00000000
,
00000000
00000000
00000000
00000000
,
00022000
00000000
00000000
00000000
,
00000000
00000000
00000000
00000000
,
00000000
00000000
00000000
00000000
,
00000000
00000000
00033000
00000000
,
00001000
00000200
00000001
00000000
,
00001000
00000000
00001300
00000000
,
00010000
02000000
10000000
00000000
,
00010000
00000000
03010000
00000000
,
00001000
00010000
00001000
00000000
,
00010000
00001000
00000100
00000000
,
00001010
00000000
00000101
00000000
,
00001000
00000100
00000010
00000001
,
00001000
00000001
00000000
00000001
,
00001000
00000100
00010000
00001000
,
00100000
00010000
00000000
00010000
,
10000000
00100000
01000000
00010000
,
00100000
00010000
00000000
00010000
,
00001000
00000100
00000010
00000001
,
00001000
00000001
00000000
00000001
,
00000100
00001000
00010000
01000000
,
10000000
00200000
00000000
00000000
,
00000000
01300000
00100000
10000000
,
01000000
00000000
00000000
00100000
00000000
01000000
00000000
00000000
00100000
01000000
00000000
00000000
,
00000000
00010000
00001000
00000010
,
00000001
00000100
00001000
00000000
,
00001000
00000100
00000001
00000000
,
00000010
00000000
00001000
00000000
,
00010000
00001000
00011000
00000000
,
00100000
00010000
01000000
00000000
,
00100000
10000000
00010000
01000000
,
00001000
00010000
00001000
00000000
,
00010000
00000100
00000010
00000001
,
00001000
00000010
00000100
00000000
,
00000001
00000100
00001000
00010000
,
00100000
00000000
10000000
00000000
,
00010000
00000000
10000000
01000000
,
00100000
00200000
00000000
00000000
,
00020000
00000000
00000000
00330000
,
00001000
00002000
00000000
00000000
,
00020000
00000000
00000000
00033000
,
00000010
00000000
00000001
00000000
,
00000100
00000000
00001000
00000000
,
00010000
00100000
10000000
00010000
,
01000000
00000000
00100000
00000000
,
10000000
01000000
00010000
00000000
,
00001000
00000000
00010000
00000000
,
00001000
00000010
00000001
00000000
,
00000100
00000000
00000100
00000000
,
00000010
00000000
00010000
00000000
,
00100000
00000000
00010000
00000000
,
00000010
00000000
00010000
00000000
,
00100000
00100000
01000000
01000000
,
00100000
10010000
00000000
10000000
,
01000000
00010000
00001000
00000100
,
00000001
00000011
00000000
00000001
,
00000100
00001000
00010000
01000000
,
10000000
10100000
00000000
10000000
,
00010000
01000000
00001000
00010000
,
00000010
00000110
00000000
00000001
,
00001000
00000100
00010000
00001000
,
00100000
01100000
00000000
00000000
,
00000000
10000000
00100000
01000000
,
00100000
00000000
00000000
00010000
00000000
00001000
00000000
00000000
00010000
00001000
00000000
00000000
,
00000000
00000010
00000001
00001000
,
00000011
00000000
00001100
00000000
,
00011000
00000000
01010000
00000000
,
10100000
00000000
01100000
00000000
,
10000000
01000000
00010000
00000000
,
00002000
00000000
00000000
00000000
,
00020000
00000000
00000000
00033000
,
00001000
00000000
00020000
00000000
,
00100000
00000000
10000000
00000000
,
00130000
00000000
00010000
00000000
,
00001000
00000000
00010000
00000000
,
00010000
00000000
00002000
00000000
,
00000010
00000000
00000001
00000000
,
00003010
00000000
00001000
00000000
,
00010000
00000000
00000000
00000000
,
00001000
00000100
00000001
00000000
,
00000001
00000100
00001000
00000000
,
00010000
01000000
10000000
00000000
,
10000000
01000000
00010000
00000000
,
00001000
00000000
00000010
00000000
,
00000001
00000000
00000100
00000000
,
00000020
00000000
00000000
00000000
,
00000200
00000000
00000000
00000330
,
00000000
00000000
00000000
00000000
,
00000010
00001001
00000000
00000001
,
00000100
00001000
00010000
01000000
,
10000000
10100000
00000000
10000000
,
01000000
00010000
00001000
00000100
,
00000001
00000011
00000000
00000001
,
00001000
00000100
00010000
00001000
,
00100000
01100000
00000000
10000000
,
00010000
01000000
00001000
00010000
,
00000010
00000110
00000000
00000000
,
00000000
00000001
00000010
00000100
,
00000010
00000000
00000000
00001000
00000000
00010000
00000000
00000000
00001000
00010000
00000000
00000000
,
00000000
00100000
10000000
00010000
,
10100000
00000000
01010000
00000000
,
00011000
00000000
00001100
00000000
,
00000011
00000000
00000110
00000000
,
00000001
00000100
00001000
00000000
,
00020000
00000000
00000000
00000000
,
00002000
00000000
00000000
00000000
,
00000000
00033000
00000000
00000000
,
00000000
00000000
00000000
00000000
;
#NOTES:
     dance-double:
     :
     Hard:
     13:
     :
00000000
00000000
00000000
00000000
,
00000000
00000000
00000000
00000000
,
00000000
00000000
00000000
00000000
,
00000000
00000000
00000000
00000000
,
00000000
00000000
00000000
00000000
,
00000000
00000000
00000000
00000000
,
00000000
00000000
00000000
00000000
,
00000000
00000000
00000000
00000000
,
00000000
00000000
00000000
00000000
,
00022000
00000000
00000000
00000000
,
00000000
00000000
00000000
00000000
,
00000000
00000000
00000000
00000000
,
00000000
00000000
00033000
00000000
,
00010000
00000000
00000000
00100000
00000000
00000000
20000000
00000000
00000000
00000000
00000000
01000000
,
00000000
00000000
01000000
30000000
00000000
01000000
00100000
00000000
00000000
00010000
00000000
00000000
,
00001000
00000000
00000000
00000100
00000000
00000000
00000020
00000000
00000000
00000000
00000000
00001000
,
00000000
00000000
00001000
00000030
00000000
00001000
00000010
00000000
00000000
00000001
00000000
00000000
,
00000100
00001000
00010000
00001000
,
00000100
00001000
00010000
00001000
,
00100000
00000000
00010000
00000000
00000000
00010000
10000000
00000000
00010000
00000000
00000000
00010000
,
01000000
00100000
10000000
01000000
,
00010000
00000000
00000000
00001000
00000000
00000000
00000010
00000000
00000000
00001000
00000000
00010000
,
00000000
00000000
00010000
00001000
00000000
00000000
00000100
00000000
00000000
00001000
00000000
00000000
,
00010000
00000000
00000000
00001000
00000000
00000000
00000010
00000000
00000000
00001000
00000000
00010000
,
00000000
00000000
00010000
00001000
00000000
00000000
00000100
00000000
00000000
00001000
00000000
00000000
,
00010000
00000000
00000000
00001000
00000000
00000000
00000010
00000000
00000000
00001000
00000000
00010000
,
00000000
00000000
00010000
00001000
00000000
00000000
00000100
00000000
00000000
00001000
00000000
00000000
,
00010000
00000000
00000000
00001000
00000000
00000000
00000010
00000000
00000000
00001000
00000000
00010000
,
00000000
00000000
00010000
00100000
00000000
00000000
01000000
00000000
00000000
00010000
00000000
00000000
,
10000000
01000000
00000000
01000000
,
00000000
01000000
00100000
00010000
,
00001000
00000000
00000000
00000100
00000000
00000010
00000000
00000000
00000001
00001000
00000000
00000000
,
00000010
00001000
00000001
00000100
,
00010000
00000100
00000010
00000100
,
00010000
00001000
00000010
00001000
,
00010000
00000000
01000000
00000000
00000000
01000000
00100000
00000000
01000000
00000000
00000000
01000000
,
00010000
10000000
01100000
00000000
,
00100000
00000000
00000000
10000000
00000000
00000000
00010000
00000000
00000000
00000000
00000000
00100000
,
00000000
00000000
00001000
00000000
00000000
00010000
00000100
00000000
00000000
00000010
00000000
00000000
,
00000001
00000000
00000000
00000100
00000000
00000000
00000010
00000000
00000000
00000000
00000000
00010000
,
00000000
00000000
00001000
00000000
00000000
01000000
00010000
00000000
00000000
10000000
00000000
00000000
,
00010000
00000000
00000000
00100000
00000000
00000000
01000000
00000000
00000000
00000000
00000000
00100000
,
00000000
00000000
00010000
00000000
00000000
00001000
00000100
00000000
00000000
00000010
00000000
00000000
,
00000001
00000000
00000000
00000100
00000000
00000000
00001000
00000000
00000000
00000000
00000000
00000100
,
00000000
00000000
00000001
00000000
00000000
00001000
00000001
00000000
00000000
00000100
00000000
00000000
,
00000010
00020010
00000000
00000000
,
00002000
00000000
00000000
00033000
,
00100000
02100000
00000000
00000000
,
20000000
00000000
00000000
33000000
,
00100000
00000000
10000000
00000000
,
01000000
00000000
00010000
00000000
,
00001000
00000010
00000001
00000100
,
00000010
00000000
00000100
00000000
,
00001010
00011000
01000000
00000000
,
00100000
10000000
01000000
00000000
,
01010000
00011000
00000010
00000000
,
00010000
00001000
00000100
00000000
,
00000010
00001000
00010000
00001000
,
00000010
00001000
00010000
00001000
,
00000100
00000010
00000001
00000100
,
00000010
00010000
00001000
01000000
,
00001000
00000000
00000000
00011000
00000000
00000000
00000000
00000000
00000000
00010000
00000000
00100000
,
10000000
00000000
00100000
10000000
00000000
01000000
00100000
00000000
01000000
00100000
00000000
00000000
,
00010000
00000000
00000000
00011000
00000000
00000000
00000000
00000000
00000000
00001000
00000000
00000010
,
00000001
00000000
00000010
00000001
00000000
00000100
00000010
00000000
00000100
00000010
00000000
00000000
,
00001000
00000000
00000000
00011000
00000000
00000000
00000000
00000000
00000000
00010000
00000000
01000000
,
10000000
00000000
01000000
10000000
00000000
00100000
01000000
00000000
00100000
01000000
00000000
00000000
,
00010000
00000000
00000000
00011000
00000000
00000000
00000000
00000000
00000000
00001000
00000000
00000100
,
00000001
00000000
00000100
00000001
00000000
00000010
00000100
00000000
00000010
00000100
00000000
00000000
,
00001000
00011000
00000000
00100000
,
00000000
00010000
01000000
00100000
,
10000000
00000000
00000000
00100000
00000000
01000000
00000000
00000000
00010000
00001000
00000000
00000000
,
00000000
00000010
00001000
00000100
,
00000010
00000011
00000100
00001100
,
00010000
00011000
01000000
01010000
,
00100000
00000000
10000000
00100000
00000000
00000000
01000000
00000000
00010000
01000000
00000000
00000000
,
00001000
00000000
00010000
00001000
00000000
00010000
00000010
00000000
00001000
00000010
00000000
00000000
,
00000200
00000000
00000000
00000000
,
00000020
00000000
00000000
00000330
,
00001000
00000000
00000000
00000100
00000000
00000000
00000010
00000000
00000001
00000010
00000000
00000000
,
00000001
00000000
00000100
00000001
00000000
00000100
00000001
00000000
00000100
00000001
00000000
00000000
,
00000100
00000000
00000000
00001000
00000000
00000000
00010000
00000000
00001000
00010000
00000000
00000000
,
00100000
00000000
01000000
00100000
00000000
01000000
00100000
00000000
01000000
00100000
00000000
00000000
,
10000000
00000000
00000000
00010000
00000000
00000000
10000000
00000000
01000000
10000000
00000000
00000000
,
01000000
00000000
00100000
01000000
00000000
00100000
00010000
00000000
00100000
00010000
00000000
00000000
,
00001000
00000000
00000000
00000100
00000000
00000000
00000010
00000000
00000100
00000010
00000000
00000000
,
00000001
00000000
00001000
00000001
00000000
00001000
00000010
00000000
00000100
00000010
00000000
00000000
,
00020000
00001000
00030200
00001000
,
00020300
00000000
00000000
00001000
00000000
00000000
00030100
00000000
00001000
00000200
00000000
00000000
,
00020300
00001000
00030020
00001000
,
00020030
00000000
00000000
00001000
00000000
00000000
00030010
00000000
00001000
00000010
00000000
00000000
,
00001000
00010000
01000000
00100000
,
10000000
00100000
01000000
00010000
,
00002000
00000000
00000000
00000000
,
00000200
00000000
00000000
00003300
,
00000000
00000000
00000000
00000000
,
00010000
00000000
00000000
00011000
00000000
00000000
00000000
00000000
00000000
00001000
00000000
00000010
,
00000001
00000000
00000010
00000001
00000000
00000100
00000010
00000000
00000100
00000010
00000000
00000000
,
00001000
00000000
00000000
00011000
00000000
00000000
00000000
00000000
00000000
00010000
00000000
00100000
,
10000000
00000000
00100000
10000000
00000000
01000000
00100000
00000000
01000000
00100000
00000000
00000000
,
00010000
00000000
00000000
00011000
00000000
00000000
00000000
00000000
00000000
00001000
00000000
00000100
,
00000001
00000000
00000100
00000001
00000000
00000010
00000100
00000000
00000010
00000100
00000000
00000000
,
00001000
00000000
00000000
00011000
00000000
00000000
00000000
00000000
00000000
00010000
00000000
01000000
,
10000000
00000000
01000000
10000000
00000000
00100000
01000000
00000000
00100000
01000000
00000000
00000000
,
00010000
00011000
00000000
00000010
,
00000000
00001000
00000100
00000010
,
00000001
00000000
00000000
00000010
00000000
00000100
00000000
00000000
00001000
00010000
00000000
00000000
,
00000000
00100000
00010000
01000000
,
00100000
10100000
01000000
01010000
,
00001000
00011000
00000100
00001100
,
00000010
00000000
00000001
00000010
00000000
00000000
00000100
00000000
00001000
00000100
00000000
00000000
,
00010000
00000000
00001000
00010000
00000000
00001000
00100000
00000000
00010000
00100000
00000000
00000000
,
02000000
00000000
00000000
00000000
,
20000000
00000000
00000000
00000000
,
00000000
33000000
00000000
00000000
,
00000000
00000000
00000000
00000000
;
#NOTES:
     dance-double:
     :
     Challenge:
     16:
     :
00000000
00000000
00000000
00000000
,
00000000
00000000
00000000
00000000
,
00000000
00000000
00000000
00000000
,
00000000
00000000
00000000
00000000
,
00000000
00000000
00000000
00000000
,
00000000
00000000
00000000
00000000
,
00000000
00000000
00000000
00000000
,
00000000
00000000
00000000
00000000
,
00000000
00000000
00000000
00000000
,
00022000
00000000
00000000
00000000
,
00000000
00000000
00000000
00000000
,
00000000
00000000
00000000
00000000
,
00000000
00000000
00033000
00000000
,
00001000
00000000
00000000
00010000
00000000
00000000
00100000
00000000
00000000
00010000
00000000
00001000
,
00000000
00000000
00001000
00010000
00000000
00010000
00001000
00000000
00001000
00010000
00000000
00001000
,
00010000
00000000
00000000
00001000
00000000
00000000
00000010
00000000
00000000
00001000
00000000
00010000
,
00000000
00000000
00010000
00001000
00000000
00001000
00010000
00000000
00010000
00001000
00000000
00000000
,
00010000
00000000
00000000
01000000
00000000
00000000
01100000
00000000
00000000
00110000
00000000
00010000
,
10000000
00000000
10000000
00100000
00000000
00100000
00010000
00000000
00010000
00001000
00000000
00000000
,
00000100
00000000
00001000
00000000
00000000
00001000
00010000
00000000
00001000
00000000
00000000
00001000
,
00000010
00000011
00000101
00000110
,
00001010
00000000
00000000
00001001
00000000
00000000
00000001
00000000
00000001
00000100
00000000
00000100
,
00001000
00000000
00001000
00010000
00000000
00010000
00100000
00000000
00100000
10000000
00000000
00000000
,
10100000
00000000
00000000
10010000
00000000
00000000
10000000
00000000
10000000
01000000
00000000
01000000
,
00010000
00000000
00010000
00001000
00000000
00001000
00000010
00000000
00000010
00000001
00000000
00000000
,
00000011
00000000
00000000
00001001
00000000
00000000
00000001
00000000
00000001
00000100
00000000
00000100
,
00001000
00000000
00001000
00010000
00000000
00010000
00100000
00000000
00100000
10000000
00000000
00000000
,
10100000
00000000
00000000
10010000
00000000
00000000
10000000
00000000
10000000
01000000
00000000
01000000
,
00010000
00000000
00010000
00001000
00000000
00001000
00000100
00000000
00000100
00000001
00000000
00000000
,
00000101
00000000
00000000
00001001
00000000
00000000
00000001
00000000
00000010
00000100
00000000
00000100
,
00010000
00000000
00010000
00002000
00000000
00000000
00023000
00000000
00000000
00230000
00000000
00000000
,
10300000
00000000
00000000
01000000
00000000
00010000
00000000
00000000
01000000
20000000
00000000
00000000
,
30200000
00320000
00032000
00003200
,
00000302
00000000
00000010
00000103
00000000
00000000
00002000
00000000
00000010
00003100
00000000
00000000
,
00000002
00000000
00000010
00000103
00000000
00000000
00002000
00000000
00000010
00003100
00000000
00000000
,
00000001
00000000
00000100
00000000
00000000
00000100
00001000
00000000
00000100
00000000
00000000
00000100
,
00000001
00000000
00000000
00001000
00000100
00000010
00000001
00000000
00000000
00000000
00000000
00000000
,
00000001
00000000
00000000
00000100
00000000
00000000
00001000
00000000
00000000
00010000
00000000
00001000
,
00100000
00000000
00001000
01000000
00000000
00001000
00100000
00000000
00001000
01000000
00000000
00000000
,
00010000
00000000
00000000
01000000
00000000
00000000
10000000
00000000
00000000
01000000
00000000
00100000
,
10000000
00000000
01000000
10000000
00000000
00100000
10000000
00000000
01000000
10000000
00000000
00000000
,
01000000
00000000
00000000
00010000
00000000
00000000
00011000
00000000
00000000
00001000
00000000
00000010
,
00000100
00000000
00000010
00000001
00000000
00000010
00000100
00001000
00000100
00001000
00000000
00000000
,
00000001
00000000
00000100
00001000
00000000
00000000
00001000
00000000
00000100
00000001
00000000
00000000
,
00000001
00000000
00000010
00001000
00000000
00000000
00010000
00000000
00001000
00010000
00000000
00000000
,
00001000
00000000
00001000
00010000
00000000
00010000
00001000
00000000
00001000
00100000
00000000
00100000
,
00010000
00000000
00000000
01010000
00000000
00000000
01000000
00100000
01000000
00100000
10000000
00100000
,
10000000
00000000
10000000
01000000
00000000
01000000
00100000
00000000
00100000
00001000
00000000
00011000
,
00000000
00000000
00000000
00011000
00000000
00000000
00010000
00000100
00010000
00000100
00001000
00000100
,
00002000
00000000
00000000
00003000
00000000
00001000
00000020
00000000
00000000
00000030
00000000
00000000
,
00000200
00000000
00000000
00000300
00000000
00000100
00000002
00000000
00000000
00000003
00000000
00000000
,
00001000
00000000
00000100
00000010
00000000
00000000
00000110
00000000
00000000
00000010
00000000
00000001
,
00000100
00000000
00000001
00000000
00000000
00000001
00001000
00000000
00000001
00001000
00000000
00000000
,
00000001
00000000
00000001
00000010
00000000
00000010
00000100
00000000
00000100
00010000
00000000
00010000
,
00001000
00000000
00000000
00011000
00000000
00000000
00010000
00001000
00010000
00001000
00100000
00001000
,
00100000
00000000
00100000
00010000
00000000
00010000
10000000
00000000
10000000
00100000
00000000
00100000
,
01000000
00000000
01000000
00010000
00000000
00000000
10000000
01000000
10000000
01000000
00100000
01000000
,
00200000
00000000
00000000
00300000
00000000
00100000
00002000
00000000
00000000
00003000
00000000
00000000
,
00020000
00000000
00000000
00030000
00000000
00010000
00000200
00000000
00000000
00000300
00000000
00000000
,
00001000
00000000
00000100
00000010
00000000
00000000
00000110
00000000
00000000
00001001
00000000
00000000
,
00000001
00000010
00000001
00000010
00000100
00001000
00000100
00001000
00000100
00010000
00001000
00010000
,
00001000
00022000
00000000
00033000
,
00001000
00010000
00001000
00100000
00010000
00100000
00010000
00100000
01000000
10000000
00010000
10000000
,
01000000
02200000
00000000
03300000
,
10000000
00010000
10000000
00100000
01000000
00100000
10000000
00010000
01000000
00010000
10000000
01000000
,
00100000
02200000
00000000
03300000
,
10000000
01000000
00100000
00010000
00100000
01000000
00100000
00010000
00100000
00001000
00010000
00001000
,
00010000
00022000
00000000
00033000
,
00001000
00010000
00000010
00001000
00000010
00000100
00000001
00001000
00000100
00000010
00000001
00000010
,
00000100
00000220
00000000
00000000
,
00000330
00000002
00000023
00002030
,
00013000
00000000
00000000
00010000
00000000
00001000
00000000
00000000
00001000
00020000
00000000
00000000
,
00000000
00130000
10000000
00100000
,
02000000
10000000
03020000
00100000
,
00032000
00000100
00003020
00000001
,
00001030
00000000
00000100
00000000
00000000
00000100
00001000
00000000
00000010
00000000
00000000
00000010
,
00000100
00000000
00000000
00000001
00000010
00000100
00001000
00000000
00000000
00000100
00000000
00000000
,
00020000
00000000
00000000
00000000
,
00002000
00000000
00000000
00033000
,
00011000
00000000
00000000
00001000
00000000
00000000
00010000
00000000
01000000
10000000
00000000
00000000
,
00010000
00000000
00000000
01000000
00000000
01000000
00100000
00000000
00100000
10000000
00000000
00000000
,
11000000
00000000
00000000
10010000
00000000
00000000
00010000
00000000
00100000
00001000
00000000
00000000
,
00010000
00000000
00000000
00001000
00000000
00010000
00000000
00000000
00010000
00000010
00000000
00000010
,
00000100
00000000
00000000
00000110
00000000
00000000
00000010
00000000
00001000
00000100
00000000
00000000
,
00000110
00000000
00000000
00000001
00000000
00000001
00000010
00000000
00000010
00000100
00000000
00000000
,
00001100
00000000
00000000
00010100
00000000
00000000
00010000
00000000
00001000
00000000
00000000
00000000
,
00001000
00000000
00001000
00100000
00000000
00100000
00010000
00000000
00010000
01000000
00000000
00000000
,
00100000
10000000
00100000
10000000
00000000
00000000
01000000
00100000
01000000
00100000
00000000
00000000
,
00010000
00100000
00010000
00100000
00000000
00000000
00001000
00010000
00001000
00010000
00000000
00000000
,
00000100
00001000
00000100
00001000
00000000
00000000
00000010
00000100
00000001
00000100
00000000
00000000
,
00000001
00000010
00000001
00000010
00000000
00000000
00000100
00001000
00000100
00010000
00000000
00000000
,
00001000
00100000
00010000
00100000
00000000
00000000
00010000
01000000
00100000
10000000
00000000
00000000
,
00100000
01000000
00010000
10000000
00000000
00000000
01000000
00100000
00001000
00010000
00000000
00000000
,
02000000
00000000
00000000
00100000
,
00200000
00000000
00000000
03300000
,
10000000
00100000
10000000
00100000
01000000
00010000
01000000
00010000
01000000
00001000
00010000
00001000
,
00010000
00022000
00000000
00033000
,
00010000
00001000
00010000
00000010
00001000
00000010
00001000
00000010
00000100
00000001
00001000
00000001
,
00000100
00000220
00000000
00000330
,
00000001
00001000
00000001
00000010
00000100
00001000
00000001
00000010
00000001
00001000
00000010
00000100
,
00000010
00000220
00000000
00000330
,
00000001
00000100
00000010
00001000
00000010
00000100
00001000
00010000
00000100
00010000
00001000
00010000
,
00001000
00022000
00000000
00033000
,
00010000
00001000
00100000
00010000
00100000
01000000
10000000
00010000
01000000
00100000
10000000
01000000
,
00100000
02200000
00000000
00000000
,
03300000
20000000
30200000
00320000
,
00031000
00000000
00000000
00001000
00000000
00010000
00000000
00000000
00010000
00002000
00000000
00000000
,
00000000
00003010
00000001
00000010
,
00000200
00000000
00000000
00001300
00000010
00001000
00000020
00000000
00000000
00010030
00001000
00010000
,
00002000
00000000
00000000
00103000
00010000
00100000
00020000
00000000
00000000
01030000
00100000
01000000
,
00100000
00000000
01000000
00000000
00000000
01000000
00010000
00000000
00100000
00000000
00000000
00100000
,
01000000
10000000
00100000
01000000
00010000
00100000
01000000
00000000
00000000
00010000
00000000
00000000
,
00002000
00000000
00000000
00000000
,
00020000
00000000
00000000
00000000
,
00000000
00033000
00000000
00000000
,
00000000
00000000
00000000
00000000
;
