
//----- song id: tsub
#TITLE:TSUBASA;
#ARTIST:柊木りお featured by TAG;
#ARTISTTRANSLIT:Rio Hiiragi featured by TAG;
#BANNER:TSUBASA.png;
#BACKGROUND:TSUBASA-bg.png;
#CDTITLE:./CDTitles/DDR (2014).png;
#MUSIC:TSUBASA.ogg;
#SAMPLESTART:39.338;
#SAMPLELENGTH:15;
#DISPLAYBPM:151;
#BPMS:0=151;
#NOTES:
     dance-single:
     :
     Beginner:
     2:
     :
0000
0000
0000
0000
,
0000
0000
0000
0000
,
0000
0000
0000
0000
,
0000
0000
0000
0000
,
0000
0000
0000
0000
,
1000
0000
0010
0000
,
0001
0000
0100
0000
,
1000
0000
0100
0000
,
0001
0000
0010
0000
,
0010
0000
0000
0000
,
1000
0000
0001
0000
,
1000
1000
1000
0000
,
0000
0000
0010
0010
,
0010
0000
0000
0000
,
0001
0000
1000
0000
,
0001
0001
0001
0000
,
0000
0000
1000
1000
,
1000
0000
0000
0000
,
0010
0010
0000
0000
,
1000
1000
0000
0000
,
0100
0100
0000
0000
,
0001
0000
0001
0000
,
1000
0000
1000
0000
,
0010
0000
0100
0000
,
0000
0000
0000
0000
,
1000
0000
0001
0000
,
1000
1000
1000
0000
,
1000
0000
0001
0000
,
0100
0100
0100
0000
,
0001
0000
0100
0000
,
1000
0000
0010
0000
,
0001
0000
0100
0000
,
1000
0000
0000
0000
,
0100
0000
0000
0000
,
0000
0000
0000
0000
,
0100
0000
0000
0000
,
0000
0000
0010
0010
,
0010
0010
0000
0000
,
1000
1000
0000
0000
,
0001
0001
0000
0000
,
1000
1000
0000
0000
,
0001
0000
0001
0000
,
1000
0000
1000
0000
,
0010
0010
0010
0000
,
0100
0000
0010
0000
,
0000
1000
0000
0001
,
0000
1000
0000
0001
,
0000
1000
0000
0010
,
0020
0000
0000
0000
0000
0030
0000
0000
,
1000
0000
0001
0000
,
1000
1000
1000
0000
,
1000
0000
0001
0000
,
0100
0100
0100
0000
,
0001
0000
0100
0000
,
1000
0000
0010
0000
,
0001
0000
0100
0000
,
1000
0000
0000
0000
,
0001
0000
1000
0000
,
0001
0001
0001
0000
,
0001
0000
1000
0000
,
0100
0100
0100
0000
,
1000
0000
0100
0000
,
0001
0000
0010
0000
,
1000
0000
0100
0000
,
0001
0000
0000
0000
,
0100
0000
0010
0000
,
0100
0100
0100
0000
,
0001
0000
1000
0000
,
0001
0001
0001
0000
,
0000
0010
0000
0001
,
0000
0100
0000
1000
,
1000
1000
1000
1000
,
0000
0000
0100
0100
,
0200
0000
0300
0000
,
0000
0000
0000
0000
;
#NOTES:
     dance-single:
     :
     Easy:
     6:
     :
0000
0000
0000
0000
,
0000
0000
0000
0000
,
0000
0000
0000
0000
,
0000
0000
0000
0000
,
0000
0000
1000
0000
,
1000
0000
0010
0000
,
0001
0000
0100
0000
,
1000
0100
0001
0100
,
1000
0000
0000
0000
,
1000
0001
0010
0000
,
0010
1000
0010
0001
,
0010
0000
0001
0100
,
0000
0000
0010
0100
,
0001
1000
0010
0000
,
0010
0001
0010
1000
,
0010
0000
1000
0100
,
0010
0000
0010
0100
,
0001
0001
0000
0000
,
0010
0010
0000
0000
,
1000
1000
0000
0000
,
1000
0100
1000
0000
,
0001
1000
0001
0000
,
1000
0001
1000
0100
,
0010
0000
0100
0000
,
2002
0000
0000
3003
,
1000
0100
0001
0100
,
1000
1000
0100
0000
,
1000
0000
0001
0000
,
0001
0010
1000
0010
,
0001
0000
0100
0000
,
1000
0000
0010
0000
,
0100
0010
0100
0010
,
0100
0000
1000
0001
,
0100
0000
0000
0000
,
0000
0000
0001
0000
,
0010
0000
0000
0000
,
0000
0000
0001
1000
,
0010
0000
0000
0000
,
1000
0000
0001
0000
,
0001
0100
1000
0000
,
0001
1000
0001
0000
,
0001
0100
1000
1000
,
0100
0010
0001
0001
,
0020
0000
0000
0030
,
0200
0000
0310
0000
,
1000
0100
0010
0000
,
0001
0100
0010
1000
,
0100
0000
0100
0000
,
0020
0000
0000
0030
,
0001
0000
1000
0000
,
0001
0001
0100
0000
,
1000
0000
0001
0000
,
1000
0010
0001
0010
,
1000
0000
0100
0000
,
0001
0000
0010
0000
,
0010
1000
0100
0001
,
0010
0000
1000
0000
,
1000
0100
0001
0100
,
1000
1000
0100
0000
,
0001
0001
1000
1000
,
0001
0010
1000
0010
,
0001
0000
0100
0000
,
1000
0000
0010
0000
,
0100
0010
0100
0010
,
0100
0000
1000
0001
,
0100
0000
0010
0000
,
0001
0010
1000
0010
,
0001
0000
1000
0000
,
1000
0010
0001
0100
,
0000
0110
0000
1001
,
0000
0110
0000
0001
,
0100
0010
1000
0001
,
1000
0001
1000
0001
,
0200
0000
0300
0000
,
0000
0000
0000
0000
;
#NOTES:
     dance-single:
     :
     Medium:
     10:
     :
0000
0000
0000
0000
,
0000
0000
0000
0000
,
0000
0000
0000
0000
,
0000
0000
0000
0000
,
0000
0000
0000
0000
1000
0100
1000
0001
,
1000
0000
0010
0000
,
0001
0000
0100
0000
,
1000
0010
1000
0001
1000
0001
1000
0100
,
2000
0000
0000
3000
,
1000
0000
0101
0000
0001
1000
0010
0000
,
0100
0000
0010
0000
0001
0000
1000
0010
,
1000
0000
0001
0000
0110
0000
1000
0001
,
0000
0000
0000
0000
0010
0100
0010
0100
,
0010
0000
1100
0000
1000
0001
0010
0000
,
0100
0000
0010
0000
1000
0000
0001
0010
,
0001
1000
0110
0001
,
1000
0000
0000
0000
0001
0010
0001
0010
,
0001
0000
0000
0010
0000
1000
0000
0000
,
0010
0000
0000
0001
0000
0010
0000
0000
,
0001
0000
0000
0010
0000
1000
0000
0100
,
1000
0001
0100
0000
1000
0000
0001
0000
,
1000
0100
1000
0100
0000
0001
0010
0000
,
0001
0100
0001
0100
0000
1000
0010
0000
,
0100
0000
0000
0010
0100
0000
0000
0000
,
2002
0000
0000
3003
,
1000
0010
0100
0000
0001
0000
1000
0000
,
0001
0010
0001
1000
0100
0000
0101
0000
,
1000
1000
0010
0010
,
0001
1100
1000
0101
,
0020
0000
0032
0000
,
0203
0000
2300
0000
,
3100
0000
0010
0000
1000
0000
1000
0100
,
0010
0001
0010
0001
1000
0000
0100
0000
,
0010
0000
0000
0100
0000
0000
0000
0000
,
0000
0010
0000
0000
0001
0200
0000
0000
,
0010
0000
0000
1000
0000
0000
0000
0000
,
0000
0310
0000
0000
1000
0100
1000
0010
,
0010
0000
0000
0100
0000
0000
0000
0000
,
0000
0010
0000
0000
1000
0100
0000
0000
,
0001
0010
0100
0000
1000
0100
1000
0000
,
0001
0000
1000
0000
0001
0010
0100
1000
,
0001
0000
1100
0000
0010
0001
0010
0001
,
1000
0011
1000
0100
,
0020
0001
0100
1030
,
0200
0000
0310
0000
,
1000
0000
0100
1000
0010
0000
0000
0000
,
0001
0000
0100
0001
0010
0000
0001
1000
,
0100
0000
0010
0001
0010
0001
1000
0100
,
2000
0000
0000
3001
,
0001
0010
0100
0000
1000
0000
0001
0000
,
1000
0010
1000
0001
0100
0000
1100
0000
,
0001
0001
0010
0010
,
1000
0101
0001
1100
,
0000
0010
0000
0010
0000
1000
0000
1000
,
0000
0100
0000
0100
0000
0001
0000
0001
,
0100
0000
0010
0000
0001
0000
0001
0100
,
0010
1000
0010
1000
0100
0000
1000
0100
,
1000
0010
0100
0000
0001
0000
1000
0000
,
0001
0010
0001
1000
0100
0000
0101
0000
,
1000
1000
0010
0010
,
0001
1100
1000
0101
,
0010
0100
0010
0000
0001
0000
0001
0000
,
0100
0010
0100
1000
0100
0000
0001
0000
,
0100
0000
0010
0000
1000
0000
1000
0100
,
0010
0001
0010
0001
1000
0000
0100
0000
,
0010
1001
0001
1000
,
1000
0001
0010
0000
0001
0000
1000
0000
,
0010
1001
1000
0001
,
0001
1000
0010
0000
1000
0000
0001
0000
,
0010
1001
0010
0101
,
0100
1100
0010
0110
,
0001
1000
0001
1000
0001
0100
0001
0100
,
0001
0000
0000
0000
0000
0000
0000
0000
1000
0000
0000
0010
0000
0000
0200
0000
,
0000
0300
0000
0000
,
0000
0000
0000
0000
;
#NOTES:
     dance-single:
     :
     Hard:
     13:
     :
0000
0000
0000
0000
,
0000
0000
0000
0000
,
0000
0000
0000
0000
,
0000
0000
0000
0000
,
0000
0000
0000
0000
1000
0100
1000
0001
,
1000
0010
0000
0100
0000
0010
0000
1000
,
0000
0001
0000
0100
0000
0001
0000
0000
,
0001
0000
0010
0000
0100
0000
1000
0000
0001
0000
0000
0100
0000
0000
0001
0000
,
1000
0100
1000
0000
0001
0000
0000
0000
0000
0000
0010
0100
0010
0000
0000
0000
,
1000
0000
0001
0000
0100
0000
0001
0000
0100
0010
0000
0100
0000
0000
0001
0000
,
1000
0010
1000
0100
1000
0001
0100
0001
,
1000
0000
0000
0100
0000
0000
1000
0000
0001
0000
1000
0000
0010
0000
1000
0000
,
0001
0100
0001
0000
1000
0000
0100
0000
1010
0000
1010
0000
0101
0000
0101
0000
,
0001
0000
1000
0000
0100
0000
1000
0000
0100
0010
0000
0100
0000
0000
1000
0000
,
0001
0010
0001
0100
0001
1000
0100
1000
,
0001
0000
0000
0100
0000
0000
0001
0000
1000
0000
0001
0000
0010
0000
0001
0000
,
1000
0100
1000
0000
0001
0000
0100
0000
0001
0000
0010
0000
0100
0000
1000
0000
,
0001
0000
0000
1000
0000
0000
0100
0000
1000
0000
0100
0000
0010
0000
0001
0000
,
2000
0000
0000
0100
0000
0000
3010
0000
0000
0000
0100
0000
0010
0000
1000
0000
,
0001
0000
0000
1000
0000
0000
0010
0000
0000
0000
1000
0000
0100
0000
0010
0000
,
0001
0010
0001
0000
0000
0000
0110
0000
,
1000
0000
0001
0000
0010
0000
0001
1000
0000
0100
0000
1000
0001
0000
0010
0000
,
0001
0000
1000
0000
0010
0000
1000
0001
0000
0100
0000
0001
1000
0000
0010
0000
,
1000
0000
0000
0001
0000
0000
1000
0000
0001
0020
0000
0000
0100
0000
0130
0000
,
0000
0000
0000
0000
0000
0000
0000
0000
0000
0000
1000
0100
1000
0000
0000
0000
,
0001
0000
0000
1000
0001
0000
0100
0000
0001
0000
0000
0010
0100
0000
1000
0000
,
0001
0000
0000
0010
0001
0000
1000
0000
0011
0000
0000
0000
1100
0000
0000
0000
,
0010
0000
0000
0001
0010
0000
0001
0000
1000
0000
0000
0001
1000
0000
0100
0000
,
0000
0000
1000
0000
0100
0000
1000
0000
0001
0010
0001
0000
0000
0000
0000
0000
,
0001
0000
0000
0001
0100
0000
0000
0000
0100
0000
0000
0100
1000
0000
0000
0000
,
1000
0000
0000
1000
0010
0000
0000
0000
0001
0000
0010
0000
0001
0000
1000
0000
,
0200
0000
0010
0000
1300
0000
0001
0010
,
0001
0000
1000
0100
0000
1000
0100
0000
0001
0010
0000
0001
0100
0000
0001
0000
,
1000
0001
0000
0110
0000
1000
0001
1000
,
0000
0110
0000
0000
0001
0200
0000
0000
,
0010
0000
0000
1000
0000
0000
0300
0000
,
0000
0000
0010
0000
0001
0000
0100
0010
1000
0000
0100
0000
1000
0000
0010
0000
,
0010
0000
0000
0100
0000
0000
0000
0000
,
0000
0010
0000
0000
1000
0100
0000
0000
,
0001
0010
0100
1000
0100
0010
1000
0100
,
1000
0000
1100
0000
0000
0000
0000
1000
0001
0000
0010
0000
0001
0100
0000
0000
,
0001
0010
0100
1000
0010
0001
1000
0001
,
1000
0100
1000
0001
1000
0010
0100
0001
,
0010
0100
1000
0100
0001
0100
1000
0000
,
0200
0000
0001
0000
1000
0300
0000
0000
,
0001
0000
0000
0100
0000
0000
0001
0000
0010
0000
0000
0000
1001
0000
0000
0000
,
0001
0000
0000
0100
0000
0000
0001
0000
0010
0000
0001
0000
1000
0000
0001
0000
,
0100
0001
0010
0001
0010
0001
1000
0100
,
2000
0000
0000
0000
0000
0000
3000
0000
0000
0000
0000
0000
1000
0010
1000
0000
,
0001
0000
0000
0010
0000
0000
0100
0000
1000
0000
0000
0010
0000
0000
1000
0000
,
0001
0000
0000
0010
0000
0000
0100
0000
2000
0000
0000
0000
0002
0000
3003
0000
,
0010
0000
0000
1000
0010
0000
1000
0000
0001
0000
0000
1000
0001
0000
0100
0000
,
0000
0000
0001
0000
0100
0000
0001
0000
1000
0010
1000
0000
0000
0000
0000
0000
,
0000
0000
0001
1000
0100
0000
0000
0000
0000
0000
0001
0100
0001
0000
0000
0000
,
0000
0000
1000
0001
0010
0000
0100
0000
1000
0000
0000
0001
0000
0000
1000
0000
,
0100
1000
0001
0010
0001
0100
1000
0100
,
0001
0000
1000
0100
0000
1000
0100
0000
1100
0000
0000
0000
0001
0010
0001
0000
,
1000
0000
0000
0001
1000
0000
0100
0000
1000
0000
0000
0010
0100
0000
0001
0000
,
1000
0000
0000
0010
1000
0000
0001
0000
1010
0000
0000
0000
0101
0000
0000
0000
,
0010
0000
0000
1000
0010
0000
1000
0000
0001
0000
0000
1000
0001
0000
0100
0000
,
0000
0001
0100
0001
1000
0100
1000
0001
,
1000
0000
0000
1000
0100
0000
0000
0000
0100
0000
0000
0100
0001
0000
0000
0000
,
0001
0000
0000
0001
0010
0000
0001
0000
0100
0000
0010
0000
1000
0000
0001
0000
,
0200
0000
0000
0000
0010
0000
0000
0000
0001
0000
0300
0000
0001
0100
0010
0000
,
1000
0000
0001
0100
0000
0001
0100
0000
0001
0010
0000
0100
1000
0000
0100
0000
,
1000
0100
1000
0100
0010
0001
1000
0100
,
1000
0001
0010
0001
0101
0000
1100
0000
,
0010
1000
0001
0100
0001
0010
0001
0010
,
0001
1000
0010
0000
1010
0000
0101
0000
,
0010
0001
0010
0000
0001
0000
0000
0000
1000
0100
1000
0000
0010
0000
0000
0000
,
0001
0010
0001
0000
1000
0000
0000
0000
0010
0100
0010
0000
0100
0000
0000
0000
,
0001
0010
1000
0010
0001
0100
1000
0100
,
0000
0000
0000
0000
0000
0000
0000
0000
1100
0000
0000
0011
0000
0000
0220
0000
,
0000
0330
0000
0000
,
0000
0000
0000
0000
;
#NOTES:
     dance-double:
     :
     Easy:
     6:
     :
00000000
00000000
00000000
00000000
,
00000000
00000000
00000000
00000000
,
00000000
00000000
00000000
00000000
,
00000000
00000000
00000000
00000000
,
00000000
00000000
10000000
00000000
,
10000000
00000000
00100000
00000000
,
00010000
00000000
00001000
00000000
,
00000100
00000001
00000010
00001000
,
00010000
00000000
00000000
00000000
,
00001000
00010000
00100000
00000000
,
00100000
10000000
01000000
00000000
,
00010000
00000000
00001000
00000100
,
00000000
00000000
00000001
00000010
,
00001000
00010000
00100000
00000000
,
00100000
10000000
01000000
00000000
,
00010000
00000000
00001000
00000100
,
00000001
00000000
00000001
00000010
,
00001000
00010000
00000000
00000000
,
00100000
10000000
00000000
00000000
,
10000000
01000000
00000000
00000000
,
00010000
00001000
00010000
00000000
,
00001000
00010000
00001000
00000000
,
00000100
00000010
00000100
00000000
,
00000001
00000000
00000100
00000000
,
00022000
00000000
00000000
00033000
,
00010000
01000000
10000000
01000000
,
10000000
01000000
10000000
00000000
,
01000000
00000000
00010000
00000000
,
00001000
00000010
00000001
00000100
,
00000001
00000000
00000100
00000000
,
00001000
00000000
00010000
00000000
,
01000000
10000000
01000000
10000000
,
01000000
00000000
10000000
01000000
,
00010000
00000000
00000000
00000000
,
00000000
00000000
00001000
00000000
,
00000100
00000000
00000000
00000000
,
00000000
00000000
00000001
00000010
,
00001000
00000000
00000000
00000000
,
00010000
00000000
01000000
00000000
,
10000000
01000000
00010000
00000000
,
00001000
00010000
00001000
00000000
,
00001000
00000100
00000001
00000001
,
00000100
00000010
00010000
00001000
,
00200000
00000000
00320000
00000000
,
02030000
00000000
03100000
00000000
,
10000000
01000000
00010000
00000000
,
00001000
00000010
00000001
00000001
,
00000100
00001000
00010000
00000000
,
00022000
00000000
00033000
00000000
,
00010000
01000000
10000000
01000000
,
10000000
01000000
10000000
00000000
,
01000000
00000000
00010000
00000000
,
00001000
00000010
00000001
00000100
,
00000001
00000000
00000100
00000000
,
00001000
00000000
00010000
00000000
,
01000000
10000000
01000000
10000000
,
01000000
00000000
00010000
00000000
,
00001000
00000100
00000001
00000100
,
00000001
00000100
00000001
00000000
,
00000100
00000000
00001000
00000000
,
00010000
00100000
10000000
01000000
,
10000000
00000000
01000000
00000000
,
00010000
00000000
00001000
00000000
,
00000100
00000001
00000100
00000001
,
00000100
00000000
00000001
00000100
,
00001000
00000000
00010000
00000000
,
01000000
00100000
00010000
00100000
,
00001000
00000000
00001000
00000000
,
00000100
00000010
00001000
00000010
,
00000000
00000011
00000000
00011000
,
00000000
01100000
00000000
11000000
,
10000000
00100000
00010000
00001000
,
00000100
00000000
00000001
00001000
,
00000200
00000000
00000300
00000000
,
00000000
00000000
00000000
00000000
;
#NOTES:
     dance-double:
     :
     Medium:
     9:
     :
00000000
00000000
00000000
00000000
,
00000000
00000000
00000000
00000000
,
00000000
00000000
00000000
00000000
,
00000000
00000000
00000000
00000000
,
00000000
00000000
10000000
01000000
,
00010000
00001000
00000100
00000001
,
00000010
00000001
00000100
00001000
,
00010000
00000000
00100000
00000000
10000000
00000000
00010000
01000000
,
00002000
00000000
00010000
00013000
,
00001000
00000000
00000100
00000000
00000001
00001000
00000100
00000000
,
00001000
00000000
00000001
00000000
00000100
00000000
00001000
00010000
,
00001000
00000000
00010000
00000000
01000000
00000000
10000000
01000000
,
00000000
00000000
11000000
00110000
,
00010000
00000000
01000000
00000000
10000000
00010000
01000000
00000000
,
00010000
00000000
10000000
00000000
01000000
00000000
00010000
00001000
,
00010000
00001000
00000100
00000001
,
00000100
00000000
00000000
00000000
00000001
00000010
00000001
00000010
,
00000001
00000010
00001000
00010000
,
01000000
10000000
01000000
00010000
,
00001000
00100000
00010000
00100000
,
00001000
00010000
00001000
00000100
,
00000001
00000100
00000001
00000100
00000000
00000000
00001000
00000000
,
00010000
00001000
00010000
00001000
00000000
00000000
01000000
00000000
,
00010000
00000000
00000000
10000000
01000000
00000000
00000000
00000000
,
20020000
00000000
00000000
30030000
,
10000000
01000000
00010000
00001000
,
00010000
00001000
00010000
00001000
01000000
00000000
00010000
00000000
,
01000000
00001000
00010000
00001000
,
00000010
00000001
00000100
00001000
,
00010000
00001000
00010000
00000000
01000000
00000000
00000000
00000000
,
10000000
01000000
00010000
00000000
00001000
00000000
00000000
00000000
,
00000010
00001000
00010000
00001000
,
01000000
00100000
10000000
01000000
,
00010000
00000000
00000000
00001000
00000000
00000000
00000000
00000000
,
00000000
00000100
00000000
00000000
00000001
00000010
00000000
00000000
,
00001000
00000000
00000000
00010000
00000000
00000000
00000000
00000000
,
00000000
00100000
00000000
00000000
10000000
01000000
10000000
01000000
,
10000000
00000000
00000000
01000000
00000000
00000000
00000000
00000000
,
00000000
00010000
00000000
00000000
00001000
00000100
00000000
00000000
,
00000001
00000010
00001000
00010000
,
01000000
00000000
10000000
00000000
00010000
10000000
00010000
00000000
,
10000000
00000000
01000000
00000000
00010000
00000000
00001000
00010000
,
00001000
00000100
00000001
00000100
,
00000020
00001000
00000100
00000031
,
00000200
00000000
00001300
00000000
,
00010000
00000000
01000000
10000000
01000000
00000000
00000000
00000000
,
10000000
00000000
00100000
00010000
00100000
00000000
00001000
00010000
,
00001000
00000000
00000000
00000000
00000100
00000000
00000001
00000010
,
00000002
00000000
00000000
00000103
,
00000001
00000100
00001000
00010000
,
00001000
00010000
00001000
00010000
00000100
00000000
00001000
00000000
,
00000100
00010000
00001000
00010000
,
00100000
10000000
01000000
00010000
,
00001000
00010000
00001000
00000000
00000100
00000000
00000000
00000000
,
00000001
00000100
00001000
00000000
00010000
00000000
00000000
00000000
,
00100000
00010000
00001000
00010000
,
00000010
00001000
00010000
01000000
,
10000000
01000000
00010000
00001000
,
00010000
00001000
00010000
00001000
01000000
00000000
00010000
00000000
,
01000000
00001000
00010000
00001000
,
00000010
00000001
00000100
00001000
,
00010000
00001000
00010000
00000000
01000000
00000000
00000000
00000000
,
10000000
01000000
00010000
00000000
00001000
00000000
00000000
00000000
,
00000010
00001000
00010000
00001000
,
01000000
00100000
10000000
01000000
,
00010000
00011000
00001000
00000100
,
00000001
00000010
00000001
00000000
00000100
00000000
00001000
00000000
,
00001000
00011000
00010000
01000000
,
10000000
00100000
10000000
00000000
01000000
00000000
10000000
00000000
,
10100000
00010000
00001000
00011000
,
00000100
00000110
00000001
00000011
,
00000001
00000000
00000100
00000000
00001000
00010000
00100000
00000000
,
00000000
00000000
00000000
00000000
00000000
00000000
00000000
00000000
10000000
00000000
00000000
00100000
00000000
00000000
02000000
00000000
,
00000000
03000000
00000000
00000000
,
00000000
00000000
00000000
00000000
;
#NOTES:
     dance-double:
     :
     Hard:
     13:
     :
00000000
00000000
00000000
00000000
,
00000000
00000000
00000000
00000000
,
00000000
00000000
00000000
00000000
,
00000000
00000000
00000000
00000000
,
00000000
00000000
00000000
00000000
10000000
01000000
00010000
00001000
,
00000100
00000010
00000000
00000100
00000000
00000010
00000000
00001000
,
00000000
00000001
00000000
00000100
00000000
00000001
00000000
00000010
,
00000001
00000100
00001000
00010000
01000000
10000000
00000000
00010000
,
10000000
01000000
10000000
00000000
00010000
00000000
00000000
00000000
00000000
00000000
00001000
00010000
00001000
00000000
00000000
00000000
,
00001000
00000000
00000100
00000000
00000001
00000000
00000100
00000000
00000001
00000010
00000000
00000100
00000000
00000000
00001000
00000000
,
00000001
00000010
00001000
00010000
00100000
10000000
01000000
10000000
,
00010000
00000000
00000000
01000000
00000000
00000000
10000000
00000000
01000000
00000000
00010000
00000000
00100000
00000000
00001000
00000000
,
00010000
00001000
00010000
00000000
00000010
00000000
00000000
00000000
00010000
00000000
00001000
00000000
00011000
00000000
00011000
00000000
,
00010000
00000000
01000000
00000000
10000000
00000000
01000000
00000000
10000000
00100000
00000000
01000000
00000000
00000000
00010000
00000000
,
10000000
00100000
00010000
00001000
00010000
00000010
00010000
00000010
,
00001000
00000000
00000000
00000100
00000000
00000000
00001000
00000000
00000100
00000000
00001000
00000000
00000010
00000000
00000100
00000000
,
00000011
00000000
00000110
00000000
00011000
00011000
00010000
01000000
,
10000000
00000000
00000000
01000000
00000000
00000000
00010000
00000000
00001000
00000000
00000100
00000000
00000001
00000000
00000010
00000000
,
00000002
00000000
00000000
00000100
00000000
00000000
00000013
00000000
00000000
00000000
00000001
00000000
00000010
00000000
00001000
00000000
,
00010000
00000000
00000000
00100000
00000000
00000000
10000000
00000000
00000000
00000000
01000000
00000000
10000000
00000000
00100000
00000000
,
00010000
00001000
00010000
00000000
00000000
00000000
00011000
00000000
,
00001000
00000000
00000100
00000000
00000001
00000000
00001000
00000001
00000000
00000100
00000000
00000001
00001000
00000000
00000010
00000000
,
00010000
00000000
00000100
00000000
00000010
00000000
00000001
00001000
00000000
00000100
00000000
00001000
00000001
00000000
00000010
00000000
,
00001000
00000000
00000000
00010000
00000000
00000000
00001000
00000000
00010000
00200000
00000000
00000000
01000000
00000000
01300000
00000000
,
00000000
00000000
00000000
00000000
00000000
00000000
00000000
00000000
00000000
00000000
00100000
01000000
00100000
00000000
00000000
00000000
,
10000000
00000000
00000000
00100000
00010000
00000000
00000000
00000000
00001000
00000000
00000000
00010000
00001000
00000000
00000000
00000000
,
00000100
00000000
00000000
00000001
00000100
00000000
00000000
00000000
00000001
00000000
00000000
00000000
00000100
00000000
00000000
00000000
,
00001000
00000000
00000000
00010000
00001000
00000000
00010000
00000000
00100000
00000000
10000000
00000000
00010000
00000000
01000000
00000000
,
00000000
00000000
00010000
00000000
01000000
00000000
00010000
00000000
10000000
00100000
10000000
00000000
00000000
00000000
00000000
00000000
,
00010000
00000000
00000000
10000000
01000000
00000000
00000000
00000000
10000000
00000000
00000000
01000000
00010000
00000000
00000000
00000000
,
00001000
00000000
00000000
00010000
00001000
00000000
00000000
00000000
00010000
00000000
00001000
00000000
00000100
00000000
00000001
00000000
,
00000100
00000000
00000010
00000000
00000001
00000000
00000010
00010000
,
00000010
00000000
00010000
00001000
00000000
00010000
00001000
00000000
00100000
00001000
00000000
00010000
00001000
00000000
00010000
00000000
,
00100000
10000000
00000000
01000000
00000000
00000000
00010000
00000000
,
00000000
00000100
00000000
00000000
00000001
00000001
00000000
00000000
,
00000100
00000000
00000000
00000001
00000000
00000000
00000000
00000000
,
00000000
00000000
00001000
00000000
00010000
00000000
01000000
10000000
01000000
00000000
10000000
00000000
00100000
00000000
01000000
00000000
,
00001000
00000000
00000000
00010000
00000000
00000000
00000000
00000000
,
00000000
00001000
00000000
00000000
00000100
00000001
00000000
00000000
,
00000001
00000100
00001000
00010000
01000000
10000000
00100000
01000000
,
00001000
00000000
00000000
00000000
00010000
00000000
00000000
00001000
00010000
00000000
00001000
00000000
00010000
00001000
00000000
00000000
,
00010000
00001000
00000100
00000001
00000010
00000001
00000100
00001000
,
00010000
00100000
00010000
00001000
00010000
01000000
10000000
00010000
,
10000000
01000000
00010000
00001000
00000010
00000001
00000100
00000000
,
00000011
00000110
00011000
01010000
,
10000000
00000000
00000000
01000000
00000000
00000000
00010000
00000000
00001000
00000000
00000000
00000000
00011000
00000000
00000000
00000000
,
00001000
00000000
00000000
00000100
00000000
00000000
00000001
00000000
00000010
00000000
00000001
00000000
00000100
00000000
00001000
00000000
,
00010000
00100000
10000000
01000000
10000000
01000000
00010000
00001000
,
00022000
00000000
00000000
00000000
00000000
00000000
00033000
00000000
00000000
00000000
00000000
00000000
00000010
00000001
00000010
00000000
,
00000001
00000000
00000000
00000010
00001000
00000000
00000000
00000000
00010000
00000000
00000000
00001000
00010000
00000000
00000000
00000000
,
01000000
00000000
00000000
10000000
01000000
00000000
00000000
00000000
10000000
00000000
00000000
00000000
01000000
00000000
00000000
00000000
,
00010000
00000000
00000000
00001000
00010000
00000000
00001000
00000000
00000010
00000000
00000001
00000000
00001000
00000000
00000100
00000000
,
00000000
00000000
00001000
00000000
00000100
00000000
00001000
00000000
00000001
00000010
00000001
00000000
00000000
00000000
00000000
00000000
,
00001000
00000000
00000000
00000001
00000100
00000000
00000000
00000000
00000001
00000000
00000000
00000100
00001000
00000000
00000000
00000000
,
00010000
00000000
00000000
00001000
00010000
00000000
00000000
00000000
00001000
00000000
00010000
00000000
01000000
00000000
10000000
00000000
,
01000000
00000000
00100000
00000000
10000000
00000000
00100000
00001000
,
00100000
00000000
00001000
00010000
00000000
00001000
00010000
00000000
00000010
00000000
00000000
00000000
00000001
00000000
00000010
00000000
,
00000001
00000000
00000000
00000010
00001000
00000000
00000000
00000000
00010000
00000000
00000000
00001000
00010000
00000000
00000000
00000000
,
01000000
00000000
00000000
10000000
01000000
00000000
00000000
00000000
10000000
00000000
00000000
00000000
01000000
00000000
00000000
00000000
,
00010000
00000000
00000000
00001000
00010000
00000000
00001000
00000000
00000010
00000000
00000001
00000000
00001000
00000000
00000100
00000000
,
00000000
00001000
00000100
00010000
00000100
00001000
00000000
00000000
,
00001000
00000000
00000000
00000001
00000100
00000000
00000000
00000000
00000001
00000000
00000000
00000100
00001000
00000000
00000000
00000000
,
00010000
00000000
00000000
00001000
00010000
00000000
00000000
00000000
00001000
00000000
00010000
00000000
01000000
00000000
10000000
00000000
,
01000000
00000000
00100000
00000000
10000000
00000000
00100000
00001000
,
00100000
00000000
00001000
00010000
00000000
00001000
00010000
00000000
00000010
00010000
00000000
00001000
00010000
00000000
00001000
00000000
,
00000100
00000001
00000010
00000100
00000001
00000100
00001000
00000001
,
00000100
00001000
00010000
00100000
00011000
00000000
00001100
00000000
,
00000100
00000001
00000010
00000100
00000001
00000100
00001000
00000001
,
00000100
00001000
00010000
00100000
10100000
00000000
00110000
00000000
,
00100000
00010000
00100000
00000000
00001000
00000000
00000000
00000000
00010000
00001000
00010000
00000000
00000100
00000000
00000000
00000000
,
00000001
00000010
00000001
00000000
00000100
00000000
00000000
00000000
00001000
00010000
00001000
00000000
01000000
00000000
00000000
00000000
,
10000000
00100000
00010000
00001000
00000100
00000001
00000010
00000100
,
00000000
00000000
00000000
00000000
00000000
00000000
00000000
00000000
00001100
00000000
00000000
01010000
00000000
00000000
22000000
00000000
,
00000000
33000000
00000000
00000000
,
00000000
00000000
00000000
00000000
;
