
//----- song id: ftsy
#TITLE:Summer fantasy (Darwin remix);
#ARTIST:Lazy U1 ft. Fraz & Chalk E;
#BANNER:Summer fantasy (Darwin remix).png;
#BACKGROUND:Summer fantasy (Darwin remix)-bg.png;
#CDTITLE:./CDTitles/DDR (2014).png;
#MUSIC:Summer fantasy (Darwin remix).ogg;
#SAMPLESTART:49.495;
#SAMPLELENGTH:15;
#BPMS:0=178;
#NOTES:
     dance-single:
     :
     Beginner:
     2:
     :
0000
0000
0000
0000
,
0000
0000
0000
0000
,
0000
0000
0000
0000
,
0000
0000
0000
0000
,
0000
0000
0000
0000
,
0000
0000
0000
0000
,
0000
0000
0000
0000
,
1000
0000
1000
0000
,
1000
0000
0000
0000
,
0100
0000
0000
0000
,
0000
0000
0000
0000
,
0001
0000
0000
0000
,
0001
0000
0001
0000
,
0001
0000
0000
0000
,
0001
0000
0000
0000
,
1000
0000
0000
0000
,
1000
0000
1000
0000
,
1000
0000
0000
0000
,
1000
0000
0000
0000
,
0001
0000
0001
0000
,
0001
0000
0000
0000
,
1000
0000
1000
0000
,
1000
0000
0000
0000
,
0001
0000
0001
0000
,
0001
0000
0000
0000
,
1000
0000
1000
0000
,
1000
0000
0000
0000
,
0100
0000
0000
0000
,
0100
0000
0000
0000
,
0001
0000
0001
0000
,
0001
0000
0000
0000
,
0100
0000
0000
0000
,
0100
0000
0000
0000
,
1000
0000
1000
0000
,
1000
0000
0000
0000
,
1001
0000
0000
0000
,
0000
0000
0000
0000
,
0001
0000
0001
0000
,
1000
0000
0000
0000
,
1000
0000
1000
0000
,
0001
0000
0000
0000
,
0100
0000
0100
0000
,
0100
0000
0000
0000
,
0001
0000
1000
0000
,
0001
0000
0000
0000
,
1000
0000
1000
0000
,
0001
0000
0000
0000
,
0001
0000
0001
0000
,
1000
0000
0000
0000
,
0100
0000
0100
0000
,
0100
0000
0000
0000
,
0100
0000
0000
0000
,
0000
0000
0000
0000
,
0001
0000
0000
0000
,
0001
0001
0001
0000
,
1000
0000
0000
0000
,
1000
1000
1000
0000
,
0100
0000
0100
0000
,
0100
0000
0000
0000
,
1000
0000
0001
0000
,
1000
0000
0000
0000
,
1000
0000
0000
0000
,
1000
1000
1000
0000
,
0001
0000
0000
0000
,
0001
0001
0001
0000
,
0010
0000
0010
0000
,
0010
0000
0000
0000
,
0100
0000
0000
0000
,
0010
0000
0000
0000
,
1001
0000
0000
0000
,
0000
0000
0000
0000
;
#NOTES:
     dance-single:
     :
     Easy:
     7:
     :
0000
0000
0000
0000
,
0000
0000
0000
0000
,
0000
0000
0000
0000
,
0000
0000
0000
0000
,
0000
0000
0000
0000
,
0000
0000
0000
0000
,
0000
0000
0000
0000
,
0001
1000
0001
0000
,
0001
1000
0100
0000
,
0002
0000
0000
0000
,
0003
0000
0000
0000
,
0000
0001
0000
0001
,
0010
0001
0100
0001
,
0000
1000
0000
1000
,
0010
0100
0010
1000
,
0000
0001
0000
0001
,
0010
0100
0000
0010
,
0001
1000
0001
1000
,
0001
1001
0110
0000
,
1000
0100
0000
0100
,
0001
0100
0000
0100
,
1000
0001
0000
0001
,
0100
0010
0000
0010
,
1000
0010
0000
0010
,
0001
0010
0000
0010
,
1000
0100
0001
0010
,
1000
1001
0110
0000
,
1000
0001
1000
0001
,
1000
0100
1000
0100
,
0010
0001
0010
0001
,
0100
0001
0100
0001
,
1000
0010
1000
0100
,
1000
0001
0100
0001
,
0010
0100
1000
0100
,
0010
0001
1000
0001
,
2002
0000
0000
0000
,
0000
0000
3003
0000
,
0000
0001
0100
0001
,
2001
0001
3010
0000
,
0000
1000
0100
1000
,
1002
1000
0013
0000
,
0100
0100
0010
0010
,
1000
0001
1000
0000
,
0100
0000
0100
0000
0001
1000
0001
0000
,
1000
0000
0001
0000
,
0000
0010
1000
0010
,
0120
0100
1030
0000
,
0000
0100
0010
0100
,
0210
0010
0301
0000
,
0001
0001
1000
1000
,
0100
0010
0100
0000
,
2000
0000
0000
0000
,
3001
0000
1000
0000
,
0001
0100
0010
1000
,
0010
1001
1100
0000
,
1000
0010
0100
0001
,
0100
1001
0011
0000
,
1000
0100
0001
0010
,
1000
0100
0001
0000
,
1000
0000
0001
0000
1000
0001
1000
0000
,
0001
0000
1000
0000
,
0001
0010
0100
1000
,
0001
0101
0110
0000
,
1000
0100
0010
0001
,
1000
1100
0110
0000
,
0001
0100
1000
0010
,
0001
0100
1000
0000
,
0020
0000
0000
0000
,
0100
0100
0130
0000
,
2002
3003
0000
0000
,
0000
0000
0000
0000
;
#NOTES:
     dance-single:
     :
     Medium:
     10:
     :
0000
0000
0000
0000
,
0000
0000
0000
0000
,
0000
0000
0000
0000
,
0000
0000
0000
0000
,
0000
0000
0000
0000
,
0000
0000
0000
0000
,
0000
0000
0000
0000
,
0100
0000
0010
1000
0010
0000
1000
0000
,
0010
0010
0100
0000
,
1001
0000
0000
0000
,
0020
0000
0130
0000
,
0001
1100
0001
0010
,
0001
1100
0001
0010
,
0001
0101
1000
0010
,
0001
0101
1000
0010
,
0001
1100
0001
0010
,
0001
1100
0001
0010
,
0001
0000
0101
0000
0001
1000
0001
0000
,
0101
0110
1010
0000
,
1000
0101
1000
0010
,
1000
0101
1000
0010
,
1000
0000
1100
0000
0001
0100
0010
0000
,
1010
1001
0101
0010
,
1000
0101
1000
0010
,
1000
0101
1000
0010
,
1000
0000
1100
0000
0001
1000
0001
0000
,
1001
0110
1001
0000
,
1100
0000
0100
1000
0000
0000
0100
1000
,
0000
0000
0010
0001
0000
0000
0010
0001
,
0000
0000
0010
0100
0000
0000
0010
0100
,
0000
0000
0001
1000
0000
0000
0001
1000
,
0001
0000
0001
0010
0000
0000
0010
0100
,
0000
0000
0100
1000
0000
0000
1000
0001
,
0000
0000
0100
0010
0000
0000
0001
1000
,
0001
0001
0101
0000
,
0010
1000
0100
0001
,
1000
0010
0001
0100
,
1010
1200
0302
0103
,
0201
0000
0310
0000
1100
0000
1000
0001
,
0100
0201
2300
3100
,
1200
0310
0101
0010
,
0100
0000
0001
0100
0001
0000
0010
0000
,
0100
1000
0100
0000
0011
0000
0000
0000
,
0001
0000
1000
0100
1000
0100
1000
0000
,
2000
0100
3001
0000
,
0101
0021
2030
3010
,
1020
0000
0130
0000
0011
0000
0001
1000
,
0010
1020
0032
0013
,
0021
0130
1010
0100
,
0010
0000
0010
0100
0001
0000
1000
0000
,
0001
0100
0001
0100
0001
0000
0000
0000
,
0010
0000
0010
0100
0000
0100
1000
0000
,
1200
0000
0310
0000
,
0101
0000
0001
0100
1000
0000
0100
0000
,
0021
0100
1000
0130
,
0011
0000
0001
0010
1000
0000
0100
0000
,
1200
0010
0001
0310
,
1000
0000
1000
0100
0010
0000
0001
0000
,
0100
0001
0100
0001
0100
0000
0000
0000
,
1000
0000
0001
0010
0100
1000
0001
0000
,
0021
0000
0130
0000
,
0011
0000
0010
0001
0100
0000
0101
0000
,
1010
0000
0101
0000
1100
0000
0010
0001
,
1000
0000
0100
1000
0010
0000
1010
0000
,
0101
0011
1100
0000
,
0001
0000
1000
0100
0010
0000
0100
0000
,
1000
0010
0100
0010
1000
0000
0001
0000
,
0100
0000
0010
0010
0010
0000
0010
0000
,
0020
0000
0100
0030
,
2020
0000
3030
0000
,
0000
0000
0000
0000
;
#NOTES:
     dance-single:
     :
     Hard:
     13:
     :
0000
0000
0000
0000
,
0000
0000
0000
0000
,
0000
0000
0000
0000
,
0000
0000
0000
0000
,
0000
0000
0000
0000
,
0000
0000
0000
0000
,
0000
0000
0000
0000
,
0011
0000
0001
0001
0100
0000
0010
0000
,
1000
0001
1001
1001
,
0100
0000
0010
0010
0010
0000
0010
0000
,
2100
0000
3001
0000
,
0100
0000
0011
0010
0100
0000
1000
0000
,
0100
0011
1100
0011
,
0100
0000
0011
0010
0100
1000
0001
0000
,
0100
0012
0100
0013
,
0100
0000
1010
0010
0100
0000
0001
0000
,
0100
1010
0101
1010
,
0100
0000
1010
0010
0100
0001
0010
0100
,
1000
1100
0101
0000
,
0100
0000
1010
0100
0100
0000
0010
0000
,
0100
0011
0101
1100
,
0100
0000
0011
0100
0100
0000
0010
0000
,
0100
1010
1100
0101
,
0100
0000
1010
0100
0100
0000
0010
0000
,
0100
0011
1010
1100
,
0101
0000
0010
1000
0001
0010
0100
1000
,
0002
1000
1000
1003
,
0001
0100
0020
1000
0000
0130
0001
1000
,
0001
0100
0020
1000
0000
0130
0001
1000
,
0100
1000
0020
0100
0000
1030
0100
0010
,
0001
1000
0020
0100
0000
1030
0100
0010
,
0100
0100
0010
1000
0100
0100
0010
1000
,
0100
0100
0010
1000
0100
0100
0010
1000
,
0100
0100
0001
0010
0100
0100
0001
0010
,
0100
0100
0001
0010
0100
0000
0100
0000
,
2000
3020
0230
0302
,
0023
2030
3002
0203
,
1300
0000
0001
0010
0100
0000
1100
0000
,
0010
0001
0010
0001
0100
0000
0012
0000
,
0103
0000
1000
0010
0100
0000
0101
0000
,
0010
1000
0010
1000
0100
0000
1010
0000
,
0001
0000
1000
0100
0100
0001
0100
0100
,
0001
0010
0100
1000
0001
0000
0011
0000
,
1100
0000
0010
0001
0100
1000
0020
0000
,
0130
0000
0000
0000
1001
0000
0100
0010
,
0100
0000
1000
0100
0010
0000
0011
0000
,
0100
1000
0100
1000
0010
0000
0100
1000
,
0010
0000
0100
0100
0010
0000
1010
0000
,
0100
0001
0100
0001
0010
0000
0101
0000
,
1000
0000
0010
0010
1000
0001
0010
0010
,
1000
0100
0010
0001
1000
0000
1100
0000
,
0011
0000
0100
0110
0000
0010
1010
0000
,
2000
0010
0001
3100
,
1100
0010
0001
0010
0001
0100
0010
1000
,
1100
0000
0011
0000
1100
0000
0010
0100
,
0100
1000
0001
1000
0001
0100
0010
1000
,
1100
0011
1100
0010
,
0001
0010
0100
0100
0010
1000
0100
0100
,
0001
0010
0100
1000
0001
0000
0100
0000
,
0011
0000
1000
0100
0001
0010
0200
0000
,
0310
0000
1000
0000
1001
0000
0001
0100
,
0010
0000
1000
0100
0010
0100
0001
0100
,
0010
1000
0010
1000
0101
0000
0010
0100
,
0100
1000
0001
0010
0100
1000
1100
0000
,
0100
1000
0010
1000
0101
0000
1010
0000
,
0001
1000
0100
0100
0001
1000
0100
0100
,
0001
0010
0100
1000
0001
0000
0011
0000
,
1001
0000
0010
0010
0010
0000
0010
0000
,
2100
0010
3001
0000
,
2200
0000
0000
3300
,
0000
0000
0000
0000
;
#NOTES:
     dance-single:
     :
     Challenge:
     11:
     :
0000
0000
0000
0000
,
0000
0000
0000
0000
,
0000
0000
0000
0000
,
0000
0000
0000
0000
,
0000
0000
0000
0000
,
0000
0000
0000
0000
,
0000
0000
0000
0000
,
1100
0000
0010
0010
0000
0000
0010
0000
,
1000
1000
0100
0000
,
0202
0000
0000
0303
,
MMMM
MMMM
0010
0000
,
MMMM
MMMM
0101
1100
,
MMMM
MMMM
1100
0101
,
MMMM
MMMM
0011
1010
,
MMMM
MMMM
1010
0011
,
MMMM
MMMM
0101
1010
,
MMMM
MMMM
1100
0011
,
MMMM
MMMM
0110
1001
,
MMMM
0110
0110
0000
,
MMMM
0000
0101
0000
0010
MMMM
0101
0000
,
MMMM
0000
1010
0000
0100
MMMM
1010
0000
,
MMMM
0000
1100
0000
0010
MMMM
1100
0000
,
MMMM
0010
MMMM
1001
,
MMMM
0000
0101
0000
0010
MMMM
1100
0000
,
MMMM
0000
1010
0000
0100
MMMM
0011
0000
,
MMMM
0000
0100
0000
1001
MMMM
0110
0000
,
1001
1001
1001
0000
,
MMMM
0000
0010
0100
0000
0000
0010
0100
,
MMMM
0000
1000
0010
0000
0000
1000
0010
,
MMMM
0000
0001
0010
0000
0000
0001
0010
,
MMMM
0000
0100
0010
0000
0000
0100
0010
,
MMMM
0000
0010
1000
MMMM
0000
0010
0001
,
MMMM
0000
0001
0100
MMMM
0000
1000
0100
,
MMMM
0000
0010
0100
MMMM
0000
0010
0100
,
MMMM
0000
0001
1000
0001
0000
1000
0000
,
0010
MMMM
1000
MMMM
0100
MMMM
0001
MMMM
,
0010
MMMM
1000
MMMM
0100
MMMM
0001
0000
,
0010
0000
1000
0100
0010
0000
0100
0000
,
1010
1001
1100
MMMM
,
MMMM
0000
0001
0100
0010
0000
0100
0000
,
0011
1001
0101
MMMM
,
1001
MMMM
0110
MMMM
,
1000
0001
1000
0001
0202
0000
0303
0000
,
MMMM
0110
MMMM
1001
,
MMMM
0000
MMMM
0000
0010
0000
0100
0010
,
MMMM
0000
0001
0010
0100
0000
1000
0000
,
1010
0101
0011
MMMM
,
MMMM
0000
1000
0010
0100
0000
0001
0000
,
0011
1100
1010
MMMM
,
1001
MMMM
0110
MMMM
,
0010
0100
0010
0100
2020
0000
3030
0000
,
0100
0000
0010
0100
0000
0010
0200
0000
,
0000
0000
0300
0000
,
0011
0000
MMMM
0100
0100
0000
1000
0000
,
1020
0000
0130
MMMM
0101
0000
0001
1000
,
MMMM
0000
MMMM
0100
0100
0000
0001
0000
,
0201
0000
0310
MMMM
1010
0000
1000
0000
,
0002
0000
0013
MMMM
2000
0000
3100
MMMM
,
0001
1000
0001
1000
0200
0000
0310
0000
,
0002
0000
0103
MMMM
1000
0010
2000
0000
,
0001
0100
0001
3010
,
1100
0000
MMMM
0010
0010
0000
0001
0000
,
0201
0000
0310
MMMM
1010
0000
1000
0001
,
MMMM
0000
MMMM
0010
0010
0000
1000
0000
,
1010
MMMM
0110
MMMM
0101
0000
0001
0000
,
2000
0000
3100
MMMM
0002
0000
0013
MMMM
,
1000
0001
1000
0001
0020
0000
0130
0000
,
0110
MMMM
MMMM
MMMM
,
0001
0001
0000
1000
1000
0000
0000
0000
,
0202
0000
0000
0000
,
0303
0000
0000
0000
,
0000
0000
0000
0000
;
#NOTES:
     dance-double:
     :
     Easy:
     7:
     :
00000000
00000000
00000000
00000000
,
00000000
00000000
00000000
00000000
,
00000000
00000000
00000000
00000000
,
00000000
00000000
00000000
00000000
,
00000000
00000000
00000000
00000000
,
00000000
00000000
00000000
00000000
,
00000000
00000000
00000000
00000000
,
00100000
00000000
01000000
00000000
,
00010000
00010000
01000000
00000000
,
00002000
00000000
00000000
00000000
,
00003000
00000000
00000000
00000000
,
00000000
00000100
00000000
00000100
,
00000001
00000010
00000000
00000010
,
00000001
00001000
00000000
00001000
,
00000100
00001000
00010000
00010000
,
00001000
00010000
00000000
00010000
,
00001000
01000000
00000000
01000000
,
00100000
00100000
10000000
00010000
,
10000000
10000000
01100000
00000000
,
00010000
00001000
00000000
00001000
,
00010000
00000100
00000000
00000100
,
00001000
00000010
00000000
00000010
,
00000100
00000001
00000000
00000001
,
00000100
00000010
00000000
00000010
,
00001000
00000100
00000000
00000100
,
00010000
00010000
00001000
00100000
,
00010000
00010000
01100000
00000000
,
10000000
01000000
10000000
01000000
,
10000000
00010000
10000000
00010000
,
00100000
00010000
00100000
00010000
,
00100000
00001000
00100000
00001000
,
00010000
00001000
00010000
00001000
,
00010000
00000100
00010000
00000100
,
00001000
00000100
00001000
00000100
,
00001000
00000001
00001000
00000001
,
00002002
00000000
00000000
00000000
,
00000000
00000000
00003003
00000000
,
00000000
00000001
00000100
00000010
,
00002000
00000100
00003010
00000000
,
00000000
00000100
00001000
00010000
,
00002000
00010000
00103000
00000000
,
00010000
00010000
10000000
10000000
,
00010000
10000000
00010000
00000000
,
10000000
00010000
00001000
00010000
,
10000000
00000000
00010000
00000000
,
00000000
10000000
01000000
00100000
,
00020000
01000000
00130000
00000000
,
00000000
01000000
00010000
00001000
,
00020000
00001000
00030010
00000000
,
00001000
00001000
00000001
00000001
,
00001000
00000001
00001000
00000000
,
00000002
00000000
00000000
00000000
,
00000103
00000000
00001000
00000000
,
00010000
00001000
00010000
01000000
,
00100000
00100000
10010000
00000000
,
01000000
00010000
00001000
00010000
,
00001000
00001000
00011000
00000000
,
00001000
00001000
00000100
00000001
,
00001000
00001000
00000001
00000000
,
00000001
00001000
00010000
00001000
,
00000001
00000000
00001000
00000000
,
00000001
00001000
00000010
00000100
,
00001000
00010000
00011000
00000000
,
01000000
00100000
10000000
00010000
,
00100000
00100000
10010000
00000000
,
10000000
10000000
00010000
00010000
,
10000000
00010000
00001000
00000000
,
00000200
00000000
00000000
00000000
,
00000010
00000000
00000310
00000000
,
00001001
00000000
00000000
00000000
,
00000000
00000000
00000000
00000000
;
#NOTES:
     dance-double:
     :
     Medium:
     10:
     :
00000000
00000000
00000000
00000000
,
00000000
00000000
00000000
00000000
,
00000000
00000000
00000000
00000000
,
00000000
00000000
00000000
00000000
,
00000000
00000000
00000000
00000000
,
00000000
00000000
00000000
00000000
,
00000000
00000000
00000000
00000000
,
00011000
00000010
00000100
00000010
,
00000100
00001000
00010000
00000000
,
01100000
00000000
00000000
00000000
,
20000000
00000000
31000000
00000000
,
00010000
01100000
10000000
01100000
,
00010000
01100000
10000000
01100000
,
00100000
00011000
00000100
00011000
,
01000000
00011000
00000010
00011000
,
00001000
00000110
00000001
00000110
,
00001000
00000110
00000001
00000110
,
00000100
00011000
00100000
00011000
,
00000010
00011000
01000000
00000000
,
10000000
01010000
10000000
00100000
,
01000000
00011000
01000000
00100000
,
00010000
00001100
00010000
00000010
,
00001000
00000101
00001001
00000100
,
00000001
00001100
00000001
00000010
,
00000100
00011000
00000100
00000010
,
00001000
00000000
00110000
00000000
00001000
00010000
01000000
00000000
,
11000000
01010000
10010000
00000000
,
10100000
00000000
10000000
01000000
00000000
00000000
01000000
00010000
,
00000000
00000000
00010000
00001000
00000000
00000000
00001000
00000100
,
00000000
00000000
00000100
00000001
00000000
00000000
00000001
00000100
,
00000000
00000000
00000100
00001000
00000000
00000000
00001000
00010000
,
01000000
00000000
10000000
00100000
00000000
00000000
01000000
00010000
,
00000000
00000000
00100000
00001000
00000000
00000000
00010000
00000100
,
00000000
00000000
00001000
00000010
00000000
00000000
00000100
00000001
,
00001000
00000001
00001001
00000000
,
00000001
00000010
00000100
00001000
,
00010000
00100000
01000000
10000000
,
10010000
00000000
10000000
01000000
10000000
00000000
01000000
00000000
,
01200000
00000000
00010000
00000000
00301000
00000000
00010000
00001000
,
00010000
00000000
00000010
00001000
00000010
00000000
00000100
00000000
,
00010020
00001000
00000130
00000001
,
00000100
00000000
00000001
00001000
00000001
00000000
00000100
00000000
,
00000100
00001000
00010000
00000000
00011000
00000000
00000000
00000000
,
01000000
00000000
00010000
00100000
00010000
00100000
00001000
00000000
,
00020000
00000100
00030010
00000100
,
00001001
00000000
00000001
00000010
00000001
00000000
00000010
00000000
,
00000210
00000000
00001000
00000000
00010300
00000000
00001000
00010000
,
00001000
00000000
01000000
00010000
01000000
00000000
00100000
00000000
,
02001000
00010000
03100000
10000000
,
00100000
00000000
10000000
00010000
10000000
00000000
00100000
00000000
,
00100000
00010000
00001000
00000000
00011000
00000000
00000000
00000000
,
00000010
00000000
00000010
00000001
00000000
00000001
00000100
00000000
,
00002000
00000000
00013000
00000000
,
00101000
00000000
00010000
01000000
00100000
00000000
00010000
00000000
,
00002000
00000000
00100000
00000000
00010000
00000000
00003100
00000010
,
00001000
00000000
00000001
00000010
00000100
00000000
00000010
00000000
,
00002000
00000010
00010000
01003000
,
00100000
00000000
00100000
10000000
01000000
00000000
00100000
00000000
,
00010000
10000000
00010000
10000000
01000000
00000000
00100000
00000000
,
00010000
00000000
10000000
01000000
00010000
00001000
00010000
00000000
,
00012000
00000000
00003100
00000000
,
00010100
00000000
00001000
00000010
00000100
00000000
00001000
00000000
,
00020000
00000000
00000100
00000000
00001000
00000000
00130000
01000000
,
00010000
00000000
10000000
01000000
00100000
00000000
01000000
00000000
,
00020000
00001000
00030010
00001010
,
00000100
00000000
00000100
00000001
00000010
00000000
00000100
00000000
,
00000010
00000001
00001000
00000100
00010000
00000000
00000100
00000000
,
00000010
00000000
00001000
00001000
00001000
00000000
00001000
00000000
,
00020000
00000000
01030000
00000000
,
01100000
00000000
00000000
00000000
,
00000000
00000000
00000000
00000000
;
#NOTES:
     dance-double:
     :
     Hard:
     13:
     :
00000000
00000000
00000000
00000000
,
00000000
00000000
00000000
00000000
,
00000000
00000000
00000000
00000000
,
00000000
00000000
00000000
00000000
,
00000000
00000000
00000000
00000000
,
00000000
00000000
00000000
00000000
,
00000000
00000000
00000000
00000000
,
01010000
00000000
00100000
00100000
10000000
00000000
00100000
00000000
,
01000000
01010000
01001000
00010000
,
00011000
00000000
00000100
00000100
00000100
00000000
00000100
00000000
,
00000102
00000000
00000013
00000000
,
00000100
00000000
00001010
00000010
00000100
00000000
00010010
00000000
,
00000100
00000000
00001010
00001000
00000100
00000000
00010010
00000000
,
00000100
00000000
00001010
00000010
00000100
00000000
00010010
00000000
,
00000100
00002010
00010000
00003010
,
00010000
00000000
00101000
00001000
01000000
00000000
00110000
00000000
,
01000000
00000000
00101000
00100000
01000000
00000000
00110000
00000000
,
01000000
00000000
00101000
00001000
01000000
00010000
00100000
01000000
,
10000000
11000000
01100000
00000000
,
00001000
00000000
00011000
00000100
00000001
00000000
00000010
00000000
,
00000100
00000000
00011000
01000000
10000000
00000000
00100000
00000000
,
01000000
00000000
00011000
00000100
00000001
00000000
00000010
00000000
,
00000100
00000000
00011000
01000000
10000000
00000000
10000000
00100000
,
00010000
00000000
00011000
00000010
00000001
00000000
00000100
00000000
,
00000010
00000000
00011000
00100000
10000000
00000000
01000000
00000000
,
00100000
00000000
00011000
00000010
00000001
00000100
00001000
00010000
,
00002000
00010000
00010000
00013000
,
00000100
00010000
00000010
00001000
00000000
00001000
00000010
00001000
,
00000100
00010000
00001000
00100000
00000000
00100000
00001000
00010000
,
00000100
00001000
00000010
00000100
00000000
00000100
00000001
00001000
,
00000100
00010000
00000010
00001000
00000000
00001000
00000100
00010000
,
00001000
00100000
00010000
01000000
00000000
00100000
00010000
01000000
,
00010000
00100000
00001000
01000000
00000000
00100000
00001000
01000000
,
00010000
10000000
00100000
01000000
00000000
10000000
00100000
01000000
,
00010000
00100000
00001000
01000000
00100000
10000000
00010000
00000000
,
20000000
32000000
03200000
00320000
,
00032000
00003200
00000320
00000032
,
00000103
00000000
00000001
00000100
00001000
00000000
00000110
00000000
,
00000010
00001000
00000100
00001000
00000010
00000000
00000100
00000100
,
00000001
00000000
00000100
00001000
00010000
00000000
00011000
00000000
,
00001000
00100000
00010000
00100000
00010000
00000000
10010000
00000000
,
00100000
00000000
10000000
01000000
01000000
00000000
00010000
01000000
,
10000000
01000000
00010000
00001000
00000100
00000000
00000101
00000000
,
00001010
00000000
00000010
00000100
00001000
00010000
00100000
00000000
,
01000000
00000000
01000000
00000000
10010000
00000000
01000000
00100000
,
01000000
00000000
10000000
01000000
00010000
00000000
01100000
00000000
,
00100000
00010000
01000000
00010000
00100000
00000000
01000000
01000000
,
10000000
00000000
01000000
00010000
00001000
00000000
00011000
00000000
,
00010000
00000010
00001000
00000010
00001000
00000000
00001001
00000000
,
00000010
00000000
00000001
00000100
00000100
00000000
00001000
00000100
,
00000001
00000100
00001000
00010000
01000000
00000000
11000000
00000000
,
20000000
00000000
00100000
30200000
00000000
00010000
00320000
00000000
,
00000010
00000100
00001000
01030000
,
01100000
00000000
10000000
00100000
01000000
00010000
00100000
01000000
,
11000000
00000000
01010000
00000000
00011000
00000000
00001000
00000100
,
00000001
00000000
00000001
00000100
00000010
00001000
00000100
00000010
,
00000011
00001010
00000011
00000100
,
00001000
00010000
00001000
00001000
00000100
00010000
00001000
00001000
,
00010000
00001000
00100000
00010000
01000000
00000000
00100000
00000000
,
01010000
00000000
00100000
10000000
01000000
00010000
00002000
00000000
,
00100000
00000000
01000000
00000000
00010000
00000000
00003100
00000010
,
00000100
00000000
00000001
00000010
00000100
00001000
00000010
00000100
,
00000101
00000000
00001100
00000000
00011000
00000000
00010000
01000000
,
10000000
00000000
10000000
01000000
00100000
00010000
01000000
00100000
,
10100000
01010000
00101000
00010100
,
00010000
00001000
00010000
00010000
01000000
00001000
00010000
00010000
,
00001000
00010000
00000010
00001000
00000100
00000000
00000010
00000000
,
00001001
00000000
00000100
00000100
00000100
00000000
00000100
00000000
,
00002001
00000000
00013000
00000000
,
01010000
00000000
00000000
00000000
,
00000000
00000000
00000000
00000000
;
#NOTES:
     dance-double:
     :
     Challenge:
     13:
     :
00000000
00000000
00000000
00000000
,
00000000
00000000
00000000
00000000
,
00000000
00000000
00000000
00000000
,
00000000
00000000
00000000
00000000
,
00000000
00000000
00000000
00000000
,
00000000
00000000
00000000
00000000
,
00000000
00000000
00000000
00000000
,
00010000
00000000
00100000
00100000
00000000
00000000
00100000
00000000
,
01000000
01000000
10000000
00000000
,
00022000
00000000
00000000
00033000
,
00012000
00000000
00003001
00000000
,
MMMMMMMM
MMMMMMMM
00001100
00000101
,
MMMMMMMM
MMMMMMMM
01010000
11000000
,
MMMMMMMM
MMMMMMMM
00001010
00000011
,
MMMMMMMM
MMMMMMMM
00110000
10100000
,
MMMMMMMM
MMMMMMMM
00000110
00001001
,
MMMMMMMM
MMMMMMMM
01100000
10010000
,
MMMMMMMM
MMMMMMMM
00000110
00001001
,
MMMMMMMM
00011000
00011000
00000000
,
MMMMMMMM
01010000
MMMMMMMM
00001100
,
MMMMMMMM
00110000
MMMMMMMM
00001010
,
MMMMMMMM
01100000
MMMMMMMM
00011000
,
MMMMMMMM
00000110
MMMMMMMM
00000101
,
MMMMMMMM
00000000
00010100
00000000
00001000
MMMMMMMM
00110000
00000000
,
MMMMMMMM
00000000
11000000
00000000
00010000
MMMMMMMM
00101000
00000000
,
MMMMMMMM
00000000
00000011
00000000
00000100
MMMMMMMM
00001001
00000000
,
00001100
00011000
00110000
00000000
,
MMMMMMMM
00000000
00010000
00001000
00000000
00000000
00000010
00000000
,
MMMMMMMM
00000000
00000100
00001000
00000000
00000000
00010000
00000000
,
MMMMMMMM
00000000
10000000
01000000
00000000
00000000
00010000
00000000
,
MMMMMMMM
00000000
00000010
00000100
00000000
00000000
00001000
00000000
,
MMMMMMMM
0000MMMM
00010000
00001000
MMMM0000
00000000
0100MMMM
0010MMMM
,
00000000
0000MMMM
00010000
00001000
MMMM0000
00000000
MMMM0100
MMMM0010
,
00000000
MMMM0000
00001000
00010000
0000MMMM
00000000
0010MMMM
0100MMMM
,
00000000
0000MMMM
00010000
00001000
00010000
00000000
00011000
00000000
,
00002000
00003002
00002003
00023000
,
20030000
30020000
00032000
00003002
,
00001003
00000000
00010000
00001000
00010000
00000000
00001000
00000000
,
00020010
00000000
0000MMMM
00000000
00030100
00000000
00001000
00010000
,
01000000
00000000
10000000
01000000
10000000
00000000
00010000
00000000
,
00102000
MMMM0000
01003000
00100000
,
10010000
MMMM1000
00011000
0001MMMM
,
00001001
0001MMMM
00022000
00033000
,
MMMMMMMM
0110MMMM
MMMMMMMM
MMMM0110
,
00000002
00000000
00000023
00000000
00000230
00000000
00001300
00010000
,
00001000
00000000
00100000
01000000
00100000
00000000
00001000
00000000
,
00010100
00000000
0001MMMM
00000000
00010010
00000000
00001000
00010000
,
00100000
00000000
10000000
01000000
10000000
00000000
00010000
00000000
,
01001000
MMMM1000
00101000
01000000
,
10010000
MMMM1000
00011000
0001MMMM
,
00001001
0001MMMM
00022000
00033000
,
02000000
00000000
00000000
00000000
00000000
00000000
00000000
0000MMMM
,
00001000
0000MMMM
00000000
00000000
00000000
00000000
03000000
00000000
,
10010000
00000000
10000000
01000000
00100000
00000000
00010000
00000000
,
00201000
0000MMMM
00302000
MMMM0000
00013000
00000000
00000100
00000000
,
00001001
00000000
00000001
00000100
00000010
00000000
00001000
00000000
,
00010020
MMMM0000
00020030
0000MMMM
00031000
00000000
01000000
00000000
,
10010000
MMMM1000
0001MMMM
00000010
,
00001001
0001MMMM
MMMM1000
00011000
,
MMMMMMMM
00000000
00010000
00001000
00010000
00001000
00010000
MMMMMMMM
,
00000200
00000320
00000032
00000013
,
00001001
00000000
00000001
00000100
00001000
00000000
00010000
00000000
,
00012000
00000000
MMMM3001
00000000
0001MMMM
00000000
00001000
00010000
,
01000000
00000000
10000000
01000000
00010000
00000000
00001000
00000000
,
00021000
1003MMMM
MMMM1000
00010100
,
00001001
0001MMMM
MMMM1000
00100000
,
10010000
MMMM1000
0001MMMM
00011000
,
00000200
00000000
00000000
00000000
00000000
00000000
00000000
MMMM0000
,
00010000
MMMM0000
00000000
MMMM0000
00010300
MMMMMMMM
00000000
00000000
,
00011000
00000000
00000000
00000000
,
00000000
00000000
00000000
00000000
;
