
//----- song id: strg
#TITLE:Struggle;
#ARTIST:Masayoshi Minoshima(ALR);
#BANNER:Struggle.png;
#BACKGROUND:Struggle-bg.png;
#CDTITLE:./CDTitles/DDR (2014).png;
#MUSIC:Struggle.ogg;
#SAMPLESTART:67.443;
#SAMPLELENGTH:15;
#DISPLAYBPM:180;
#BPMS:0=180;
#NOTES:
     dance-single:
     :
     Beginner:
     4:
     :
0000
0000
0000
0000
,
0000
0000
0000
0000
,
0000
0000
0000
0000
,
0010
0000
0000
0000
,
0010
0010
0010
0000
,
1000
0000
0000
0000
,
1000
1000
1000
0000
,
0001
0000
0000
0000
,
0001
0001
0001
0000
,
1000
0000
0100
0000
,
0001
0000
0100
0000
,
0010
0000
0000
0000
,
0010
0010
0010
0000
,
0001
0000
0000
0000
,
0001
0001
0001
0000
,
1000
0000
0000
0000
,
1000
1000
1000
0000
,
0001
0000
0100
0000
,
1000
0000
0100
0000
,
0010
0010
0010
0000
,
1000
0000
0010
0000
,
0010
0010
0010
0000
,
0001
0000
0010
0000
,
0100
0100
0100
0000
,
1000
0000
0100
0000
,
0100
0100
0100
0000
,
0001
0000
0100
0000
,
0010
0010
0010
0000
,
0001
0000
0010
0000
,
0010
0010
0010
0000
,
1000
0000
0010
0000
,
0100
0100
0100
0000
,
0001
0000
0100
0000
,
0100
0100
0100
0000
,
1000
0000
0100
0000
,
0001
0000
0000
0000
,
0100
0000
0000
0000
,
1000
0000
0000
0000
,
0100
0000
0000
0000
,
0001
0000
0000
0000
,
0010
0000
0000
0000
,
0001
0000
0000
0000
,
0100
0000
0000
0000
,
1000
1000
1000
0000
,
0001
0001
0001
0000
,
0010
0010
0010
0000
,
1000
1000
1000
0000
,
0010
0010
0010
0000
,
0010
0010
0010
0000
,
0000
0000
0000
0000
,
0000
0000
0000
0000
,
1000
1000
1000
0000
,
0100
0100
0100
0000
,
1000
0000
0100
0000
,
1000
0000
0100
0000
,
0001
0001
0001
0000
,
0100
0100
0100
0000
,
0001
0000
0100
0000
,
0001
0000
0100
0000
,
1000
1000
1000
0000
,
0100
0100
0100
0000
,
1000
1000
1000
0000
,
0010
0010
0010
0000
,
0001
0000
0000
0000
,
0100
0000
0000
0000
,
0001
0001
0001
0000
,
0010
0010
0010
0000
,
0010
0000
0000
0000
,
0010
0010
0010
0000
,
0001
0000
0000
0000
,
0001
0001
0001
0000
,
1000
0000
0000
0000
,
1000
1000
1000
0000
,
0001
0000
0100
0000
,
1000
0000
0100
0000
,
0010
0000
0000
0000
,
0010
0010
0010
0000
,
1000
0000
0000
0000
,
1000
1000
1000
0000
,
0001
0000
0000
0000
,
0001
0001
0001
0000
,
1000
0000
0100
0000
,
0001
0000
0100
0000
,
1001
0000
0000
0000
,
0000
0000
0000
0000
;
#NOTES:
     dance-single:
     :
     Easy:
     6:
     :
0000
0000
0000
0000
,
0000
0000
0000
0000
,
0000
0000
0000
0000
,
0010
0000
0010
0000
,
0010
0001
1000
0000
,
0010
0000
1000
0000
,
0010
1000
0001
0000
,
0010
0000
0010
0000
,
1000
0001
1000
0000
,
0100
0001
1000
1000
,
1000
0001
1000
0001
,
0010
0000
1000
0000
,
0001
0010
0100
0000
,
0010
0000
0010
0000
,
1000
0001
1000
0000
,
0010
0000
0010
0000
,
0001
0010
0001
0010
,
0100
0100
0100
0100
,
0100
0000
0000
0000
,
0001
1000
1000
0100
,
0010
0000
0100
0000
,
1000
0010
0100
0001
,
1000
0000
0100
0000
,
0010
0100
1000
0100
,
0010
0000
0001
0000
,
0010
0001
1000
0100
,
0010
0000
1000
0000
,
1000
0001
0001
0100
,
0010
0000
0100
0100
,
0001
0010
0100
1000
,
0001
0000
0100
0000
,
0010
0100
0001
0100
,
0010
0000
1000
0000
,
0010
0100
0001
0100
,
0010
0010
0010
0010
,
0002
0000
0000
0003
,
0010
0010
0100
0000
,
0020
0000
0000
0030
,
1000
1000
0010
0000
,
2000
0000
0000
3000
,
0001
0010
0001
0000
,
0200
0000
0000
0300
,
0010
0000
0010
0000
,
0001
0001
0100
0100
,
1000
1000
0100
0000
,
0001
0001
0100
0100
,
1000
1000
0100
0000
,
0001
0010
1000
0010
,
0001
0010
1000
0100
,
1000
0000
0000
0000
,
0000
0000
0000
0000
,
1001
0110
1001
0000
,
0100
0000
0100
0000
,
1000
0100
0001
0100
,
1000
0100
0001
0000
,
1001
0110
1001
0000
,
1001
0110
1001
0000
,
0001
0000
0000
0000
,
1000
0100
0000
0010
,
0001
0100
1000
0100
,
0001
0100
1000
0100
,
0001
0100
1000
0100
,
0001
0100
0000
0100
,
0010
0000
0100
0000
,
0010
0000
0100
0000
,
1000
0000
0001
0000
,
1000
0001
1000
0001
,
0010
0000
0010
0000
,
0010
0001
1000
0000
,
0010
0000
1000
0000
,
0010
1000
0001
0000
,
0010
0000
0010
0000
,
1000
0001
1000
0000
,
0100
0001
1000
1000
,
1000
0001
1000
0001
,
0010
0000
1000
0000
,
0001
0010
0100
0000
,
0010
0000
0010
0000
,
1000
0001
1000
0000
,
0010
0000
0010
0000
,
0001
0010
0001
0010
,
0100
0100
0100
0100
,
0100
0000
0000
0000
,
1001
0000
0000
0000
,
0000
0000
0000
0000
;
#NOTES:
     dance-single:
     :
     Medium:
     10:
     :
0000
0000
0000
0000
,
0000
0000
0000
0000
,
0000
0000
0000
0000
,
0010
0001
1000
0000
0010
0000
1000
0000
,
0010
1000
1000
0100
,
0010
0100
0010
0000
0001
0000
0100
0000
,
0010
0000
1000
0000
1000
0010
1000
0000
,
0010
0001
0010
0001
,
1000
0000
0100
0000
1000
0001
0100
0000
,
0001
0100
0001
0000
1000
0100
0000
0000
,
1000
0001
1000
1000
,
0010
1000
0001
0000
0010
0000
0001
0001
,
0000
1000
0000
1000
0001
1000
0001
0000
,
0010
0100
0010
0000
1000
0100
1000
0100
,
0000
1000
0000
1000
0001
0010
0001
0010
,
0001
1000
0010
1000
,
0001
0000
0100
0000
0001
1000
0100
0000
,
1000
0100
1000
0000
0001
0100
0000
0000
,
0001
1000
0001
1000
,
0001
0100
0001
0000
1000
0000
0100
0000
,
1000
0100
0001
0100
,
1000
0100
1000
0000
0100
0000
1000
0000
,
0100
0001
0100
1000
,
0010
0100
0010
0000
1000
0000
0100
0000
,
0010
0001
0001
0010
,
0010
0001
1000
0100
,
0010
0001
1000
0010
,
1000
0100
1000
0000
0001
0000
0100
0000
,
0001
0000
0100
0000
1000
0000
0100
0001
,
0100
0001
0100
0001
,
0100
0000
1000
0000
0100
0000
0001
0100
,
0010
0010
0001
0100
,
0010
0000
1000
0000
1000
0000
0010
0100
,
0010
0010
0010
0100
,
0110
1001
0110
0110
,
0002
0000
0100
0003
,
0010
0010
0100
0000
,
0020
0000
0001
0030
,
1000
1000
0010
0000
,
2000
0000
0100
3000
,
0001
0010
0001
0000
,
0200
0000
1000
0300
,
0010
0010
0010
0010
,
0001
0100
0001
0000
0100
0000
0100
0000
,
1000
1000
0100
0100
,
0001
0010
0001
0000
0100
0000
0100
0000
,
1000
1000
0100
0100
,
0001
0010
0001
0010
0001
0000
0010
0000
,
0001
0010
1000
0100
,
1000
0001
0100
0000
0001
0000
0100
0000
,
0001
0010
0001
0010
0001
0010
0001
0000
,
0011
0000
0110
0000
1001
0000
0100
0001
,
0000
1000
0100
1000
0000
0000
0000
0000
,
1000
0100
0001
0100
,
1000
0100
0001
0010
,
0011
0000
1100
0000
0011
0000
1000
0100
,
0000
0100
1000
0100
0000
0000
0000
0000
,
0001
0010
0001
1000
,
0001
0000
0001
0000
0010
0100
0010
0000
,
0001
1000
0100
0000
1000
0000
0100
0000
,
0001
0100
1000
0100
,
1000
0001
0100
0000
0001
0000
0100
0000
,
1000
0000
0100
0010
0100
0010
0100
0010
,
0100
0000
0100
0000
,
0010
0000
0100
0000
,
1100
1100
0011
0011
,
1000
0001
1000
0001
,
0010
0001
1000
0000
0010
0000
1000
0000
,
0010
1000
1000
0100
,
0010
0100
0010
0000
0001
0000
0100
0000
,
0010
1000
0100
1000
,
0010
1000
0001
0000
0010
0000
0001
0000
,
1000
0000
0100
0000
1000
0001
0100
0000
,
0001
0100
0001
0000
1000
0100
0000
0000
,
1000
0001
1000
1000
,
0010
1000
0001
0000
0010
0000
0001
0000
,
0010
0001
0001
0100
,
0010
0100
0010
0000
1000
0000
0100
0000
,
0010
0000
0001
0000
0001
0010
0001
0000
,
0010
1000
0010
1000
,
0001
0000
0100
0000
0001
1000
0100
0000
,
1000
0100
1000
0000
0001
0100
0000
0000
,
0001
1000
0001
1000
,
1001
0000
0000
0000
,
0000
0000
0000
0000
;
#NOTES:
     dance-single:
     :
     Hard:
     13:
     :
0000
0000
0000
0000
,
0000
0000
0000
0000
,
0000
0000
0000
0000
,
1000
0100
1000
0100
0010
0001
1000
0100
,
0000
0100
0010
0001
1000
0100
1000
0001
,
0010
0100
0010
0100
1000
0010
0100
0001
,
0000
0001
0000
0001
0100
0010
0100
1000
,
0001
0100
0001
0100
0010
1000
0001
0100
,
0000
0100
0010
1000
0001
0100
0010
0100
,
0110
0000
1001
0000
1000
0010
0000
1000
,
0000
0001
0000
1000
0100
0010
0100
0000
,
0001
0100
0001
0100
0010
1000
0001
1001
,
0000
1001
0000
1000
0001
0100
0001
1000
,
0010
0100
0010
0100
0001
0010
0100
1000
,
0000
1000
0000
1000
0100
0010
0100
0001
,
1000
0100
1000
0100
0010
0001
1000
0100
,
0000
0100
0010
0001
1000
0100
0010
0100
,
0110
0000
1001
0000
0001
0010
0000
0001
,
0000
1000
0000
0001
0100
0010
0100
0000
,
0001
0000
1100
0000
1000
0010
0100
0001
,
0010
0001
0100
0010
0100
1000
0100
0000
,
1000
0000
0110
0000
0100
0010
1000
0001
,
1000
0010
0100
0001
0100
0001
0100
0000
,
0010
0000
0110
0000
1000
0010
0100
0001
,
0010
0001
0100
0010
0100
0001
0010
0001
,
1000
0100
1000
0100
0001
0100
1000
0100
,
1000
0001
1000
0010
1000
0100
1000
0000
,
1100
1100
0101
0000
0001
0010
0100
1000
,
0010
1000
0100
0010
0100
0001
0100
0000
,
0001
0000
0110
0000
0100
0010
0001
1000
,
0001
0010
0100
1000
0100
1000
0100
0000
,
0010
0000
0110
0000
0001
0010
0100
1000
,
0010
1000
0100
0010
0100
1000
0010
1000
,
0001
0100
0001
0100
1000
0100
0001
0000
,
0101
1001
0011
0101
,
0020
1000
1000
0100
,
0100
0001
0000
0130
,
0200
0010
0010
0001
,
0000
1000
0010
0310
,
0020
0001
0001
0100
,
0100
1000
1000
0130
,
0200
0010
0010
1000
,
0000
0001
0010
0310
,
0001
0010
0001
0000
0100
0010
0100
0000
,
1000
0100
1000
0000
0010
0001
0010
0000
,
1000
0001
0100
0000
1000
0100
1000
0000
,
0100
0001
0100
0000
0010
0100
0001
0000
,
0001
0100
0010
1000
0010
0100
0010
1000
,
0001
0100
0001
0010
0001
0010
0100
0010
,
0100
0010
0001
1000
0001
0100
0001
0010
,
0001
1000
0001
0100
0001
1000
0001
1000
,
0011
0000
1001
0000
0101
0000
0010
0001
,
0000
1000
0100
0010
0000
0001
0100
0001
,
1000
0001
1000
0100
1000
0001
1000
0001
,
1000
0010
1000
0001
1000
0100
0010
1000
,
1010
0000
0101
0000
1010
0000
0101
0001
,
0100
0010
0100
0001
0000
1000
0100
1000
,
0001
0000
0010
0000
0001
0000
1000
0100
,
0000
0010
0100
1000
0000
0100
0010
0100
,
1000
0010
1000
0001
1000
0100
0010
1000
,
0000
0001
0100
0010
0000
1000
0100
1000
,
0001
1000
0001
0100
0001
1000
0001
1000
,
0001
0010
0001
1000
0001
0100
0010
0001
,
0011
0010
1100
1000
,
0100
0010
0100
1000
0100
0010
0100
1000
,
1100
1100
0011
0011
,
0001
0010
0100
1000
0100
0010
0001
0000
,
1000
0100
1000
0100
0010
0001
1000
0100
,
0000
0100
0010
0001
1000
0100
1000
0001
,
0010
0100
0010
0100
1000
0010
0100
0001
,
0000
0001
0000
0001
0100
0010
0100
1000
,
0001
0100
0001
0100
0010
1000
0001
0100
,
0000
0100
0010
1000
0001
0100
0010
0100
,
0110
0000
1001
0000
1000
0010
0000
1000
,
0000
0001
0000
1000
0100
0010
0100
0000
,
0001
0100
0001
0100
0010
1000
0001
1001
,
0000
1001
0000
1000
0001
0100
0001
1000
,
0010
0100
0010
0100
0001
0010
0100
1000
,
0000
1000
0000
1000
0100
0010
0100
0001
,
1000
0100
1000
0100
0010
0001
1000
0100
,
0000
0100
0010
0001
1000
0100
0010
0100
,
0110
0000
1001
0000
0001
0010
0000
0001
,
0000
1000
0000
0001
0100
0010
0100
0000
,
1001
0000
0000
0000
,
0000
0000
0000
0000
;
#NOTES:
     dance-double:
     :
     Easy:
     5:
     :
00000000
00000000
00000000
00000000
,
00000000
00000000
00000000
00000000
,
00000000
00000000
00000000
00000000
,
00100000
10000000
00100000
10000000
,
00100000
00000000
00000000
00000000
,
00001000
00000010
00000001
00000100
,
00000010
00000000
00000000
00000000
,
00000001
00000100
00001000
00010000
,
01000000
00000000
10000000
00000000
,
01000000
00000000
00000000
00000000
,
00001000
00000000
00000000
00000000
,
00000010
00000001
00000010
00000001
,
00000010
00000000
00000000
00000000
,
00010000
00100000
10000000
01000000
,
00100000
00000000
00000000
00000000
,
10000000
01000000
00010000
00001000
,
00000100
00000000
00000001
00000000
,
00000100
00000000
00010000
00000000
,
00010000
00001000
00010000
00001000
,
00010000
01000000
10000000
01000000
,
20000000
01000000
00000000
31000000
,
00000000
00000000
00000000
00000000
,
00000000
00000000
00000000
00000000
,
10000000
01000000
00010000
00001000
,
00010000
00000000
00001000
00000000
,
00000000
00000000
00000000
00000000
,
00000000
00000000
00000000
00000000
,
00001000
00000010
00000001
00000100
,
00000002
00000100
00000000
00000103
,
00000000
00000000
00000000
00000000
,
00000000
00000000
00000000
00000000
,
00001000
00010000
00001000
00010000
,
00001000
00010000
00001000
00010000
,
00000200
00000001
00000000
00000001
,
00000301
00000010
00001000
00010000
,
00002000
00000000
00000000
00003000
,
00010000
00100000
10000000
00000000
,
00200000
00000000
00000000
00300000
,
10000000
01000000
00010000
00000000
,
00002000
00000000
00000000
00003000
,
00010000
00001000
00010000
00000000
,
00002000
00000000
00000000
00003000
,
00000100
00000000
00000100
00000000
,
00000001
00000001
00000100
00000100
,
00001000
00001000
00010000
00010000
,
01000000
01000000
10000000
10000000
,
01000000
00010000
00001000
00000000
,
00010000
00000000
00000000
00000000
,
00001000
00000100
00000001
00000000
,
00000001
00000100
00001000
00000000
,
00010000
00100000
10000000
00000000
,
10010000
00000000
01100000
00000000
,
10000000
00000000
01000000
00000000
,
00010000
00001000
00000100
00000000
,
00000001
00000100
00000001
00000010
,
00000001
00000000
00000100
00001000
,
00010000
01000000
10000000
00000000
,
01000000
00000000
00100000
00000000
,
01000000
00000000
00010000
00100000
,
00010000
10000000
01000000
00000000
,
00010000
00001000
00000100
00000000
,
00000001
00000100
00001000
00000000
,
00010000
00100000
10000000
01000000
,
00010000
00000000
00000000
00000000
,
00001000
00000000
00000000
00000000
,
00010000
00000000
00001000
00000000
,
00010000
00000000
00001000
00000000
,
00000010
00000001
00000010
00000001
,
00000010
00000000
00000000
00000000
,
00010000
00100000
10000000
01000000
,
00100000
00000000
00000000
00000000
,
10000000
01000000
00010000
00001000
,
00000100
00000000
00000001
00000000
,
00000100
00000000
00000000
00000000
,
00010000
00000000
00000000
00000000
,
00100000
10000000
00100000
10000000
,
00100000
00000000
00000000
00000000
,
00001000
00000010
00000001
00000100
,
00000010
00000000
00000000
00000000
,
00000001
00000100
00001000
00010000
,
01000000
00000000
10000000
00000000
,
01000000
00000000
00001000
00000000
,
00001000
00010000
00001000
00010000
,
00011000
00000000
00000000
00000000
,
00000000
00000000
00000000
00000000
;
#NOTES:
     dance-double:
     :
     Medium:
     10:
     :
00000000
00000000
00000000
00000000
,
00000000
00000000
00000000
00000000
,
00000000
00000000
00000000
00000000
,
10000000
00010000
10000000
00000000
00100000
00000000
10000000
00000000
,
00100000
10000000
01000000
00010000
,
00001000
00000010
00000001
00000100
,
00000010
00000000
00001000
00000000
00000001
00000010
00001000
00000000
,
00010000
00001000
00100000
00001000
,
00010000
00000000
01000000
00000000
10000000
00010000
01000000
00000000
,
00010000
01000000
00010000
00000000
10000000
01000000
00000000
00000000
,
00010000
00001000
00000010
00000001
,
00000010
00000001
00001000
00000000
00000010
00000000
00001000
00001000
,
00000000
00000001
00000000
00000100
00001000
00000000
00000000
00000000
,
00010000
00000000
01000000
00000000
10000000
01000000
10000000
01000000
,
00000000
10000000
00000000
10000000
01000000
00000000
00000000
00000000
,
00010000
00001000
00000100
00000001
,
00000001
00000000
00000100
00000000
00000001
00001000
00000100
00000000
,
00010000
00001000
00010000
00000000
00001000
01000000
00000000
00000000
,
00010000
10000000
00010000
10000000
,
10000000
01000000
10000000
00000000
10000000
00000000
01000000
00000000
,
00010000
00001000
00000010
00000001
,
00000001
00000100
00000001
00000000
00000100
00000000
00000001
00000000
,
00000100
00001000
00010000
01000000
,
10000000
01000000
00100000
00000000
00010000
00000000
10000000
00000000
,
00100000
00010000
00010000
00001000
,
00001000
00010000
00001000
00000100
,
00000001
00000010
00000100
00001000
,
00000001
00000100
00000001
00000000
00000001
00000000
00000100
00000000
,
00001000
00000000
00010000
00000000
00100000
00000000
10000000
00100000
,
10000000
01000000
10000000
00000000
01000000
00000000
10000000
00000000
,
01000000
00000000
00010000
00000000
00001000
00000000
00000100
00000001
,
00000010
00000100
00000010
00000000
00000001
00000000
00000100
00000000
,
00001000
00000000
00010000
00000000
00001000
00000000
00010000
00001000
,
00010000
00001000
00010000
01000000
,
11000000
01100000
00110000
00011000
,
00020000
00000000
00100000
00000000
,
00000010
00001000
00000100
00030000
,
00002000
00000000
00100000
00000000
,
00000010
00000100
00000100
00003000
,
00002000
00000000
00000010
00000000
,
00100000
00100000
00100000
00003000
,
20000000
00000000
00010000
00000000
,
00100000
01000000
01000000
30000000
,
10000000
01000000
10000000
00000000
01000000
00000000
01000000
00000000
,
00010000
00010000
00001000
00001000
,
00010000
00001000
00010000
00000000
00000100
00000000
00000100
00000000
,
00000001
00000001
00000100
00000100
,
00001000
00010000
00001000
00010000
00001000
00000000
00100000
00000000
,
01000000
00100000
00010000
01000000
,
00010000
10000000
01000000
00000000
10000000
00000000
01000000
00000000
,
00010000
00001000
00010000
00001000
00010000
00001000
00010000
00000000
,
00010000
00000000
00000100
00000000
00001000
00000000
00000100
00010000
,
00000000
00000100
00001000
00000100
00000000
00000000
00000010
00000000
,
00000001
00000100
00001000
00010000
,
00100000
10000000
00010000
10000000
,
01100000
00000000
01010000
00000000
00011000
00000000
00010000
00001000
,
00000000
00000100
00000001
00000100
00000000
00000000
00000000
00000000
,
00000001
00000010
00001000
00010000
,
01000000
00000000
10000000
00000000
00100000
01000000
00100000
00000000
,
10000000
00010000
01000000
00000000
00010000
00000000
01000000
00000000
,
00010000
10000000
01000000
00010000
,
00001000
00010000
00001000
00000000
00010000
00000000
00001000
00000000
,
00100000
00001000
00100000
00000000
00001000
00010000
00000100
00000000
,
00000001
00000000
00000100
00000000
,
00000001
00000000
00000100
00000000
,
00010000
00001000
00010000
00000000
00101000
00000000
00101000
00000000
,
00010000
00100000
00001000
00000000
00000100
00000000
00000001
00000000
,
00000001
00001000
00000001
00000000
00000010
00000000
00000001
00000000
,
00000010
00000001
00000100
00001000
,
00010000
00100000
10000000
01000000
,
00100000
00000000
00010000
00000000
10000000
00100000
00010000
00000000
,
00001000
00010000
00000010
00010000
,
00001000
00000000
00000100
00000000
00000001
00001000
00000100
00000000
,
00001000
00000100
00001000
00000000
00000001
00000100
00000000
00000000
,
00001000
00010000
00100000
10000000
,
00100000
10000000
00010000
00000000
00100000
00000000
00010000
00010000
,
00000000
10000000
00000000
01000000
00010000
00000000
00010000
00000000
,
00001000
00000000
00000100
00000000
00000001
00000100
00000001
00000100
,
00000000
00000001
00000000
00000001
00000100
00000000
00000000
00000000
,
00001000
00010000
01000000
10000000
,
10000000
00000000
01000000
00000000
10000000
00010000
01000000
00000000
,
00001000
00010000
00001000
00000000
00010000
00000100
00000000
00000000
,
00001000
00000001
00001000
00000001
,
00001001
00000000
00000000
00000000
,
00000000
00000000
00000000
00000000
;
#NOTES:
     dance-double:
     :
     Hard:
     12:
     :
00000000
00000000
00000000
00000000
,
00000000
00000000
00000000
00000000
,
00000000
00000000
00000000
00000000
,
00000001
00000100
00000001
00000100
00000010
00001000
00000001
00000100
,
00000000
00001000
00010000
00100000
10000000
01000000
00100000
00000000
,
01000000
00100000
00010000
00100000
01000000
00100000
00001000
00010000
,
00000000
00000100
00000000
00001000
00000100
00000010
00000100
00000000
,
00001000
00000100
00001000
00000100
00000010
00000001
00000100
00001000
,
00000000
00010000
00100000
10000000
00100000
01000000
00100000
01000000
,
01100000
00000000
01010000
00000000
00001000
00010000
00000000
00000010
,
00000000
00001000
00000000
00000001
00000100
00001000
00010000
00000000
,
01000000
10000000
01000000
10000000
00010000
10000000
01000000
00010000
,
00000000
00001000
00000000
00000010
00000001
00000100
00000010
00000000
,
00000100
00000010
00001000
00000010
00000100
00000010
00010000
00001000
,
00000000
01000000
00000000
00010000
01000000
00100000
01000000
00000000
,
00010000
01000000
00010000
10000000
01000000
00010000
00000000
00001000
,
00000000
00000010
00000001
00001000
00000010
00000100
00000010
00000100
,
00000110
00000000
00001100
00000000
00010000
00001000
00000000
00010000
,
00000000
01000000
00000000
10000000
00000000
00100000
01000000
00000000
,
00001000
00000000
01000000
00000000
10000000
00000000
01000000
00010000
,
00100000
00010000
01000000
00100000
01000000
10000000
01000000
00000000
,
10000000
00000000
01000000
00000000
00010000
00000000
00001000
00000100
,
00000001
00000010
00000100
00000001
00000100
00000001
00000100
00000000
,
00000001
00000000
00000100
00000000
00001000
00000000
00010000
00100000
,
10000000
00010000
01000000
00100000
01000000
00010000
00100000
00010000
,
10000000
00000000
01000000
00000000
00010000
00000000
00001000
00000100
,
00000001
00000010
00000001
00001000
00000001
00000100
00000001
00000000
,
00000100
00001000
00010000
00000000
01000000
00100000
01000000
10000000
,
00100000
10000000
01000000
00100000
01000000
10000000
01000000
00000000
,
00010000
00000000
00011000
00000000
00000100
00000001
00001000
00000001
,
00001000
00000010
00000100
00000001
00000100
00000001
00000100
00000000
,
00001000
00000000
00010000
00000000
00100000
10000000
01000000
10000000
,
00100000
10000000
01000000
00100000
01000000
10000000
00100000
10000000
,
00010000
01000000
00001000
00010000
00000100
00001000
00000001
00000000
,
00000011
00000000
00000110
00000000
00001100
00000000
00001000
00000100
,
00020000
00000000
00000010
00001000
,
00100000
00100000
00100000
00030000
,
02000000
00000000
00100000
00010000
,
10000000
10000000
10000000
03000000
,
00002000
00010000
00010000
00000100
,
00000100
00000100
00000100
00003000
,
00000200
00000010
00000010
00001000
,
00000000
00000001
00000010
00001300
,
00010000
00100000
10000000
00000000
00100000
01000000
00100000
00000000
,
10000000
01000000
10000000
00000000
10000000
01000000
00010000
00000000
,
00001000
00000100
00000001
00000000
00001000
00000100
00001000
00000000
,
00000001
00000100
00000001
00000000
00000100
00001000
00010000
00000000
,
00001000
00010000
00001000
00010000
00100000
01000000
00100000
01000000
,
00001000
01000000
00001000
01000000
00010000
00001000
00010000
00001000
,
00010000
00000000
00001000
00000000
00000100
00000000
00000001
00000010
,
00000001
00001000
00000001
00000100
00000001
00001000
00000001
00000100
,
00001000
00000000
00011000
00000000
00011000
00000000
00100000
00010000
,
00000000
10000000
01000000
00100000
00000000
00010000
01000000
00010000
,
10000000
00000000
01000000
00000000
00010000
00001000
00000100
00000001
,
00001000
00000010
00001000
00000001
00001000
00000100
00000010
00000001
,
00000011
00000000
00000110
00000000
00011000
00000000
01010000
00010000
,
01000000
00100000
01000000
00010000
00000000
10000000
01000000
00010000
,
00001000
00000000
00000010
00000000
00000001
00000000
00001000
00000100
,
00000000
00000010
00000001
00000100
00000000
00000001
00000010
00000100
,
00010000
00001000
00010000
00001000
00100000
00010000
00100000
00010000
,
10000000
00010000
10000000
00010000
00000000
10000000
01000000
00010000
,
00001000
00000000
00000100
00000001
00001000
00000001
00001000
00000001
,
00001000
00000010
00001000
00000001
00000100
00001000
00010000
00000000
,
00011000
00100000
00011000
00000100
,
00011000
00100000
00011000
00000100
,
00001000
00000100
00000001
00000100
,
00000001
00000100
00000001
00000100
00001000
00010000
01000000
00000000
,
10000000
01000000
10000000
01000000
00100000
00010000
10000000
01000000
,
00000000
00010000
00001000
00000010
00000001
00000100
00000010
00000000
,
00000100
00000010
00001000
00000010
00000100
00000010
00010000
00001000
,
00000000
01000000
00000000
00010000
01000000
00100000
01000000
00000000
,
00010000
01000000
00010000
01000000
00100000
10000000
01000000
00010000
,
00000000
00001000
00000010
00000001
00000010
00000100
00000010
00000100
,
00000110
00000000
00001100
00000000
00010000
00001000
00000000
00100000
,
00000000
00010000
00000000
10000000
01000000
00010000
00001000
00000000
,
00000100
00000001
00000100
00000001
00001000
00000001
00000100
00001000
,
00000000
00010000
00000000
00100000
10000000
01000000
00100000
00000000
,
01000000
00100000
00010000
00100000
01000000
00100000
00001000
00010000
,
00000000
00000100
00000000
00001000
00000100
00000010
00000100
00000000
,
00001000
00000100
00001000
00000001
00000100
00001000
00000000
00010000
,
00000000
00100000
10000000
00010000
00100000
01000000
00100000
01000000
,
01100000
00000000
01010000
00000000
00001000
00010000
00000000
00001000
,
00000000
00000100
00000000
00000001
00000000
00000010
00000100
00000000
,
00011000
00000000
00000000
00000000
,
00000000
00000000
00000000
00000000
;
