
//----- song id: strb
#TITLE:Strobe♡Girl;
#ARTIST:colate;
#BANNER:Strobe Girl.png;
#BACKGROUND:Strobe Girl-bg.png;
#CDTITLE:./CDTitles/SOUND VOLTEX FLOOR.png;
#MUSIC:Strobe Girl.ogg;
#SAMPLESTART:42.749;
#SAMPLELENGTH:15;
#DISPLAYBPM:190;
#BPMS:0=190;
#NOTES:
     dance-single:
     :
     Beginner:
     3:
     :
0000
0000
0000
0000
,
0000
0000
0000
0000
,
0000
0000
0000
0000
,
0000
0000
0000
0000
,
0000
0000
0000
0000
,
0000
0000
0000
0000
,
0000
0000
0000
0000
,
0000
0000
0000
0000
,
0000
0000
0000
0000
,
0001
0000
0001
0000
,
1000
0000
1000
0000
,
0100
0000
0010
0000
,
0100
0000
0000
0000
,
1000
0000
0100
0000
,
0010
0000
0000
0000
,
0001
0000
0010
0000
,
0100
0000
0000
0000
,
1001
0000
0000
0000
,
0001
0000
0001
0001
,
0001
0000
0000
0000
,
1000
0000
1000
1000
,
1000
0000
0100
0000
,
0010
0000
0001
0000
,
0001
0000
0000
0000
,
0100
0100
0100
0000
,
1001
0000
0000
0000
,
0010
0000
1000
0000
,
0100
0000
0000
0000
,
0010
0000
0001
0000
,
0100
0000
0000
0000
,
0001
0000
0001
0000
,
1000
0000
1000
0000
,
0100
0000
0010
0000
,
0100
0000
0000
0000
,
0001
0001
0001
0000
,
1000
1000
1000
0000
,
0010
0010
0010
0000
,
0100
0100
0100
0000
,
0001
0000
0001
0000
,
0010
0000
0010
0000
,
1000
0000
1000
0000
,
0100
0100
0100
0000
,
1000
1000
1000
0000
,
0001
0001
0001
0000
,
0100
0100
0100
0000
,
0010
0010
0010
0000
,
1000
0000
0100
0000
,
0010
0000
0001
0000
,
1000
0000
0000
0000
,
1001
0000
0000
0000
,
0001
0000
0001
0000
,
1000
0000
1000
0000
,
0001
0000
0010
0000
,
0100
0000
0000
0000
,
1000
0000
1000
0000
,
0001
0000
0001
0000
,
1000
0000
0100
0000
,
0010
0000
0000
0000
,
1001
0000
0000
0000
,
0001
0000
0100
0100
,
0100
0000
0001
0000
,
1000
1000
0000
0000
,
0100
0000
0010
0000
,
0001
0000
0001
0000
,
0010
0000
0100
0000
,
1000
0000
0000
0000
,
1001
0000
0000
0000
,
0001
0000
0000
0000
,
0100
0000
0000
0000
,
0010
0000
0000
0000
,
1000
0000
0000
0000
,
1000
0000
0000
0000
,
0100
0000
0100
0000
,
0010
0010
0010
0000
,
0001
0000
0000
0000
,
0001
0000
0000
0000
,
1000
0000
1000
0000
,
0010
0000
1000
0000
,
0001
0000
0001
0000
,
0100
0000
0100
0000
,
0001
0000
0000
0000
,
1001
0000
0000
0000
,
1000
0000
1000
0000
,
0010
0000
0010
0000
,
0100
0000
0010
0000
,
0001
0000
0000
0000
,
0001
0000
0001
0000
,
0010
0000
0010
0000
,
0100
0000
0010
0000
,
1000
0000
0000
0000
,
1001
0000
0000
0000
,
0000
0000
0000
0000
;
#NOTES:
     dance-single:
     :
     Easy:
     7:
     :
0000
0000
0000
0000
,
0000
0000
0000
0000
,
0000
0000
0000
0000
,
0000
0000
0000
0000
,
0000
0000
0000
0000
,
0000
0000
0000
0000
,
0000
0000
0000
0000
,
0000
0000
0000
0000
,
0000
0000
0000
0000
,
0001
0100
0010
0100
,
0001
1000
0100
0010
,
1000
0100
0001
0100
,
0010
1000
0100
0010
,
0001
0010
1000
0100
,
0001
1000
0100
0010
,
1000
0000
0000
0001
0000
0000
0200
0000
,
0000
0000
0310
0110
,
0001
0000
0000
0000
0000
0001
1000
0000
0000
0000
0000
1000
,
0001
0000
0000
0000
0000
0001
1000
0000
0000
0001
0000
0000
,
0010
0000
0000
0000
0000
0010
0001
0000
0000
0000
0000
0001
,
0010
0000
0000
0000
0000
0010
0001
0000
0000
1000
0000
0000
,
0010
0000
0000
0000
0000
0010
1000
0000
0000
0000
0000
1000
,
0100
0000
0000
0000
0000
0100
0010
0000
0000
0001
0000
0000
,
1000
0100
0010
0001
,
1000
1000
1001
0000
,
0100
0100
0110
0000
,
0001
0100
1000
0001
,
1000
0100
0001
0010
,
0001
0100
1000
0001
,
1000
0100
0001
0010
,
0001
0001
0100
0001
,
1000
1000
0010
1000
,
0001
0010
0100
1000
,
0002
0000
1000
1003
,
1001
0010
1000
0100
,
0001
0010
1000
0001
,
0010
0100
0001
0100
,
0001
0010
1000
0100
,
0001
0010
0001
1000
,
0100
1000
0010
0100
,
0001
1000
0010
1000
,
0001
1000
1001
0000
,
0001
0001
0010
0010
,
1000
0100
0001
0000
,
1000
1000
0100
0100
,
0001
0010
1000
0000
,
0010
1000
0010
1000
,
0001
0100
0001
0100
,
0001
0000
0000
1000
0000
0000
0020
0000
,
0000
0000
0130
1001
,
0001
0100
0010
0001
,
1000
0010
0100
0001
,
0010
1000
0100
0010
,
1000
0100
0001
0010
,
0001
0001
1000
1000
,
0001
0001
0100
0100
,
0000
0010
0010
0010
,
1001
1001
0000
0000
,
0001
0010
0100
0000
,
1000
0010
0100
0000
,
0001
0100
0010
0000
,
1000
0100
0010
0000
,
0001
1000
0010
1000
,
0100
1000
0001
0100
,
0001
0000
0000
0010
0000
0000
0200
0000
,
0000
0000
0000
0300
,
1000
0000
0000
0000
,
0001
0000
0000
0000
,
0010
0000
0000
0000
,
0001
0000
0000
0000
,
0100
0100
0100
0100
,
0001
0100
0100
0100
,
0001
0100
0001
0100
,
0010
0010
1001
0000
,
1001
0000
0000
0000
0000
0000
0001
0001
,
0000
1000
0000
0100
0000
0000
0000
1000
,
1000
0001
0010
0100
,
0001
1000
0100
0010
,
0001
0010
0010
1000
,
0010
0010
0001
1000
,
1001
0000
0000
0010
0000
0000
0200
0000
,
0000
0000
0310
1001
,
0010
1000
0100
0001
,
0010
1000
0001
0100
,
0001
0010
0001
0100
,
0010
1000
0100
0001
,
0000
1001
0001
1000
,
0010
0100
0010
0100
,
0001
0000
0000
0100
0000
0000
0020
0000
,
0000
0000
0000
0130
,
2002
0000
0000
0000
,
0000
0000
0000
0000
,
0000
0000
0000
3003
,
0000
0000
0000
0000
;
#NOTES:
     dance-single:
     :
     Medium:
     10:
     :
0000
0000
0000
0000
,
0000
0000
0000
0000
,
0000
0000
0000
0000
,
0000
0000
0000
0000
,
0000
0000
0000
0000
,
0000
0000
0000
0000
,
0000
0000
0000
0000
,
0000
0000
0000
0000
,
0000
0000
0000
0000
,
1100
0010
0001
0100
,
0010
0000
0001
0000
0100
1000
0010
0000
,
0100
1000
0001
0010
,
0100
0000
0100
0000
0010
0100
0001
0000
,
1010
0100
0001
0010
,
0101
0010
0001
0100
,
1000
0000
0000
0100
0000
0000
0002
0000
,
0000
0000
1000
1003
,
0001
0000
0001
1000
0000
0000
0010
0000
0010
1000
0000
0000
,
0100
0000
0100
1000
0000
0000
0010
0000
0010
1000
0000
0001
,
1000
0000
1000
0001
0000
0000
1000
0000
1000
0010
0000
0000
,
1000
0000
1000
0100
0000
0000
1000
0000
1000
0001
0000
0010
,
0001
0000
0001
1000
0000
0000
0010
0000
0010
1000
0000
0000
,
0010
0000
0010
0100
0000
0000
0001
0000
0001
0010
0000
0000
,
0001
0000
0001
1000
0000
0000
0010
0000
0010
1000
0000
0000
,
1000
0001
0110
0000
,
0001
1000
0110
0000
,
0001
0010
0100
0000
1000
0100
0010
0100
,
0000
0200
0000
0000
0000
0000
0300
0010
,
0010
0001
0100
0000
0001
1000
0100
0010
,
0000
0010
0000
0020
0000
0000
0030
0000
,
0011
0010
0010
0010
,
0101
0100
0100
0100
,
1000
1000
0001
0001
,
1002
1000
1003
1001
,
0011
0100
0010
1000
,
0101
0000
0010
0000
1000
0100
0010
0000
,
0011
1000
0100
0001
,
1100
0000
0001
0000
0010
0100
1000
0000
,
0011
1000
0010
0100
,
1010
0001
0010
0100
,
1001
0000
0100
0000
0100
0000
0100
0010
,
0000
0010
0000
0020
0000
0000
0030
0000
,
0011
1000
0100
0001
,
0110
0000
1000
0000
0001
0010
0100
0000
,
1001
0010
0010
1000
,
0101
0000
1000
0000
0001
0010
0100
1000
,
0001
0001
0010
0101
,
0101
0010
0100
1001
,
1001
0000
0000
0010
0000
0000
0200
0000
,
0000
0000
0010
0310
,
1001
0000
0010
1000
0100
0000
0010
0001
,
0100
0000
0010
1000
0100
0010
0001
0000
,
1001
0000
0010
1000
0100
0000
0010
0001
,
0100
0000
0001
1000
0100
0010
0001
0000
,
1010
1000
0001
0010
,
0100
1010
0100
0011
,
0000
1001
0010
0010
,
0001
1000
0001
0100
0000
0000
0000
0000
,
0002
0000
0100
0003
,
0002
0000
0100
0103
,
1000
0100
0010
0100
0000
1000
0001
1000
,
0100
0100
1010
0000
,
0001
0000
0001
0000
0100
0010
0100
0000
,
0001
0000
0001
0000
0010
0100
0010
0000
,
0001
0000
0000
0100
0000
0000
2000
0000
,
0000
0000
3100
1100
,
1001
0000
0000
0000
,
0010
0000
0000
0010
,
0001
0000
0000
0100
0000
0000
0000
0010
,
0000
0000
0000
1000
,
1001
0100
0100
0100
,
1001
0100
0100
0100
,
1001
0100
0001
0100
,
0101
0101
1010
1010
,
0110
0000
0000
0000
0000
0000
0100
0100
,
0000
0010
0000
0101
0000
0000
0000
0000
,
0101
0010
1000
0010
,
0101
0000
1000
0000
0100
0010
0001
0000
,
0101
0010
1000
0100
,
1010
0001
0100
0010
,
1100
0000
0000
0101
0000
0000
0220
0000
,
0000
0030
0310
1001
,
0101
0010
0100
0001
,
0110
0000
1000
0000
0001
0010
0100
0000
,
1100
0001
0001
0100
,
0011
0000
0100
0000
0010
0100
1000
0000
,
0000
1001
0010
0100
,
1000
0000
0010
0000
1000
0100
0010
0000
,
0001
0000
0000
0100
0000
0000
2000
0000
,
0000
0000
0000
3001
,
2002
0000
0000
0000
,
0000
0000
0000
0000
,
0000
0000
0000
3003
,
0000
0000
0000
0000
;
#NOTES:
     dance-single:
     :
     Hard:
     14:
     :
0000
0000
0000
0000
,
0000
0000
0000
0000
,
0000
0000
0000
0000
,
0000
0000
0000
0000
,
0000
0000
0000
0000
,
0010
0000
0001
0002
0000
1000
2000
0000
,
0000
0000
0003
3001
,
0010
0000
0100
0200
0000
0001
0002
0000
,
0000
0000
0303
0101
,
1000
0100
1000
0100
0010
0100
0010
0100
,
1000
0010
0100
0001
0010
0100
1000
0010
,
1000
0100
1000
0100
0010
0001
0000
2000
,
0000
0000
3100
0000
0001
0010
0100
0000
,
1000
0100
1000
0100
1000
0100
0010
0001
,
1000
0100
1000
0100
1000
0100
0010
0001
,
1000
0000
0001
0002
0000
1000
2000
0000
,
0000
3003
1010
0011
,
0001
0000
0010
0100
0000
1000
0010
0000
0100
0010
0000
1000
,
0001
0000
0010
0001
0000
0100
0001
0100
0001
0100
0000
0100
,
0001
0000
0010
0100
0000
1000
0010
0000
1000
0001
0000
0010
,
0001
0000
0100
0010
0000
1000
0010
1000
0010
1000
0000
0000
,
0000
0000
0000
1001
0000
1000
0001
0000
0010
0100
0000
1000
,
0001
0000
0010
0100
0000
1000
0010
0000
1000
0100
0000
1000
,
0001
0000
0100
0010
0000
0100
0010
0000
1000
0100
0000
0000
,
1000
0001
0110
0000
,
0011
1010
0110
0000
,
1000
0000
0100
0000
0001
0010
0010
0001
,
0000
0220
0000
0000
0000
0000
0030
0310
,
0010
1000
0001
0000
0100
0001
1000
0001
,
0000
1100
0000
0202
0000
0000
0000
0303
,
0001
0010
0001
0010
0001
0010
0001
0001
,
1000
0000
0100
0000
1000
0000
0100
0000
1000
0000
1000
0000
0100
1000
0100
1000
,
0001
0010
0001
0010
0100
0010
0100
0010
,
2002
0000
0000
0000
0000
3003
1001
0000
,
1010
0100
0001
0100
0010
1000
0001
0100
,
1010
0100
0001
0100
0010
1000
0001
0100
,
0011
0100
1000
0001
0110
1000
0010
0100
,
1010
0001
0010
1000
0001
0100
1000
0001
,
0011
1100
0101
0110
,
1100
0011
1010
0101
,
1001
0000
0001
1000
0000
0101
0000
0110
,
0000
1010
0000
1100
0000
0000
0001
0000
,
1001
0010
0001
0100
0010
1000
0100
0010
,
1001
0010
0001
0100
0010
1000
0100
0010
,
1100
0010
0001
0010
0101
0010
1000
0010
,
0101
1000
0010
0001
1000
0100
0001
1000
,
1010
0101
0011
1001
,
0110
1100
1010
1001
,
0011
0000
1000
2000
0000
0010
0020
0000
,
0000
0000
0000
0030
3010
0000
1010
0000
,
1000
0100
1000
0100
1000
0001
0010
0100
,
1000
0001
0010
0100
0010
0001
1000
0100
,
0010
0001
0010
0100
1000
0100
0010
0001
,
1000
0010
0001
1000
0100
0001
1000
0010
,
1000
0100
0010
0001
1000
0100
0010
0001
,
1000
0010
0100
0001
1000
0010
0100
0001
,
0000
0001
0100
0010
1000
0100
0010
0001
,
1000
0100
1000
0100
1100
0000
0000
0000
,
0012
0000
0000
0000
0100
0000
0000
0003
,
0010
0010
0010
0000
0001
0000
1000
1000
,
0001
0100
0010
1000
0000
0001
0001
0001
,
1000
0000
0001
0000
1000
0000
0001
0000
1000
0000
0000
0000
1000
0100
0010
0001
,
1000
0100
0010
0001
0000
0001
0100
0010
,
1000
0100
1000
0001
0000
0010
0100
1000
,
1000
0000
0100
0010
0001
0000
1000
0000
0100
0000
0010
0000
0002
0000
0000
0000
,
0000
0000
0000
0103
,
1001
0000
0000
0000
,
1000
0000
0000
1000
,
0100
0000
0000
0011
0000
0000
0000
0110
,
0000
0000
1010
0100
,
1010
0100
0000
0100
0000
0100
0000
0100
,
0011
0100
0000
0100
0000
0100
0000
0100
,
1001
0100
1001
0100
,
0001
0000
0100
0000
0001
0000
0100
0000
0001
0100
0001
0100
0001
0100
0010
1000
,
0001
0000
0000
0000
0000
0000
0010
0010
,
0000
1100
0000
0011
0000
1000
0010
0000
,
0101
0010
0100
1000
0010
1000
0010
0100
,
1010
0100
0010
1000
0001
1000
0010
0100
,
0011
0000
1100
0000
1001
0000
0010
0010
,
0000
0110
0000
1010
0000
0101
0000
1000
,
0001
0000
1000
2000
0000
0010
0020
0000
,
0000
0000
0000
0030
3010
0000
1001
0000
,
1000
0100
1000
0100
0010
0100
0010
0100
,
1000
0010
0100
0001
0010
0100
1000
0010
,
1000
0100
1000
0100
0010
0001
0000
2000
,
0000
0000
3100
0000
0001
0010
0100
0000
,
1001
0000
1000
0100
1000
0100
0010
0001
,
1000
0100
1000
0100
1000
0100
0010
0001
,
1000
0000
0001
0002
0000
1000
2000
0000
,
0000
3003
1010
0011
,
0220
0000
0000
0000
,
0000
0000
0000
0000
,
0000
0000
0000
0330
,
0000
0000
0000
0000
;
#NOTES:
     dance-double:
     :
     Easy:
     8:
     :
00000000
00000000
00000000
00000000
,
00000000
00000000
00000000
00000000
,
00000000
00000000
00000000
00000000
,
00000000
00000000
00000000
00000000
,
00000000
00000000
00000000
00000000
,
00000000
00000000
00000000
00000000
,
00000000
00000000
00000000
00000000
,
00000000
00000000
00000000
00000000
,
00000000
00000000
00000000
00000000
,
00010000
00001000
00000100
00000010
,
00010000
00001000
00100000
00010000
,
00001000
00100000
00010000
00100000
,
00001000
00010000
00000100
00000100
,
00010000
00001000
00000100
00000100
,
00010000
00100000
00010000
01000000
,
00100000
00000000
00000000
00010000
00000000
00000000
00002000
00000000
,
00000000
00000000
00013000
00011000
,
00010000
00000000
00000000
00000000
00000000
00010000
00000100
00000000
00000000
00000000
00000000
00010000
,
00000010
00000000
00000000
00000000
00000000
00010000
00001000
00000000
00000000
00100000
00000000
00000000
,
00001000
00000000
00000000
00000000
00000000
00001000
01000000
00000000
00000000
00000000
00000000
00001000
,
00100000
00000000
00000000
00000000
00000000
00001000
00010000
00000000
00000000
00000100
00000000
00000000
,
00001000
00000000
00000000
00000000
00000000
00001000
00000100
00000000
00000000
00000000
00000000
00000100
,
00010000
00000000
00000000
00000000
00000000
00010000
01000000
00000000
00000000
10000000
00000000
00000000
,
10000000
01000000
00100000
00001000
,
00010000
00000100
00010100
00000000
,
00000100
00001000
00010100
00000000
,
00010000
00001000
00000100
00010000
,
00001000
00000000
00010000
00000000
00000100
00000000
00000000
00010000
,
00010000
00001000
00010000
00100000
,
00001000
00010000
00001000
00101000
,
00100000
01000000
00100000
00001000
,
00001000
00100000
00001000
00000100
,
00000010
00000001
00001000
00000010
,
00002000
00000000
00000100
00003100
,
00011000
00100000
10000000
01000000
,
00010000
00001000
00000100
00000001
,
00000010
00000100
00010000
00001000
,
00010000
00000100
00000100
00001000
,
00000100
00010000
00010000
00001000
,
00100000
01000000
00010000
00001000
,
00010000
01000000
00100000
00001000
,
00010000
00001000
00010100
00000000
,
00000010
00001000
00000100
00010000
,
00001000
00100000
00001000
00000000
,
01000000
00010000
00100000
00001000
,
00010000
00000100
00010000
00000000
,
00000010
00010000
00000100
00000010
,
00000001
00001000
00000100
00010000
,
00010000
00000000
00000000
00100000
00000000
00000000
20000000
00000000
,
00000000
00000000
31000000
11000000
,
00010000
01000000
00100000
00010000
,
00001000
00000100
00010000
00000010
,
00010000
00001000
00000100
00000001
,
00001000
00000100
00010000
00001000
,
00100000
00100000
00010000
00010000
,
00001000
00001000
00000100
00000100
,
00000000
00000001
00000010
00000100
,
00011000
00011000
00000000
00010000
,
00010000
00100000
00001000
00000000
,
01000000
00001000
01000000
00000000
,
00010000
00001000
00000100
00000000
,
00000010
00010000
00001000
00000000
,
00011000
00100000
10000000
00010000
,
00100000
00001000
00000100
00000001
,
00001000
00000000
00000000
00000100
00000000
00000000
00000020
00000000
,
00000000
00000000
00000000
00000030
,
00000010
00000000
00000000
00000000
,
00001000
00000000
00000000
00000000
,
00010000
00000000
00000000
00000000
,
00100000
00000000
00000000
00000000
,
10000000
10000000
10000000
10000000
,
00010000
01000000
01000000
01000000
,
00010000
01000000
00001000
01000000
,
00100000
00001000
00110000
00000000
,
10010000
00000000
00000000
00000000
00000000
00000000
01000000
01000000
,
00000000
00100000
00000000
00001000
00000000
00000000
00000000
00010000
,
00010000
00001000
00000100
00000010
,
00001000
00010000
00000100
00010000
,
00010000
00001000
00000100
00010000
,
00001000
00100000
00010000
10000000
,
10010000
00000000
00000000
00100000
00000000
00000000
02000000
00000000
,
00000000
00000000
03100000
10010000
,
00100000
00010000
00001000
00000100
,
00100000
00010000
00001000
00000100
,
00000010
00000100
00010000
00001000
,
00100000
00001000
00100000
00010000
,
00000000
10010000
01000000
00010000
,
00010000
00001000
00000100
00000010
,
00010000
00000000
00000000
00001000
00000000
00000000
00020000
00000000
,
00000000
00000000
00000000
00031000
,
00022000
00000000
00000000
00000000
,
00000000
00000000
00000000
00000000
,
00000000
00000000
00000000
00033000
,
00000000
00000000
00000000
00000000
;
#NOTES:
     dance-double:
     :
     Medium:
     11:
     :
00000000
00000000
00000000
00000000
,
00000000
00000000
00000000
00000000
,
00000000
00000000
00000000
00000000
,
00000000
00000000
00000000
00000000
,
00000000
00000000
00000000
00000000
,
00000000
00000000
00000000
00000000
,
00000000
00000000
00000000
00000000
,
00000000
00000000
00000000
00000000
,
00000000
00000000
00000000
00000000
,
00110000
00100000
00010000
01000000
,
00100000
00000000
00010000
00000000
00001000
00000100
00000010
00000000
,
00001000
00000001
00000100
00000010
,
00000100
00000000
00001000
00000000
00010000
01000000
00100000
00000000
,
10100000
01000000
00011000
00100000
,
00011000
00000100
00001100
00000001
,
00000100
00000000
00000000
00000001
00000000
00000000
00002000
00000000
,
00000000
00000000
00000100
00003100
,
00000001
00000000
00000001
00000010
00000000
00000000
00000100
00000000
00000100
00001000
00000000
00000000
,
00010000
00000000
00010000
00100000
00000000
00000000
01000000
00000000
01000000
10000000
00000000
00010000
,
10000000
00000000
10000000
00010000
00000000
00000000
00100000
00000000
00100000
00001000
00000000
00000000
,
00010000
00000000
00010000
00001000
00000000
00000000
00001000
00000000
00001000
00000010
00000000
00000001
,
00001000
00000000
00001000
00000001
00000000
00000000
00000010
00000000
00000010
00000100
00000000
00000000
,
00000100
00000000
00000100
00010000
00000000
00000000
00001000
00000000
00001000
00100000
00000000
00000000
,
00010000
00000000
00010000
01000000
00000000
00000000
00100000
00000000
00100000
10000000
00000000
00000000
,
01000000
00010000
00101000
00000000
,
00001000
00000010
00000110
00000000
,
00000001
00000010
00000100
00000000
00000010
00000100
00001000
00000100
,
00000000
00020000
00000000
00000000
00000000
00000000
00030000
00001000
,
00001000
00010000
01000000
00000000
00100000
00010000
00100000
01000000
,
00000000
00010000
00000000
00002000
00000000
00000000
00003000
00000000
,
00010100
00000100
00000100
00000100
,
00011000
00010000
00010000
00010000
,
00100000
10000000
00010000
00100000
,
00021000
00001000
00031000
00011000
,
00010100
00001000
00000010
00001000
,
00001100
00000000
00001000
00000000
00010000
00100000
01000000
00000000
,
00110000
10000000
01000000
00010000
,
00011000
00000000
00000010
00000000
00000010
00000100
00001000
00000000
,
00011000
01000000
00100000
00010000
,
00011000
00000100
00000010
00000001
,
00001010
00000000
00000100
00000000
00010000
00000000
00010000
00100000
,
00000000
00100000
00000000
00200000
00000000
00000000
00300000
00000000
,
00110000
00010000
00001000
00000100
,
00000110
00000000
00001000
00000000
00010000
00100000
01000000
00000000
,
10010000
00100000
00100000
00001000
,
00011000
00000000
00000100
00000000
00001000
00000100
00000010
00000001
,
00001000
00001000
00000100
00010000
,
00011000
00001000
00100000
01000000
,
00110000
00000000
00000000
00100000
00000000
00000000
00020000
00000000
,
00000000
00000000
00100000
00130000
,
10010000
00000000
00100000
10000000
01000000
00000000
00100000
00010000
,
00001000
00000000
00000100
00000010
00000001
00000100
00000010
00000000
,
00001001
00000000
00000010
00000001
00000100
00000000
00000010
00001000
,
00010000
00000000
00100000
01000000
10000000
01000000
00100000
00000000
,
10100000
00100000
00010000
00001000
,
00000100
00000101
00001000
00011000
,
00000000
01010000
00100000
00001000
,
00010000
01000000
00010000
00100000
00000000
00000000
00000000
00000000
,
20000000
00000000
31000000
00000000
,
00200000
00000000
00010000
00310000
,
00001000
00000100
00000010
00000100
00000000
00001000
00000001
00001000
,
00000100
00000010
00000101
00000000
,
00000100
00000000
00001000
00000000
00010000
00100000
01000000
00000000
,
01000000
00000000
00010000
00000000
00001000
00000100
00000010
00000000
,
00010000
00000000
00000000
00001000
00000000
00000000
00020000
00000000
,
00000000
00000000
00031000
00011000
,
00011000
00000000
00000000
00000000
,
00001000
00000000
00000000
00100000
,
00010000
00000000
00000000
00001000
00000000
00000000
00000000
00000010
,
00000000
00000000
00000000
00000001
,
00001010
00001000
00001000
00001000
,
00011000
00010000
00010000
00010000
,
01001000
00100000
00011000
00100000
,
01010000
01010000
00101000
00101000
,
00011000
00000000
00000000
00000000
00000000
00000000
01000000
01000000
,
00000000
00100000
00000000
00011000
00000000
00000000
00000000
00000000
,
00000110
00000100
00000001
00000100
,
00001010
00000000
00000001
00000000
00000010
00000100
00001000
00000000
,
00011000
00010000
00100000
01000000
,
00101000
00010000
00001000
00000100
,
00000110
00000000
00000000
00010100
00000000
00000000
00022000
00000000
,
00000000
00003000
00031000
00011000
,
00010100
00001000
00000010
00000100
,
00000110
00000000
00001000
00000000
00010000
00100000
01000000
00000000
,
11000000
00010000
00100000
01000000
,
00110000
00000000
00010000
00000000
00001000
00000100
00000010
00000000
,
00000000
00000101
00000100
00001000
,
00010000
00000000
00100000
00000000
10000000
01000000
00100000
00000000
,
00001000
00000000
00000000
00010000
00000000
00000000
00002000
00000000
,
00000000
00000000
00000000
00013000
,
00022000
00000000
00000000
00000000
,
00000000
00000000
00000000
00000000
,
00000000
00000000
00000000
00033000
,
00000000
00000000
00000000
00000000
;
#NOTES:
     dance-double:
     :
     Hard:
     15:
     :
00000000
00000000
00000000
00000000
,
00000000
00000000
00000000
00000000
,
00000000
00000000
00000000
00000000
,
00000000
00000000
00000000
00000000
,
00000000
00000000
00000000
00000000
,
00000001
00000000
00000010
00000020
00000000
00001000
00002000
00000000
,
00000000
00000000
00000030
00003010
,
00000100
00000000
00010000
00020000
00000000
00001000
00002000
00000000
,
00000000
00000000
00033000
00011000
,
00001000
00000100
00001000
00000100
00000010
00000001
00000010
00000001
,
00000010
00001000
00010000
01000000
10000000
00100000
10000000
01000000
,
10000000
01000000
10000000
01000000
00100000
00010000
00000000
20000000
,
00000000
00000000
31000000
00000000
10000000
00010000
01000000
00000000
,
00010000
01000000
00010000
01000000
00100000
10000000
00100000
10000000
,
00100000
00010000
00001000
00000100
00000001
00000100
00000001
00000100
,
00000001
00000000
00001000
00002000
00000000
00000100
00000200
00000000
,
00000000
00003300
00000011
00001100
,
00000001
00000000
00000100
00001000
00000000
00010000
00100000
00000000
10000000
01000000
00000000
00010000
,
00001000
00000000
00000100
00000001
00000000
00000010
00000001
00000100
00000001
00000100
00000000
00000100
,
00001000
00000000
00010000
00100000
00000000
10000000
00100000
00000000
10000000
00100000
00000000
00010000
,
00001000
00000000
00000100
00000010
00000000
00001000
00000010
00001000
00000010
00001000
00000000
00000000
,
00000000
00000000
00000000
00001001
00000000
00000001
00000100
00000000
00001000
00000100
00000000
00001000
,
00010000
00000000
00100000
10000000
00000000
00100000
00010000
00000000
00100000
00010000
00000000
00001000
,
00000100
00000000
00000001
00001000
00000000
00000010
00001000
00000000
00000001
00000100
00000000
00000000
,
00000001
00000100
00001100
00000000
,
00011000
00110000
01100000
00000000
,
01000000
00000000
00100000
00000000
00001000
00100000
00100000
00010000
,
00000000
02200000
00000000
00000000
00000000
00000000
00300000
03100000
,
00100000
00001000
00010000
00000000
00001000
00000100
00000001
00000100
,
00000000
00000101
00000000
00002200
00000000
00000000
00000000
00003300
,
00000100
00001000
00000100
00001000
00000100
00001000
00000100
00000100
,
00010000
00000000
00001000
00000000
00010000
00000000
00001000
00000000
00010000
00000000
00010000
00000000
00001000
00010000
00001000
00010000
,
00001000
00100000
00010000
00100000
01000000
00100000
01000000
00000000
,
02020000
00000000
00000000
00000000
00000000
03030000
01010000
00000000
,
00110000
00001000
00010000
00001000
00100000
00001000
00010000
00001000
,
00010100
00001000
00010000
00001000
00100000
00001000
00010000
00001000
,
00110000
01000000
10000000
00010000
01000000
00010000
10000000
01000000
,
00010000
00001000
00000100
00000001
00001000
00000010
00000100
00000001
,
00001100
00001010
00001100
00010100
,
00011000
00101000
01100000
01010000
,
10010000
00000000
00010000
10000000
00000000
01010000
00000000
01100000
,
00000000
01010000
00000000
00011000
00000000
00000000
00001000
00000000
,
00001100
00010000
00001000
00010000
00000010
00010000
00001000
00010000
,
00101000
00010000
00001000
00010000
00000010
00010000
00001000
00010000
,
00001010
00000100
00000001
00001000
00000100
00001000
00000001
00000100
,
00001000
00010000
01000000
10000000
00010000
00100000
01000000
10000000
,
10100000
01010000
00110000
00011000
,
00010100
00001100
00001010
00000101
,
00000110
00000000
00000001
00000002
00000000
00000100
00000200
00000000
,
00000000
00000000
00000000
00000300
00000103
00000000
00000101
00000000
,
00000001
00000100
00000001
00000100
00000001
00000010
00001000
00010000
,
01000000
10000000
00100000
10000000
00100000
00010000
10000000
01000000
,
00100000
00010000
00001000
00000100
00000001
00001000
00000100
00000001
,
00000100
00001000
00000001
00000010
00001000
00010000
01000000
10000000
,
01000000
00100000
00010000
10000000
01000000
00100000
00010000
10000000
,
00100000
00010000
00001000
00000100
00000001
00001000
00000010
00000001
,
00000000
00000001
00000010
00001000
00000001
00000010
00000100
00001000
,
00000001
00000010
00000001
00000010
00000011
00000000
00000000
00000000
,
00002100
00000000
00000010
00003000
,
00000100
00000100
00000100
00000000
00010000
00000000
00001000
00001000
,
00010000
01000000
10000000
00100000
00000000
10000000
10000000
10000000
,
00010000
00000000
10000000
00000000
00100000
00000000
00010000
00000000
00001000
00000000
00000000
00000000
00001000
00000100
00000010
00001000
,
00000001
00000010
00000100
00001000
00000000
00000001
00000100
00000010
,
00001000
00000100
00010000
00001000
00000000
00100000
01000000
10000000
,
10000000
00000000
01000000
00100000
00010000
00000000
10000000
00000000
01000000
00000000
00100000
00000000
00020000
00000000
00000000
00000000
,
00000000
00000000
00000000
00130000
,
10010000
00000000
00000000
00000000
,
00010000
00000000
00000000
00001000
,
00000100
00000000
00000000
00000010
00000000
00000000
00000000
00001000
,
00000000
00000000
00010000
01000000
,
10100000
01000000
00000000
00100000
00000000
00001000
00000000
00010000
,
00011000
00001000
00000000
00010000
00000000
00000010
00000000
00000100
,
00001010
00000100
00001001
00000100
,
00000100
00000000
00010000
00000000
00000100
00000000
00010000
00000000
00001000
00010000
00001000
00010000
00001000
00010000
00000100
00010000
,
00001000
00000000
00000000
00000000
00000000
00000000
00010000
00010000
,
00000000
11000000
00000000
00110000
00000000
10000000
00100000
00000000
,
01010000
00100000
00010000
00001000
00000100
00010000
00001000
00010000
,
00001100
00010000
00000100
00000010
00000001
00000100
00000010
00000001
,
00001100
00000000
00011000
00000000
00110000
00000000
00100000
00100000
,
00000000
01100000
00000000
10100000
00000000
01010000
00000000
00010000
,
00001000
00000000
00000100
00000200
00000000
00000010
00000020
00000000
,
00000000
00000000
00000000
00000030
00000310
00000000
00001001
00000000
,
00001000
00000100
00001000
00000100
00000010
00000001
00000010
00000001
,
00000010
00001000
00010000
01000000
10000000
00100000
10000000
01000000
,
10000000
01000000
10000000
01000000
00100000
00010000
00000000
20000000
,
00000000
00000000
31000000
00000000
10000000
00010000
01000000
00000000
,
10010000
00000000
00010000
01000000
00100000
10000000
00100000
10000000
,
00100000
00010000
00001000
00000100
00000001
00000100
00000001
00000100
,
00000001
00000000
00001000
00002000
00000000
00000100
00000200
00000000
,
00000000
00003300
00000011
00001100
,
00022000
00000000
00000000
00000000
,
00000000
00000000
00000000
00000000
,
00000000
00000000
00000000
00033000
,
00000000
00000000
00000000
00000000
;
