#TITLE:Stella Sinistra;
#ARTIST:Akhuta Philharmonic Orchestra;
#BANNER:Stella Sinistra.png;
#BACKGROUND:Stella Sinistra-bg.png;
#CDTITLE:./CDTitles/DDR (2014).png;
#MUSIC:Stella Sinistra.ogg;
#SAMPLESTART:14.485;
#SAMPLELENGTH:15;
#DISPLAYBPM:110:180;
#BPMS:0=160,24=152.542,26=150,28=151.261,30=136.364,31=120,32=109.756,32.5=112.5,33=180;
#STOPS:32.5=1.64;
#NOTES:
     dance-single:
     :
     Beginner:
     4:
     :
0000
0000
0000
0000
,
0000
0000
0000
0000
,
0000
0000
0000
0000
,
0000
0000
0000
0000
,
0000
0000
0000
0000
,
1000
0000
0000
0000
,
0001
0000
0000
0000
,
0100
0000
0000
0000
,
0010
0000
1000
1000
,
0000
0001
0001
0000
,
1000
1000
0000
0010
,
0010
0000
1000
1000
,
0000
0100
0100
0000
,
0010
0010
0000
1000
,
1000
0000
0001
0001
,
0100
0100
0100
0000
,
1000
1000
0100
0100
,
0100
0000
0001
0001
,
1000
1000
1000
0000
,
0100
0100
0000
0010
,
0010
0000
0001
0001
,
0000
0100
0100
0100
,
0000
0000
0000
0000
,
0001
0001
0000
0000
,
0000
0100
0100
0100
,
0000
0000
0000
0000
,
1000
1000
0000
0000
,
0000
0010
0010
0010
,
0000
0000
0000
0000
,
0001
1000
0000
0000
,
0000
1000
1000
0001
,
0000
0000
0100
0000
,
0000
1000
0000
0000
,
0100
0000
0000
0010
,
0010
0010
0000
1000
,
1000
0000
0010
0010
,
0000
0001
0001
0000
,
0010
0010
0000
0100
,
0100
0000
0010
0010
,
0000
1000
0001
0000
,
0100
0100
0001
0100
,
0100
0000
0100
0100
,
1000
0100
0100
0000
,
0001
0001
1000
0001
,
0001
0000
0100
0100
,
0000
0001
0001
0000
,
0010
0010
0000
1000
,
1000
1000
0000
0000
,
0001
0000
0000
0100
,
0010
0010
0010
0000
,
0000
1001
0000
0000
,
0000
0000
0000
0000
,
0000
0000
0000
0001
,
0001
0001
1000
0000
,
0100
0100
0000
0010
,
0010
0000
0001
1000
,
1000
1000
0000
0000
,
0000
0000
0000
0000
,
0000
0000
0000
0001
,
0001
0001
1000
0000
,
0010
0010
0000
0100
,
0100
0000
0001
0001
,
0000
0010
0100
0000
,
1000
0001
0000
0100
,
0010
0000
0001
1000
,
1000
1000
0001
0000
,
0100
0010
0000
0200
,
0000
0000
0000
0000
,
0000
0000
0000
0000
,
0000
0000
0000
0000
,
0000
0000
0000
0000
,
0000
0000
0300
0000
,
0000
0000
0000
0000
,
0000
0000
0000
0000
,
0000
0000
0000
0000
,
0000
0000
0000
0000
,
0000
0000
0001
1000
,
1000
0001
0000
0000
,
0010
0100
0100
0010
,
0000
0000
0110
0000
,
0000
0000
1000
0001
,
2002
0000
0000
0000
,
3003
0000
0000
0000
,
0000
0000
0000
0000
;
#NOTES:
     dance-single:
     :
     Easy:
     8:
     :
0000
0000
0000
0000
,
0000
0000
0000
0000
,
0000
0000
0000
0000
,
0000
0000
0000
0000
,
0000
0000
0000
0000
,
0001
0000
0100
0000
,
0010
0000
1000
0000
,
0100
0000
0010
0000
,
0001
0100
0001
0001
,
1000
0010
1010
0001
,
0100
0100
0010
1000
,
1010
0100
0010
0010
,
1000
0001
0101
0010
,
0100
0100
0001
1000
,
1001
0001
0100
0100
,
2000
3002
1003
0100
,
0010
0010
0002
2003
,
3001
0010
0001
0001
,
2000
3002
1003
1100
,
0000
0001
0101
0000
,
1000
1100
0000
0001
,
0100
0010
1000
1001
,
0000
0000
0000
0000
,
0100
1001
0000
0000
,
0000
0010
0010
0110
,
0000
0000
0000
0000
,
0100
1001
0000
0000
,
0000
0100
0100
0110
,
0000
0000
0000
0000
,
0100
1100
0000
0000
,
0000
0100
0100
0101
,
1000
1000
0100
0001
,
0001
0100
1000
1000
,
0020
0000
0030
1000
,
0100
0100
0001
0010
,
0011
1000
0100
0100
,
0001
0010
1010
1000
,
0100
0100
0001
0100
,
1100
1000
0010
0010
,
0001
0010
0011
1000
,
0100
0010
2000
3200
,
0320
0031
0100
0010
,
0002
0203
0320
1030
,
0100
0001
2000
3200
,
0301
0101
0000
0001
,
1100
0000
1000
0011
,
0000
0001
0010
0100
,
1000
0002
0100
0103
,
2000
0100
3100
0001
,
1001
1001
0010
0100
,
0010
0110
0000
0000
,
0000
0000
0000
0000
,
0000
0000
0000
1001
,
1001
0001
1000
0100
,
1000
1001
1001
0010
,
1000
0001
0010
0001
,
1000
1001
0000
0000
,
0000
0000
0000
0000
,
0000
0000
0000
1001
,
1001
0001
0100
1000
,
0001
0010
1000
1010
,
0100
0001
1000
0010
,
0001
0011
0100
1000
,
1010
1000
0100
0101
,
0010
1000
1100
1000
,
0010
1001
0100
1000
,
0110
0001
0100
2000
,
0000
0000
0000
0000
,
0000
0000
0000
0000
,
0000
0000
0000
0000
,
0000
0000
0000
0000
,
0000
0000
0000
0000
0000
3000
0000
0000
,
0000
0000
0000
0000
,
0000
0000
0000
0000
,
0000
0000
0000
0000
,
0100
0100
0100
0110
,
0110
0110
1001
0000
,
0100
1010
0000
0100
,
0011
0000
0100
1010
,
0000
0110
1001
0000
,
0000
0000
0010
1001
,
0220
0000
0000
0000
,
0330
0000
0000
0000
,
0000
0000
0000
0000
;
#NOTES:
     dance-single:
     :
     Medium:
     12:
     :
0000
0000
0000
0000
,
0000
0000
0000
0000
,
0000
0000
0000
0000
,
0000
0000
0000
0000
,
0000
0000
0000
0000
,
0100
0001
0100
0010
,
1000
0100
0010
0001
,
0100
1000
0100
0001
,
1000
0000
0000
1001
0000
0000
0001
0000
0001
0010
0000
0010
,
0100
0000
0100
1000
0000
0000
0001
0000
0000
1010
0000
0000
,
0010
0000
0010
1000
0000
1000
0001
0000
0001
0100
0000
0000
,
0001
0000
0000
0011
0000
0000
0010
0000
0010
0001
0000
0001
,
1000
0000
1000
0010
0000
0000
1000
0000
0000
1100
0000
0000
,
1000
0000
1000
0001
0000
0001
0010
0000
0010
0001
0000
0000
,
0010
0000
0000
1100
0000
0000
1000
0000
1000
0010
0000
0010
,
0100
0000
0000
0201
0000
0301
1000
0000
0000
0101
0000
0000
,
0100
0000
0100
0001
0000
0001
0010
0000
0000
0120
0000
0130
,
1000
0000
0000
1001
0000
0000
1000
0000
1000
0010
0000
0010
,
0100
0000
0000
0120
0000
0130
0001
0000
0000
1001
0000
0000
,
0100
0000
0100
0001
0000
0000
1001
0000
0000
1000
0000
1000
,
0100
0000
0000
0110
0000
0000
0010
0000
0010
0001
0000
0001
,
1000
0000
1000
0010
0000
0010
0100
0000
0100
0001
0000
0000
,
2002
0000
0000
3003
,
1100
1100
2002
0000
,
3003
0000
0000
0100
0001
0000
1000
0000
0001
0100
0000
0000
,
2002
0000
0000
3003
,
0011
0011
2002
0000
,
3003
0000
0000
0010
1000
0000
0001
0000
1000
0010
0000
0000
,
0220
0000
0000
0330
,
1010
1010
0220
0000
,
0330
0000
0000
0001
1000
0000
0010
0000
1000
0001
0000
0000
,
1000
0000
1000
0001
0000
0000
1100
0000
0000
0001
0000
0001
,
1000
0000
0000
0101
0000
0000
1000
0000
1000
0001
0000
0000
,
0110
0110
1001
1010
,
0010
0000
0010
0100
0000
0100
0001
0000
0001
1000
0000
0000
,
1001
0000
0000
0011
0000
0000
0010
0000
0010
0100
0000
0100
,
1000
0000
1000
0001
0000
0000
1001
0000
0000
0101
0000
0000
,
0100
0000
0100
0010
0000
0010
1000
0000
1000
0001
0000
0000
,
1001
0000
0000
1100
0000
0000
0100
0000
0100
0010
0000
0010
,
0001
0000
0001
1000
0000
0000
1001
0000
0000
0110
0000
0000
,
0100
0000
0100
1000
0000
1000
0001
0000
0100
0001
0000
1000
,
0100
0000
0000
0110
0000
0000
0100
0000
0100
1000
0000
1000
,
0001
0000
1000
0100
0000
0001
0100
0000
0000
0110
0000
0000
,
0010
0000
0010
0001
0000
0001
0100
0000
0010
0100
0000
0001
,
1000
0000
0000
1001
0000
0000
0001
0000
0001
0100
0000
0000
,
0110
0000
0000
1000
0000
1000
0100
0000
0000
0110
0000
0000
,
0001
0000
0001
0100
0000
0000
0010
0000
0010
1000
0000
1000
,
0001
0000
0001
0100
0000
0000
0102
0000
1003
0100
0000
0000
,
1001
0000
0000
2100
0000
3001
0100
0000
0000
0110
0000
0000
,
1100
0101
0011
1010
,
0110
1001
0020
0000
,
0000
0000
0000
0000
,
0000
0000
0000
0130
,
0100
0000
0000
0110
0000
0100
0001
0000
0001
1000
0000
1000
,
0100
0000
0000
1000
0001
1000
0001
0000
0000
1001
0000
0000
,
0001
0000
0001
0010
0000
0010
0100
0000
0000
0100
0010
0100
,
0010
0110
0002
0000
,
0000
0000
0000
0000
,
0000
0000
0000
1003
,
1000
0000
0000
1100
0000
0000
0100
0000
0100
0001
0000
0001
,
0010
0000
0010
0001
0000
0001
0100
0000
0000
0101
0000
0000
,
0100
0000
0100
1000
0000
1000
0010
0000
0010
1000
0000
1000
,
0100
0000
0000
0011
0000
0000
0001
0000
0001
0100
0000
0000
,
0101
0000
0000
0100
0000
0100
1000
0000
0000
1100
0000
0000
,
1000
0000
1000
0010
0000
0000
1010
0000
0010
0001
0000
0001
,
0100
0000
0000
0101
0000
0000
0001
0000
0001
0010
0000
0000
,
0011
0000
0000
0010
0000
0010
0100
0000
0000
0220
0000
0000
,
0000
0000
0000
0000
,
0000
0000
0000
0000
,
0000
0000
0000
0000
,
0000
0000
0000
0000
,
0000
0000
0000
0000
0000
0330
0000
0000
,
0000
0000
0000
0000
,
0000
0000
0000
0000
,
0000
0000
0000
0000
,
1000
0000
0000
1000
0000
0000
1000
0000
0000
1000
0001
1000
,
0001
1000
0001
1000
0000
0000
1100
0000
0000
0100
0000
0100
,
0010
0000
0010
0100
0000
0000
0001
1000
0001
1000
0000
0000
,
0101
0000
0000
0010
0000
0010
0100
0000
0100
0010
0000
0000
,
1000
0001
1000
0001
0000
0000
2002
0000
0000
0000
0000
0000
,
0000
3003
1100
0101
,
0220
0000
0000
0000
,
0330
0000
0000
0000
,
0000
0000
0000
0000
;
#NOTES:
     dance-single:
     :
     Hard:
     15:
     :
0000
0000
0000
0000
,
0000
0000
0000
0000
,
0000
0000
0000
0000
,
0000
0000
0000
0000
,
0000
0000
0000
0000
,
1010
0100
0001
0100
,
0010
1000
0100
1000
,
0011
0100
1000
0001
,
2000
0000
0000
0000
0000
0000
0000
0000
0000
0000
0000
0000
0000
0000
0000
0000
0000
0000
0000
0000
0000
0000
0000
0000
0000
0000
0000
3000
0000
0000
0000
0000
0000
0000
0000
0000
0000
0000
0000
0000
0000
0000
0000
0000
0000
0000
0000
0000
1001
0000
0000
0000
0000
0000
0000
0000
0000
0000
0000
0000
0000
0000
0000
0000
0000
0000
0000
0000
0000
0000
0000
0000
0000
0000
0000
0000
0000
0000
0000
0000
0001
0000
0000
0000
0000
0000
0000
0000
0000
0000
0000
0000
0000
0000
0000
0000
0010
0000
0000
0000
0000
0000
0000
0000
0000
0000
0000
0000
0000
0000
0000
0000
0100
0000
0000
0000
0000
0000
0000
0000
0000
0000
0000
0000
0000
0000
0000
0000
0000
0000
0000
0000
0000
0000
0000
0000
0000
0000
0000
0000
0000
0000
0000
0000
0010
0000
0000
0000
0000
0000
0000
0000
0000
0000
0000
0000
0000
0000
0000
0000
0000
0000
0000
0000
0000
0000
0000
0000
0000
0000
0000
0000
0000
0000
0000
0000
0010
0000
0000
0000
0000
0000
0000
0000
0000
0000
0000
0000
0000
0000
0000
0000
,
0100
1000
0000
0001
0000
1000
0001
0000
0000
1000
0000
1000
,
0010
0100
0000
0010
0000
0010
0100
0001
0000
1000
0000
0001
,
1000
0000
0000
0001
0000
0001
1000
0100
0000
0010
0000
0001
,
1000
0010
0000
1000
0000
0001
1000
0000
0000
1000
0100
1000
,
0100
0010
0100
1000
0000
0000
0001
0100
0001
0100
0010
0100
,
0001
0000
0000
0110
0000
0010
1000
0100
0000
0010
0000
0010
,
0001
0100
0000
0010
1000
0001
0010
0000
0000
0001
0000
0001
,
0100
0010
0000
0010
0000
1000
0100
0010
0000
0001
1000
0010
,
0100
0000
0000
0001
0000
1000
0100
0010
0000
0100
0000
1000
,
0001
0100
0000
0010
0100
0010
0100
0000
0000
2001
0000
0000
,
3100
0010
0100
0010
0100
0010
0002
0000
0000
0103
0010
0100
,
0010
0100
0010
2000
0000
0000
3100
0010
0100
0010
0100
0010
,
0001
0010
0001
1000
0010
1000
0001
1000
0001
1000
0000
0000
,
0022
0000
0000
0033
,
1100
1001
2020
0000
,
3030
0000
0000
1000
0010
1000
0001
1000
0100
1000
0000
0000
,
2200
0000
0000
3300
,
0011
1001
0202
0000
,
0303
0000
0000
0001
0100
0001
1000
0001
0010
0001
0000
0000
,
0022
0000
0000
0033
,
0110
1100
2002
0000
,
3003
0000
0000
0001
0100
0010
0100
1000
0100
0001
0000
0000
,
0101
0000
0100
0010
0000
0000
0110
0000
0000
1010
0000
1000
,
0100
0000
0000
1100
0000
0000
0110
0000
0010
0001
0000
0000
,
0102
0000
0000
1000
0000
0000
0013
0000
0000
0110
0000
0001
,
0010
0100
0000
1000
0000
0010
0100
0001
0000
0010
0000
0100
,
1000
0000
0000
1001
0000
0100
0010
0001
0000
0100
0000
0010
,
1000
0100
0000
0010
0000
0001
0100
0000
0000
1010
0000
1000
,
0010
0100
0000
0001
0000
0010
0100
1000
0000
0001
0100
0010
,
1000
0000
0000
1000
0010
1000
0010
0100
0001
0010
0000
0000
,
0001
0010
0001
0010
0100
1000
0010
0000
0000
1010
0000
0010
,
1000
0100
0000
0010
0000
0001
0100
0010
0000
1000
0100
0010
,
0001
0000
0000
0011
0000
0010
0001
0100
0000
0010
0000
1000
,
0100
0010
0000
0001
0100
0010
1000
0000
0000
1001
0000
0010
,
1000
0100
0000
0010
0000
0100
1000
0010
0000
0100
0010
1000
,
0001
0000
0000
1020
0000
0000
0130
0001
0100
0001
0100
0001
,
0020
0000
0000
0130
1000
0100
1000
0100
1000
0020
0000
0000
,
0130
0001
0100
0001
0100
0001
1000
0100
0010
0001
0100
0010
,
1000
0001
0010
0100
0000
0000
1100
0000
0001
1001
0000
0000
,
0101
0000
0000
0110
0000
1000
1001
0000
0000
1100
0000
0000
,
0011
0000
0001
0101
0000
1000
1100
0000
0000
0110
0000
0000
,
0011
1001
0020
0000
,
0000
0000
0000
0000
,
0000
0000
0000
0130
,
0110
0000
0000
1100
0000
0100
0010
0001
0010
0100
0000
1000
,
0010
0100
0010
1000
0000
1000
0001
0000
0000
0101
0000
0100
,
0010
1000
0010
0100
0000
0001
0010
0100
0010
0001
0000
0001
,
1000
0100
0010
0001
0000
0000
0200
0000
0000
0000
0000
0000
,
0000
0000
0000
0000
,
0000
0000
0000
0310
,
0110
0000
0000
0101
0000
0001
0100
0010
0100
0001
0000
1000
,
0100
0010
0001
0010
0100
1000
0001
0000
0000
1100
0000
1000
,
0100
0010
0100
1000
0000
0001
0100
0010
1000
0010
0100
0001
,
1000
0000
0000
1010
0000
0010
1000
0010
1000
0100
0000
0000
,
1100
0000
1000
0100
1000
0100
0001
0000
0000
0101
0000
0100
,
0001
0100
0001
0010
0000
0000
0011
0000
0000
1010
0000
0000
,
1100
0000
0000
0101
0000
0001
0100
0001
0100
1000
0000
0000
,
1100
0000
0100
1000
0100
1000
0010
0000
0000
2002
0000
0000
,
0000
0000
0000
0000
,
0000
0000
0000
0000
,
0000
0000
0000
0000
,
0000
0000
0000
0000
,
0000
0000
0000
0000
3003
0000
,
0000
0000
0000
0000
,
0000
0000
0000
0000
,
0000
0000
0000
0000
,
0100
0000
0000
0110
0000
0000
0110
0000
0000
1000
0100
1000
,
0100
0010
0100
0010
0001
0010
0001
0000
0000
1000
0000
0001
,
0101
0000
0000
1001
0000
0000
0100
0001
0100
0010
1000
0010
,
0100
0000
0000
0001
0000
1000
1100
0000
0000
0110
0000
0000
,
0001
0010
0001
1000
0100
2000
0002
0000
0000
0000
0000
0000
,
0000
0000
0000
3003
0000
0000
0011
0000
0010
0001
1000
0100
,
2200
0000
0000
0000
,
3300
0000
0000
0000
,
0000
0000
0000
0000
;
#NOTES:
     dance-double:
     :
     Easy:
     7:
     :
00000000
00000000
00000000
00000000
,
00000000
00000000
00000000
00000000
,
00000000
00000000
00000000
00000000
,
00000000
00000000
00000000
00000000
,
00000000
00000000
00000000
00000000
,
00010000
00000000
00001000
00000000
,
00000100
00000000
00000001
00000000
,
00000010
00000000
00001000
00000000
,
00010000
10000000
01000000
01000000
,
00010000
00002000
00000000
00003100
,
00000001
00000001
00000010
00000100
,
00000010
00001000
00010000
00010000
,
00100000
20000000
00000000
31000000
,
00010000
00010000
00001000
00010000
,
00011000
00001000
00000100
00000100
,
00000001
00000010
00000100
00000010
,
00001000
00001000
00010000
00001000
,
00010000
01000000
10000000
10000000
,
00100000
01000000
00010000
00010000
,
00000000
00001000
00001000
00000000
,
00000100
00000100
00000000
00000001
,
00000001
00001000
00001000
00001001
,
00000000
00000000
00000000
00000000
,
00000100
00000110
00000000
00000000
,
00000000
00001000
00010000
00011000
,
00000000
00000000
00000000
00000000
,
01000000
01100000
00000000
00000000
,
00000000
10000000
00010000
10010000
,
00000000
00000000
00000000
00000000
,
00100000
01100000
00000000
00000000
,
00000000
00010000
00001000
00011000
,
00010000
00010000
00000100
00001000
,
00001000
00000010
00000100
00000100
,
00000001
00001000
00001000
00000001
,
00000100
00000100
00001000
00010000
,
00001000
00010000
01000000
01000000
,
10000000
00010000
10000000
00100000
,
00010000
00010000
00001000
00010000
,
00001000
00000010
00000001
00000001
,
00001000
00000001
00001001
00000010
,
00000100
00001000
00000010
00000100
,
00001000
00010000
00100000
01000000
,
00010000
00100000
01000000
00010000
,
00001000
00000100
00010000
00001000
,
00000100
00000010
00000000
00000001
,
00000001
00000000
00000100
00000100
,
00000000
00001000
00001000
00010000
,
00010000
01000000
10000000
10000000
,
01000000
00010000
00010000
01000000
,
10000000
10000000
00100000
00010000
,
00001000
00011000
00000000
00000000
,
00000000
00000000
00000000
00000000
,
00000000
00000000
00000000
00001001
,
00001001
00001000
00000001
00000010
,
00000100
00001000
00000100
00010000
,
00001000
00010000
00100000
01000000
,
00100000
01100000
00000000
00000000
,
00000000
00000000
00000000
00000000
,
00000000
00000000
00000000
10010000
,
10010000
10000000
00100000
01000000
,
00010000
00100000
00010000
01000000
,
00001000
00010000
00001000
00000100
,
00000010
00000100
00000000
00000001
,
00000001
00000000
00000100
00000100
,
00000000
00001000
00010000
00001000
,
00010000
00011000
00000000
01000000
,
01000000
00000000
10000000
20000000
,
00000000
00000000
00000000
00000000
,
00000000
00000000
00000000
00000000
,
00000000
00000000
00000000
00000000
,
00000000
00000000
00000000
00000000
,
00000000
00000000
00000000
00000000
00000000
30000000
00000000
00000000
,
00000000
00000000
00000000
00000000
,
00000000
00000000
00000000
00000000
,
00000000
00000000
00000000
00000000
,
00010000
00010000
00010000
00001000
,
00001000
00001000
00011000
00000000
,
00000010
00000110
00000000
00000001
,
00000001
00000000
00000100
00000110
,
00000000
00001000
00001000
00000000
,
00000000
00000000
00010000
00001000
,
00022000
00000000
00000000
00000000
,
00033000
00000000
00000000
00000000
,
00000000
00000000
00000000
00000000
;
#NOTES:
     dance-double:
     :
     Medium:
     12:
     :
00000000
00000000
00000000
00000000
,
00000000
00000000
00000000
00000000
,
00000000
00000000
00000000
00000000
,
00000000
00000000
00000000
00000000
,
00000000
00000000
00000000
00000000
,
00000010
00001000
00010000
00100000
,
10000000
00100000
00010000
00001000
,
00000100
00000001
00000100
00001000
,
00010000
00000000
00000000
00011000
00000000
00000000
00001000
00000000
00001000
00010000
00000000
00010000
,
01000000
00000000
01000000
10000000
00000000
00000000
01000000
00000000
00000000
00010000
00000000
00010000
,
00001000
00000000
00001000
00000100
00000000
00000100
00000001
00000000
00000001
00000010
00000000
00000000
,
00000100
00000000
00000000
00001000
00000000
00001000
00000100
00000000
00000100
00000001
00000000
00000001
,
00000100
00000000
00000100
00001000
00000000
00000000
00010000
00000000
00000000
00100000
00000000
00100000
,
00010000
00000000
00010000
01000000
00000000
01000000
00100000
00000000
00100000
10000000
00000000
00000000
,
01000000
00000000
00000000
00010000
00000000
00010000
00001000
00000000
00001000
00000100
00000000
00000100
,
00000001
00000000
00000001
00001000
00000000
00001000
00000100
00000000
00000000
00000010
00000000
00000010
,
00001000
00000000
00001000
00010000
00000000
00010000
01000000
00000000
01000000
10000000
00000000
10000000
,
00100000
00000000
00000000
01000000
00000000
01000000
00010000
00000000
00010000
00100000
00000000
00100000
,
00001000
00000000
00001000
00000100
00000000
00000100
00000010
00000000
00000000
00000101
00000000
00000000
,
00001000
00000000
00001000
00000100
00000000
00000000
00010100
00000000
00000000
00001000
00000000
00001000
,
00010000
00000000
00000000
00101000
00000000
00000000
00010000
00000000
00010000
10000000
00000000
10000000
,
01000000
00000000
01000000
00010000
00000000
00010000
00001000
00000000
00001000
00000100
00000000
00000000
,
00000020
00000000
00000000
00000030
,
00000110
00000101
00000020
00000000
,
00000030
00000000
00000000
00000001
00000000
00000001
00000100
00000000
00000100
00001000
00000000
00000000
,
00022000
00000000
00000000
00033000
,
00011000
00110000
02000000
00000000
,
03000000
00000000
00000000
10000000
00000000
10000000
00100000
00000000
00100000
00010000
00000000
00000000
,
00002000
00000000
00000000
00003000
,
00011000
00010100
00000020
00000000
,
00000030
00000000
00000000
00000001
00000000
00000001
00000100
00000000
00000100
00001000
00000000
00000000
,
00010000
00000000
00010000
00001000
00000000
00000000
00011000
00000000
00000000
00010000
00000000
00010000
,
01000000
00000000
00000000
01100000
00000000
00000000
00100000
00000000
00100000
00010000
00000000
00000000
,
10020000
00100000
00001000
00130000
,
10000000
00000000
10000000
01000000
00000000
01000000
00010000
00000000
00010000
00001000
00000000
00001000
,
00000100
00000000
00000000
00000101
00000000
00000000
00000001
00000000
00000001
00000010
00000000
00000010
,
00001000
00000000
00001000
00010000
00000000
00010000
00100000
00000000
00000000
10100000
00000000
00000000
,
10000000
00000000
10000000
01000000
00000000
01000000
00010000
00000000
00010000
00001000
00000000
00001000
,
00000010
00000000
00000000
00000011
00000000
00000000
00000001
00000000
00000001
00000100
00000000
00000100
,
00001000
00000000
00001000
00010000
00000000
00010000
00100000
00000000
00000000
01100000
00000000
00000000
,
10000000
00000000
10000000
00100000
00000000
00100000
01000000
00000000
01000000
00010000
00000000
00010000
,
00100000
00000000
00000000
01100000
00000000
00000000
01000000
00000000
01000000
00010000
00000000
00010000
,
00001000
00000000
00001000
00000100
00000000
00000100
00000010
00000000
00000000
00000110
00000000
00000000
,
00000010
00000000
00000010
00001000
00000000
00001000
00000001
00000000
00000001
00000010
00000000
00000010
,
00000100
00000000
00000000
00000110
00000000
00000000
00000001
00000000
00000001
00000100
00000000
00000000
,
00001010
00000000
00000000
00010000
00000000
00010000
00000100
00000000
00000000
00011000
00000000
00000000
,
00100000
00000000
00100000
00010000
00000000
00010000
01000000
00000000
01000000
00100000
00000000
00100000
,
10000000
00000000
10000000
01000000
00000000
00000000
12000000
00000000
00000000
00100000
00000000
00000000
,
03010000
01020000
00001000
00030010
,
00001020
00000100
00000001
00000100
,
00001030
00001001
00000200
00000000
,
00000000
00000000
00000000
00000000
,
00000000
00000000
00000000
00000310
,
00000010
00000000
00000000
00000010
00000000
00000000
00000100
00000000
00000100
00001000
00000000
00001000
,
00010000
00000000
00010000
01000000
00000000
01000000
00010000
00000000
00010000
00001000
00000000
00001000
,
00000010
00000000
00000010
00001000
00000000
00001000
00010000
00000000
00010000
00100000
00000000
00100000
,
00010000
00011000
00002000
00000000
,
00000000
00000000
00000000
00000000
,
00000000
00000000
00000000
00013000
,
00010000
00000000
00000000
00010000
00000000
00000000
00001000
00000000
00001000
00010000
00000000
00010000
,
01000000
00000000
01000000
10000000
00000000
10000000
00100000
00000000
00100000
00010000
00000000
00010000
,
00001000
00000000
00001000
00010000
00000000
00010000
00100000
00000000
00100000
10000000
00000000
10000000
,
01000000
00000000
01000000
00010000
00000000
00000000
00001000
00000000
00001000
00000100
00000000
00000100
,
00000001
00000000
00000000
00000100
00000000
00000100
00001000
00000000
00001000
00010000
00000000
00000000
,
00001000
00000000
00001000
00000010
00000000
00000010
00000001
00000000
00000000
00000011
00000000
00000000
,
00001100
00000000
00000000
00000011
00000000
00000000
00000010
00000000
00000010
00001000
00000000
00001000
,
00010000
00000000
00000000
00010000
00000000
00010000
01000000
00000000
01000000
20000000
00000000
00000000
,
00000000
00000000
00000000
00000000
,
00000000
00000000
00000000
00000000
,
00000000
00000000
00000000
00000000
,
00000000
00000000
00000000
00000000
,
00000000
00000000
00000000
00000000
00000000
30000000
00000000
00000000
,
00000000
00000000
00000000
00000000
,
00000000
00000000
00000000
00000000
,
00000000
00000000
00000000
00000000
,
00010000
00000000
00000000
00001000
00000000
00000000
00010000
00000000
00000000
00001000
00010000
00001000
,
00010000
00000000
00001000
00010000
00000000
00000000
00011000
00000000
00000000
00000010
00000000
00000010
,
00000100
00000000
00000100
00000010
00000000
00000000
00000001
00001000
00000001
00001000
00000000
00000000
,
00001001
00000000
00000000
00000100
00000000
00000100
00001000
00000000
00001000
00010000
00000000
00000000
,
00001000
00010000
00001000
00010000
00000000
00000000
00022000
00000000
00000000
00000000
00000000
00000000
,
00000000
00033000
00101000
01010000
,
20200000
00000000
00000000
00000000
,
30300000
00000000
00000000
00000000
,
00000000
00000000
00000000
00000000
;
#NOTES:
     dance-double:
     :
     Hard:
     14:
     :
00000000
00000000
00000000
00000000
,
00000000
00000000
00000000
00000000
,
00000000
00000000
00000000
00000000
,
00000000
00000000
00000000
00000000
,
00000000
00000000
00000000
00000000
,
11000000
00100000
00010000
00001000
,
00001100
00000001
00000010
00001000
,
00011000
00100000
10000000
01000000
,
00200000
00000000
00000000
00000000
00000000
00000000
00000000
00000000
00000000
00000000
00000000
00000000
00000000
00000000
00000000
00000000
00000000
00000000
00000000
00000000
00000000
00000000
00000000
00000000
00000000
00000000
00000000
00300000
00000000
00000000
00000000
00000000
00000000
00000000
00000000
00000000
00000000
00000000
00000000
00000000
00000000
00000000
00000000
00000000
00000000
00000000
00000000
00000000
10010000
00000000
00000000
00000000
00000000
00000000
00000000
00000000
00000000
00000000
00000000
00000000
00000000
00000000
00000000
00000000
00000000
00000000
00000000
00000000
00000000
00000000
00000000
00000000
00000000
00000000
00000000
00000000
00000000
00000000
00000000
00000000
10000000
00000000
00000000
00000000
00000000
00000000
00000000
00000000
00000000
00000000
00000000
00000000
00000000
00000000
00000000
00000000
00010000
00000000
00000000
00000000
00000000
00000000
00000000
00000000
00000000
00000000
00000000
00000000
00000000
00000000
00000000
00000000
00100000
00000000
00000000
00000000
00000000
00000000
00000000
00000000
00000000
00000000
00000000
00000000
00000000
00000000
00000000
00000000
00000000
00000000
00000000
00000000
00000000
00000000
00000000
00000000
00000000
00000000
00000000
00000000
00000000
00000000
00000000
00000000
00010000
00000000
00000000
00000000
00000000
00000000
00000000
00000000
00000000
00000000
00000000
00000000
00000000
00000000
00000000
00000000
00000000
00000000
00000000
00000000
00000000
00000000
00000000
00000000
00000000
00000000
00000000
00000000
00000000
00000000
00000000
00000000
01000000
00000000
00000000
00000000
00000000
00000000
00000000
00000000
00000000
00000000
00000000
00000000
00000000
00000000
00000000
00000000
,
00010000
00100000
00000000
00001000
00000000
00010000
00001000
00000000
00000000
00010000
00000000
00001000
,
00010000
00000100
00000000
00001000
00000000
00000100
00001000
00000001
00000000
00001000
00000000
00000001
,
00001000
00000000
00000000
00000001
00000000
00000010
00000100
00000010
00000000
00000001
00000000
00001000
,
00000100
00001000
00000000
00000100
00000000
00010000
00001000
00000000
00000000
00010000
00000000
00001000
,
00100000
00010000
00000000
01000000
00000000
00100000
01000000
00100000
00000000
10000000
00100000
01000000
,
00010000
00000000
00000000
10000000
00000000
01000000
10000000
00010000
00000000
00100000
00000000
01000000
,
00010000
00001000
00000000
00010000
00000000
00001000
00010000
00000000
00000000
00001000
00000000
00010000
,
00000100
00001000
00000000
00000010
00000000
00000100
00000010
00001000
00000000
00000001
00000000
00001000
,
00000001
00000000
00000000
00000010
00000000
00000100
00000010
00000001
00000000
00001000
00000000
00000100
,
00000010
00001000
00000000
00010000
00000000
00001000
00010000
00000000
00000000
00021000
00000000
00000000
,
01030000
00100000
01000000
00100000
00000000
00000000
20010000
00000000
00000000
30100000
01000000
00100000
,
00010000
00000000
00000000
00012000
00000000
00000000
00003010
00000100
00000010
00000100
00000000
00000000
,
00000100
00001000
00000100
00010000
00001000
00010000
00000010
00001000
00000010
00000100
00000000
00000000
,
00000202
00000000
00000000
00000303
,
00000011
00001010
00002200
00000000
,
00003300
00000000
00000000
00001000
00000100
00010000
00001000
00010000
00000010
00001000
00000000
00000000
,
00002020
00000000
00000000
00003030
,
00010010
00011000
00202000
00000000
,
00303000
00000000
00000000
00100000
00001000
00010000
00001000
01000000
00010000
01000000
00000000
00000000
,
02020000
00000000
00000000
03030000
,
11000000
10100000
20020000
00000000
,
30030000
00000000
00000000
10000000
00100000
10000000
00010000
00100000
00010000
01000000
00000000
00000000
,
00100000
00000000
00010000
00001000
00000000
00000000
00011000
00000000
00000000
00000010
00000000
00001000
,
00010000
00000000
00000000
00011000
00000000
00000000
01000000
00000000
00010000
00001000
00000000
00000000
,
00011000
00000000
00000000
00011000
00000000
00000000
00011000
00000000
00000000
00010100
00000000
00001000
,
00000100
00000010
00000000
00000001
00000000
00000100
00000010
00001000
00000000
00000100
00000000
00001000
,
00000100
00000000
00000000
00001100
00000000
00001000
00000100
00010000
00000000
00001000
00000000
00100000
,
00010000
10000000
00000000
00100000
00000000
10000000
00100000
00000000
00000000
10100000
00000000
01000000
,
00100000
10000000
00000000
00010000
00000000
10000000
01000000
00100000
00000000
01000000
00100000
00010000
,
00100000
00000000
00000000
00110000
00000000
00100000
00001000
00010000
00000000
00001000
00000000
00010000
,
00000010
00001000
00000000
00000010
00000100
00000001
00000100
00000000
00000000
00000101
00000000
00000100
,
00000001
00000010
00000000
00000100
00000000
00000010
00000100
00001000
00000000
00000100
00000000
00010000
,
00001000
00000000
00000000
00011000
00000000
00001000
00010000
00100000
00000000
01000000
00000000
00100000
,
10000000
00010000
00000000
10000000
00000000
01000000
00100000
00000000
00000000
01100000
00000000
01000000
,
10000000
00010000
00000000
10000000
00000000
00100000
01000000
00010000
00000000
01000000
00100000
00010000
,
00001000
00000000
00000000
00011000
00000000
00000000
00000010
00001000
00000001
00000010
00000000
00000000
,
00000110
00000000
00000000
00000001
00001000
00000100
00010000
00000000
00000000
00011000
00000000
00000000
,
00100000
00010000
10000000
01000000
00000000
00000000
01000000
10000000
00010000
00100000
01000000
10000000
,
00100000
01000000
00010000
10010000
00000000
00000000
00100000
00000000
00001000
00000100
00000000
00000000
,
00000001
00000000
00000000
00000010
00000000
00010000
01000000
00000000
00000000
10000000
00000000
00000000
,
00100000
00000000
00001000
00000100
00000000
00000000
00000110
00000000
00000000
00000011
00000000
00000000
,
00000101
00001001
00000020
00000000
,
00000000
00000000
00000000
00000000
,
00000000
00000000
00000000
00000130
,
00001100
00000000
00000000
00011000
00000000
00001000
00010000
00100000
00010000
00100000
00000000
00100000
,
01000000
00100000
10000000
00100000
00000000
10000000
01000000
00000000
00000000
11000000
00000000
10000000
,
00010000
10000000
00010000
01000000
00000000
01000000
00010000
00100000
00010000
00100000
00000000
00100000
,
00001000
00010000
00001000
00010000
00000000
00000000
00000200
00000000
00000000
00000000
00000000
00000000
,
00000000
00000000
00000000
00000000
,
00000000
00000000
00000000
00000310
,
00000110
00000000
00000000
00001001
00000000
00000001
00000010
00000001
00000010
00000100
00000000
00001000
,
00000100
00010000
00001000
00010000
00000000
00010000
00001000
00000000
00000000
01000000
00000000
00100000
,
10000000
00100000
10000000
00010000
00000000
10000000
01000000
10000000
00010000
00100000
00010000
01000000
,
00100000
00000000
00000000
01100000
00000000
00100000
00010000
00100000
00010000
00001000
00000000
00000000
,
00011000
00000000
00000100
00001000
00000100
00001000
00000001
00000000
00000000
00001001
00000000
00000010
,
00000001
00000010
00000001
00000100
00000000
00000000
00001100
00000000
00000000
00011000
00000000
00000000
,
00011000
00000000
00000000
01010000
00000000
00010000
01000000
00010000
01000000
00100000
00000000
00000000
,
10100000
00000000
10000000
01000000
10000000
01000000
00100000
00000000
00000000
22000000
00000000
00000000
,
00000000
00000000
00000000
00000000
,
00000000
00000000
00000000
00000000
,
00000000
00000000
00000000
00000000
,
00000000
00000000
00000000
00000000
,
00000000
00000000
00000000
00000000
33000000
00000000
,
00000000
00000000
00000000
00000000
,
00000000
00000000
00000000
00000000
,
00000000
00000000
00000000
00000000
,
00000001
00000000
00000000
00000001
00000000
00000000
00000001
00000000
00000000
00000001
00000010
00000100
,
00001000
00010000
00001000
00010000
00100000
01000000
10000000
00000000
00000000
01000000
00000000
00100000
,
10000000
00000000
00000000
01100000
00000000
00000000
00010000
01000000
00010000
10000000
00010000
00100000
,
00010000
00000000
00000000
00001000
00000000
00000010
00000100
00000000
00000000
00000110
00000000
00000000
,
00001000
00000100
00001000
00000001
00001000
00000010
00002000
00000000
00000000
00000000
00000000
00000000
,
00000000
00000000
00013000
01100000
,
22000000
00000000
00000000
00000000
,
33000000
00000000
00000000
00000000
,
00000000
00000000
00000000
00000000
;
