
//----- song id: stfa
#TITLE:Starlight Fantasia;
#ARTIST:TAG;
#BANNER:Starlight Fantasia.png;
#BACKGROUND:Starlight Fantasia-bg.png;
#CDTITLE:./CDTitles/DDR (2014).png;
#MUSIC:Starlight Fantasia.ogg;
#SAMPLESTART:40.541;
#SAMPLELENGTH:15;
#DISPLAYBPM:148;
#BPMS:0=148;
#NOTES:
     dance-single:
     :
     Beginner:
     3:
     :
0000
0000
0000
0000
,
0000
0000
0000
0000
,
0000
0000
0000
0000
,
0000
0000
0000
0000
,
0000
0000
0000
0000
,
0001
0000
0010
0000
,
1000
0000
0100
0000
,
0001
0000
1000
0000
,
2002
0000
3003
0000
,
0001
0000
0001
0000
,
0010
0000
0010
0000
,
1000
0000
1000
0000
,
0010
0000
0010
0000
,
0001
0000
0001
0000
,
0100
0000
0100
0000
,
1000
0000
1000
0000
,
1001
0000
0000
0000
,
0010
0010
0010
0000
,
0001
0001
0001
0000
,
1000
1000
1000
0000
,
0010
0010
0010
0000
,
1001
0000
0000
0000
,
1001
0000
0000
0000
,
1001
0000
1001
0000
,
2002
0000
3003
0000
,
0010
0010
0010
0010
,
0010
0010
0010
0000
,
0100
0100
0100
0100
,
0100
0100
0100
0000
,
0001
0001
0001
0001
,
0001
0001
0001
0000
,
1000
1000
1000
1000
,
1000
1000
1000
0000
,
0002
0000
0000
0003
,
0000
0000
0000
0000
,
0020
0000
0000
0030
,
0000
0000
0000
0000
,
2000
0000
0000
3000
,
0000
0000
0000
0000
,
0001
0000
1000
0000
,
0001
0000
1000
0000
,
0001
0000
0000
0000
,
1000
0000
0000
0000
,
0010
0000
0000
0000
,
0100
0000
0000
0000
,
0001
0001
0001
0000
,
0010
0000
0100
0000
,
1000
1000
1000
0000
,
0010
0000
0100
0000
,
0001
0000
0010
0000
,
1000
0000
0010
0000
,
0001
0000
0001
0000
,
1000
0000
1000
0000
,
0010
0010
0010
0000
,
0001
0000
1000
0000
,
0010
0010
0010
0000
,
1000
0000
0001
0000
,
1000
0000
0100
0000
,
0001
0000
0100
0000
,
1000
1000
1000
0000
,
0001
0001
0001
0000
,
2002
0000
0000
0000
,
3003
0000
0000
0000
,
0002
0000
0003
0000
,
2000
0000
3000
0000
,
0010
0010
0010
0010
,
0010
0010
0010
0000
,
1000
0000
0001
0000
,
1000
0000
0001
0000
,
1001
0000
0000
0000
,
1001
0000
0000
0000
,
0000
0000
0000
0000
;
#NOTES:
     dance-single:
     :
     Easy:
     7:
     :
0000
0000
0000
0000
,
0000
0000
0000
0000
,
0000
0000
0000
0000
,
0000
0000
0000
0000
,
0000
0000
0000
0000
,
1000
0010
0100
0001
,
0010
0100
1000
0001
,
1000
1000
0000
0000
0001
0001
0000
0000
,
2002
0000
0000
3003
,
0010
0000
0001
0000
0100
0010
0100
0000
,
2000
0100
0001
3100
,
0010
0000
1000
0000
0100
0010
0100
0000
,
0002
0100
1000
0103
,
1000
0000
0100
0000
0010
0001
0010
0000
,
2000
0010
0001
3010
,
0001
0000
0100
0000
0010
0100
0010
0000
,
0001
1000
1001
0000
,
1000
0000
1000
0000
0001
0100
0010
0000
,
1000
0010
0001
0010
,
1000
0000
1000
0000
0100
0010
0001
0000
,
0010
0001
0100
1000
,
0110
0001
1000
0000
,
0110
1000
0001
0000
,
0011
0000
1100
0000
,
0010
0010
0010
0010
,
0002
0010
0010
0013
,
2000
0010
0010
3010
,
0002
0010
2003
0010
,
3002
0100
2003
0100
,
3002
0010
0010
0013
,
2000
0010
0010
3010
,
0002
0000
0010
0000
2003
0000
3010
0010
,
0000
1000
1000
0000
0001
0001
0000
0000
,
2000
0000
3200
0000
,
0320
0000
0031
0100
,
0020
0000
2030
0000
,
3200
0000
0310
0001
,
0200
0000
0320
0000
,
2030
0000
3100
0010
,
0011
0000
1100
0000
,
1010
0000
0101
0000
,
0001
0010
1000
0100
,
0001
0100
1000
0010
,
0001
0001
0001
0000
1000
1000
1000
0000
,
0020
0000
0000
0130
,
0010
0000
0010
0000
1000
0001
0100
0000
,
0001
0010
0100
1000
,
0010
0000
0010
0000
0001
1000
0100
0000
,
1000
0010
0100
0001
,
0000
0000
1000
0000
1000
0100
0001
0000
,
0000
0000
0001
0000
0001
0100
1000
0000
,
1000
0010
0001
0100
,
1000
0010
0001
0001
,
1000
0000
1000
0000
0100
0010
0001
0000
,
1000
0100
1100
0000
,
0001
0000
0001
0000
0100
0010
1000
0000
,
0001
0100
0101
0000
,
0001
0000
0010
0000
0100
1000
0100
0000
,
1000
0000
0010
0000
0100
0001
0100
0000
,
0001
0010
1000
0010
,
0001
0100
1000
0100
,
0220
0000
0000
0330
,
2000
0000
3002
0000
,
0203
0000
0000
0000
,
0320
0000
1030
0001
,
0100
0000
0100
0000
0010
1000
0100
0000
,
0010
0000
0010
0000
0001
1000
0010
0000
,
1000
1000
1000
0000
0010
0010
0010
0000
,
0001
0001
0001
0000
0100
0100
0100
0000
,
2000
0000
0000
3000
,
0220
0000
0000
0000
,
0000
0000
0000
0330
,
0000
0000
0000
0000
;
#NOTES:
     dance-single:
     :
     Medium:
     11:
     :
0000
0000
0000
0000
,
0000
0000
0000
0000
,
0000
0000
0000
0000
,
0000
0000
0000
0000
,
0000
0000
0000
0000
,
1000
0100
1000
0100
,
0010
0001
0010
0001
,
1000
1000
0000
0000
0001
0001
0000
0000
,
1000
0000
0000
0010
0000
0000
0001
0000
0000
0100
0000
0000
1000
0000
0001
0000
,
0100
0000
0000
0100
0001
0000
1000
0000
0000
1000
0000
0000
0010
0000
0100
0000
,
0001
0000
0000
0001
1000
0000
0010
0000
0000
0010
0000
0000
0100
0000
0010
0000
,
1000
0000
0000
1000
0100
0000
0010
0000
0000
0010
0000
0000
0001
0000
0010
0000
,
0100
0000
0000
0100
1000
0000
0001
0000
0000
0001
0000
0000
0010
0000
0001
0000
,
1000
0000
0000
1000
0010
0000
0100
0000
0000
0100
0000
0000
0010
0000
1000
0000
,
0001
0000
0000
0001
0010
0000
0100
0000
0000
0100
0000
0000
1000
0000
0100
0000
,
0010
0000
0000
0010
0001
0000
0100
0000
0000
0100
0000
0000
0010
0000
1000
0000
,
0001
0000
0000
0001
0000
0000
1000
0000
0000
1000
0000
0000
0010
0000
0000
0000
,
1000
0010
1000
0010
0100
0010
0100
0010
,
1000
0001
1000
0001
0010
0001
0010
0001
,
1000
0100
1000
0100
0010
0100
0010
0100
,
0010
0001
0010
0001
1000
0001
1000
0001
,
0100
0000
0000
0100
0000
0000
0100
0000
0000
0000
0000
0000
0001
0000
0001
0000
,
1000
0000
0000
1000
0000
0000
1000
0000
0000
0000
0000
0000
0000
0000
1000
0000
,
0001
0000
0000
0010
0000
0000
0010
0000
1000
0000
0000
0010
0000
0000
0010
0000
,
0100
0000
0000
0100
0000
0000
0001
0000
0000
0001
0000
0000
1000
0000
1000
0000
,
0002
0000
0010
0000
0010
0003
0010
0200
,
0010
0000
0010
0000
0010
0300
0010
0001
,
0000
0001
0100
0000
0010
0100
0000
0010
,
0000
1000
0001
0000
1010
0000
0011
0000
,
0200
0000
1000
0000
1000
0300
1000
0002
,
0100
0000
0100
0000
0100
0003
0100
0020
,
1000
0000
1000
0000
1000
0030
1000
0100
,
0000
0100
0010
0001
1000
0001
0000
0000
,
0200
0000
0000
0320
0000
0000
2030
0000
,
0000
3020
0000
0000
0230
0000
0302
0000
,
2003
0000
0000
3200
0000
0000
0320
0000
,
0000
0032
0000
0000
0023
0000
0230
0000
,
2300
0000
0000
3020
0000
0000
0230
0000
,
0000
0320
0000
0000
2030
0000
3002
0000
,
1003
0000
0010
0000
,
0001
0000
0010
0000
,
0001
0100
1000
0010
,
0001
0010
1000
0100
,
0001
0100
0001
0100
0010
1000
0010
1000
,
0001
0000
0000
0001
0000
0000
1000
0000
0000
1000
0000
0000
1001
0000
0000
0000
,
0010
0000
0100
0010
0000
0000
0100
0000
0001
0000
0010
0000
0100
0000
1000
0000
,
0001
0000
0000
0001
1000
0000
0010
0000
1000
0000
0000
0000
0101
0000
0000
0000
,
0001
0000
1000
0001
0000
0000
0100
0000
0010
0000
1000
0000
0100
0000
0010
0000
,
0001
0000
0000
0001
0010
0000
0100
0000
1000
0000
0000
1000
0010
0000
0100
0000
,
0010
1000
0010
0100
0010
1000
0010
0000
,
0001
0010
0100
0010
0001
0010
0100
0000
,
1000
0000
0000
0010
0100
0000
0010
0000
1000
0000
0000
0100
0010
0000
0100
0000
,
1000
0000
0000
0010
0100
0000
0001
0000
1000
0000
0000
0000
0110
0000
0000
0000
,
0001
0000
1000
0001
0000
0000
0001
0000
0010
0000
0100
0000
1000
0000
0001
0000
,
0000
0000
0001
0000
1000
0100
0000
0010
0000
0000
0010
0000
0001
0000
0001
0000
,
1000
0000
0010
1000
0000
0000
0001
0000
0100
0000
0010
0000
1000
0000
0001
0000
,
0000
0000
1000
0000
0100
0010
0000
0100
0000
0000
0100
0000
1000
0000
0000
0000
,
0001
0100
0010
1000
0001
0100
0010
0000
,
1000
0001
0010
0001
1000
0001
0100
0000
,
0010
1000
0100
0000
0010
0001
0100
0000
,
0010
1000
0100
0010
0110
0000
1001
0000
,
0220
0000
0000
0330
,
2000
0000
3002
0000
,
0023
0000
0000
0000
,
0230
0000
1300
1001
,
0010
0001
1000
0000
0101
0000
1100
0000
,
0010
1000
0001
0000
1100
0000
0101
0000
,
1000
0100
0010
0100
1000
0100
0010
0100
,
1000
0010
0100
0001
0010
0100
1000
0001
,
2000
0000
0000
3000
,
0220
0000
0000
0000
,
0000
0000
0000
0330
,
0000
0000
0000
0000
;
#NOTES:
     dance-single:
     :
     Hard:
     14:
     :
0000
0000
0000
0000
,
0000
0000
0000
0000
,
0000
0000
0000
0000
,
0000
0000
0000
0000
,
0000
0000
0000
0000
,
0011
1000
0010
0001
,
1100
0001
0100
1000
,
0001
0000
0001
0000
0000
0000
1000
0010
0100
0000
0100
0000
0000
0000
0001
1000
,
0001
0000
0000
0001
0000
0000
1000
0000
0000
1000
0000
0000
0001
0000
1000
0000
,
0010
0000
0010
1000
0000
1000
0001
0000
0010
0001
0000
0000
0100
0000
0010
0000
,
1000
0000
1000
0001
0000
0001
0100
0000
0010
0100
0000
0000
1000
0000
1100
0000
,
0001
0000
0001
0010
0000
0010
0100
0000
0010
0001
0000
0000
1000
0000
0100
0000
,
0010
0000
0010
0001
0000
0001
0100
0000
0001
0010
0000
0000
0100
0000
1100
0000
,
0001
0000
0001
0100
0000
0100
0010
0000
1000
0010
0000
0000
0100
0000
0010
0000
,
1000
0000
1000
0100
0000
0100
0001
0000
0100
1000
0000
0000
0001
0000
0011
0000
,
0100
0000
0100
0010
0000
0010
0001
0000
1000
0001
0000
0000
1000
0000
1000
0000
,
0001
0000
0000
0011
0000
0000
0100
0000
0000
1100
0000
0000
0001
1000
0100
1000
,
0001
0000
0100
0001
0000
0100
0001
0100
0010
0000
0100
0010
0000
0100
0010
0100
,
0001
0000
1000
0001
0000
1000
0001
1000
0100
0000
1000
0100
0000
1000
0100
1000
,
0001
0000
0010
0001
0000
0010
0001
0010
0100
0000
0010
0100
0000
0010
0100
0010
,
0100
0000
1000
0100
0000
1000
0100
1000
0001
0000
1000
0001
0000
1000
0001
1000
,
0010
0000
0000
1000
0000
0000
1010
0000
0000
0000
0000
0000
0010
1000
0100
0010
,
0001
0000
0000
0100
0000
0000
0101
0000
0000
0000
0000
0000
0000
0000
0001
0000
,
1000
0000
0000
1100
0000
0000
1100
0000
0001
0000
0000
0101
0000
0000
0101
0000
,
1010
0000
0000
1100
0000
0000
0101
0000
0000
0011
0000
0000
0110
0000
1000
0000
,
0002
0000
0100
0000
0100
0000
0103
0020
,
1000
0000
1000
0000
1000
0000
1030
0100
,
0010
0100
0010
0100
0010
0001
0100
0010
,
1000
0001
1000
0000
0101
0000
1100
0000
,
0020
0000
0001
0000
0001
0000
0031
0200
,
0010
0000
0010
0000
0010
0000
0310
2000
,
0001
0000
0001
0000
0001
0000
3001
0010
,
0000
0000
0010
0000
0001
0000
1000
0010
0100
0000
0001
0000
0000
0000
1000
0001
,
2000
0000
0000
3100
0000
0200
0302
0000
,
0000
1003
0000
2000
3002
0000
0203
0000
,
2300
0000
0000
3010
0000
0020
0032
0000
,
0000
0013
0000
0020
2030
0000
3002
0000
,
1003
0010
0100
0001
1000
0010
0100
0001
,
1000
0010
0100
0001
1000
0100
0010
0001
,
1000
0000
0001
0000
,
1000
0000
0001
0000
,
2000
3020
0032
0203
,
2300
3200
0302
0023
,
1030
0000
0010
0000
1000
0000
0010
0000
0100
0001
0100
0001
1000
0001
1000
0001
,
0010
0000
0000
0010
0000
0000
0001
0000
0000
0001
0000
0000
1000
0000
1000
0000
,
0100
0000
0010
0100
0000
0000
0010
0000
0001
0100
0001
0000
1000
0100
1000
0000
,
0010
0000
0100
0010
0000
0100
0001
0000
1100
0000
0000
0000
0101
0000
0000
0000
,
1000
0000
0001
1000
0000
0000
0010
0000
0100
0001
0100
0000
0010
0100
0010
0000
,
1000
0000
0100
1000
0000
0100
0010
0000
0001
0000
0100
0001
0000
0100
0010
0000
,
0100
0000
0001
0100
0001
0000
0001
0000
0001
0010
0100
1000
0000
0001
0000
0001
,
0000
0000
1000
0100
1000
0000
0010
0000
1000
0010
0100
0001
0000
1000
0000
1000
,
0001
0000
0100
0010
0000
0100
0010
0000
1001
0000
0100
0010
0000
0100
0010
0000
,
1001
0000
0100
0010
0000
0100
0010
0000
1010
0000
0000
0000
0101
0000
0000
0000
,
0010
0000
0100
0010
0000
0000
1000
0000
0100
0010
0100
0010
0001
0100
0010
1000
,
0000
0000
1010
0000
0001
0010
0000
1100
0000
0000
0010
0000
0100
0000
1000
0000
,
0001
0000
0100
0001
0000
0000
1000
0000
0010
0100
0010
0100
0001
0010
0100
1000
,
0000
0000
0011
0000
0100
0010
0000
1010
0000
1000
0010
0000
0100
0000
0010
0000
,
1000
0000
1000
0100
1000
0000
1000
0000
1000
0100
0010
0001
0000
0100
0000
0010
,
0000
0000
0001
0100
0001
0000
0010
0000
0001
1000
0010
0100
0000
0100
0000
0102
,
0000
0000
0000
0000
0000
0000
1003
0000
0100
0000
0010
0001
0000
0001
0100
0000
,
0010
0000
1000
0100
0000
0100
0010
0000
0110
0000
0000
0000
1001
0000
0000
0000
,
0220
0000
0000
0330
,
0002
0000
2003
0000
,
3002
0000
0000
0000
,
0203
0000
0000
0000
0000
0000
0000
0000
0310
0000
1000
0001
0100
0000
0000
0000
,
0010
0000
1000
0000
0100
1000
0100
0000
0010
0000
0100
1000
0000
1000
0001
0000
,
0010
0000
0001
0000
0100
0001
0100
0000
0010
0000
0100
0001
0000
0001
1000
0000
,
0010
0000
1000
0000
0010
1000
0000
0010
0100
0000
0001
0000
0100
0001
0000
0100
,
0010
0100
0010
0100
0010
1000
0010
1000
0001
0010
0100
1000
0010
0100
0001
1000
,
0002
0000
0000
0003
,
0220
0000
0000
0000
,
0000
0000
0000
0330
,
0000
0000
0000
0000
;
#NOTES:
     dance-double:
     :
     Easy:
     7:
     :
00000000
00000000
00000000
00000000
,
00000000
00000000
00000000
00000000
,
00000000
00000000
00000000
00000000
,
00000000
00000000
00000000
00000000
,
00000000
00000000
00000000
00000000
,
00000001
00000100
00000010
00001000
,
00010000
01000000
00100000
10000000
,
00010000
00010000
00000000
00000000
10000000
10000000
00000000
00000000
,
20020000
00000000
00000000
30030000
,
00100000
10000000
01000000
00010000
,
00002000
00010000
00100000
00013000
,
00001000
00000010
00000001
00000100
,
00002000
00000010
00000001
00003010
,
00000001
00000100
00001000
00010000
,
00002000
00010000
01000000
00013000
,
00010000
00100000
10000000
01000000
,
00100000
01000000
01100000
00000000
,
10000000
00000000
01000000
00000000
00010000
00001000
00010000
00000000
,
00001000
00000010
00000001
00000100
,
00000001
00000000
00000100
00000000
00001000
00010000
00001000
00000000
,
00010000
00100000
10000000
01000000
,
01100000
00000000
00101000
00000000
,
00011000
00000000
00010010
00000000
,
00000110
00000000
00001001
00000000
,
00000100
00000100
00000100
00000100
,
00020000
00001000
00030200
00001000
,
00020300
00001000
00030200
00001300
,
00000001
00000100
00001000
00010000
,
01000000
10000000
01000000
00100000
,
00002000
00010000
02003000
00010000
,
03002000
00010000
02003000
03010000
,
10000000
00000000
01000000
00000000
00010000
00000000
00001000
00001000
,
00000000
00010000
00010000
00000000
00001000
00001000
00000000
00000000
,
00000200
00000000
00000302
00000000
,
00000203
00000000
00002300
00023000
,
02030000
00000000
23000000
00000000
,
32000000
00000000
03020000
00032000
,
00003020
00000000
00000032
00000000
,
00000023
00000000
00001030
00010000
,
00001000
00000000
00010000
00000000
,
00001000
00000000
00010000
00000000
,
00001000
00010000
00100000
10000000
,
01000000
00010000
00001000
00000100
,
00000001
00000001
00000001
00000000
00001000
00001000
00001000
00000000
,
00000220
00000000
00000000
00000330
,
00000001
00000000
00000001
00000000
00001000
00000100
00000010
00000000
,
00000001
00000100
00001000
00010000
,
00100000
00000000
00100000
00000000
10000000
00010000
01000000
00000000
,
10000000
01000000
00010000
00001000
,
00010000
00000000
00010000
00000000
00000010
00010000
00000100
00000000
,
00000010
00000000
00000010
00000000
00000001
00001000
00000010
00000000
,
00000001
00000101
00001000
00001010
,
00010000
00011000
00100000
00010000
,
00100000
00000000
00100000
00000000
01000000
10000000
00100000
00000000
,
01000000
00010000
01010000
00000000
,
00001000
00000000
00010000
00000000
00000010
00000100
00000001
00000000
,
00001000
00000100
00001100
00000000
,
00001000
00000000
00000100
00000000
00000010
00000001
00000100
00000000
,
00001000
00000000
00010000
00000000
00100000
10000000
00010000
00000000
,
00100000
00010000
01000000
00100000
,
10000000
01000000
00010000
00001000
,
00022000
00000000
00000000
00033000
,
00000020
00000030
00002000
00003000
,
00000002
00000000
00000000
00000003
,
00000020
00000000
00000130
00001001
,
00000010
00000000
00000010
00000000
00000001
00000100
00000010
00000000
,
00010000
00000000
00010000
00000000
00001000
00100000
00010000
00000000
,
10000000
10000000
10000000
00000000
00100000
00100000
00100000
00000000
,
00010000
00010000
00010000
00000000
01000000
01000000
01000000
00000000
,
00200000
00000000
00000000
00300000
,
20020000
00000000
00000000
00000000
,
00000000
00000000
00000000
30030000
,
00000000
00000000
00000000
00000000
;
#NOTES:
     dance-double:
     :
     Medium:
     11:
     :
00000000
00000000
00000000
00000000
,
00000000
00000000
00000000
00000000
,
00000000
00000000
00000000
00000000
,
00000000
00000000
00000000
00000000
,
00000000
00000000
00000000
00000000
,
00100000
10000000
01000000
00010000
,
00001000
00000100
00000001
00000010
,
00000001
00000001
00000000
00000000
00001000
00001000
00000000
00000000
,
00000001
00000000
00000000
00000010
00000000
00000000
00001000
00000000
00000000
00010000
00000000
00000000
00100000
00000000
10000000
00000000
,
00100000
00000000
00000000
00100000
01000000
00000000
00010000
00000000
00000000
00010000
00000000
00000000
10000000
00000000
01000000
00000000
,
00010000
00000000
00000000
00010000
00001000
00000000
00010000
00000000
00000000
00001000
00000000
00000000
00000010
00000000
00000001
00000000
,
00001000
00000000
00000000
00001000
00000100
00000000
00000010
00000000
00000000
00000010
00000000
00000000
00000001
00000000
00000100
00000000
,
00000010
00000000
00000000
00000010
00010000
00000000
00001000
00000000
00000000
00010000
00000000
00000000
01000000
00000000
10000000
00000000
,
00010000
00000000
00000000
00010000
01000000
00000000
00100000
00000000
00000000
10000000
00000000
00000000
01000000
00000000
00010000
00000000
,
00001000
00000000
00000000
00001000
00010000
00000000
00000010
00000000
00000000
00001000
00000000
00000000
00000001
00000000
00000100
00000000
,
00000010
00000000
00000000
00000010
00001000
00000000
00000100
00000000
00000000
00000010
00000000
00000000
00001000
00000000
00010000
00000000
,
00001000
00000000
00000000
00010000
00000000
00000000
00100000
00000000
00000000
10000000
00000000
00000000
01000000
00000000
00000000
00000000
,
10000000
00100000
10000000
00100000
00010000
00100000
00010000
00100000
,
00010000
00001000
00010000
00001000
00000100
00001000
00000100
00001000
,
00000100
00000001
00000100
00000001
00000010
00000001
00000010
00000001
,
00000010
00001000
00000010
00001000
00010000
00001000
00010000
00001000
,
00100000
00000000
00000000
00100000
00000000
00000000
00100000
00000000
00000000
00000000
00000000
00000000
00010000
00000000
00010000
00000000
,
10000000
00000000
00000000
10000000
00000000
00000000
10000000
00000000
00000000
00000000
00000000
00000000
00000000
00000000
00100000
00000000
,
10000000
00000000
00000000
01000000
00000000
00000000
01000000
00000000
00010000
00000000
00000000
00001000
00000000
00000000
00001000
00000000
,
00000010
00000000
00000000
00001000
00000000
00000000
00010000
00000000
00000000
00100000
00000000
00000000
00010000
00000000
00010000
00000000
,
00002000
00000000
00000100
00000000
00000100
00003000
00000100
00000002
,
00001000
00000000
00001000
00000000
00001000
00000003
00001000
00000100
,
00000000
00010000
00001000
00000000
00100000
00010000
00000000
01000000
,
00000000
00100000
10000000
00000000
11000000
00000000
01010000
00000000
,
00002000
00000000
00010000
00000000
00010000
00003000
00010000
00000200
,
00001000
00000000
00001000
00000000
00001000
00000300
00001000
00000002
,
00000010
00000000
00000010
00000000
00000010
00000003
00000010
00000100
,
00000000
00001000
00000001
00000100
00001000
00010000
00000000
00000000
,
00002000
00000000
00000000
00203000
00000000
00000000
02300000
00000000
,
00000000
23000000
00000000
00000000
32000000
00000000
03200000
00000000
,
00302000
00000000
00000000
00003200
00000000
00000000
00000320
00000000
,
00000000
00000032
00000000
00000000
00000023
00000000
00000230
00000000
,
00002300
00000000
00000000
00203000
00000000
00000000
02300000
00000000
,
00000000
23000000
00000000
00000000
32000000
00000000
03200000
00000000
,
00310000
00000000
10000000
00000000
,
00100000
00000000
01000000
00000000
,
00100000
00010000
00001000
00000100
,
00000001
00000010
00000100
00001000
,
00000001
00000100
00000010
00000100
00001000
00010000
00001000
00010000
,
00100000
00000000
00000000
00100000
00000000
00000000
10000000
00000000
00000000
10000000
00000000
00000000
10010000
00000000
00000000
00000000
,
01000000
00000000
00100000
01000000
00000000
00000000
00100000
00000000
00010000
00000000
01000000
00000000
00100000
00000000
10000000
00000000
,
01000000
00000000
00000000
00010000
00000000
00000000
00001000
00000000
00010000
00000000
00000000
00000000
00001100
00000000
00000000
00000000
,
00000010
00000000
00000100
00000010
00000000
00000000
00000001
00000000
00000100
00000000
00000010
00000000
00001000
00000000
00000100
00000000
,
00010000
00000000
00000000
00001000
00000000
00000000
01000000
00000000
00100000
00000000
00000000
10000000
00000000
00000000
01000000
00000000
,
00000000
00100000
00010000
00001000
00010000
00100000
00001000
00010000
,
00000000
00000010
00001000
00010000
00001000
00000010
00001000
00000001
,
00000010
00000000
00000000
00000010
00000001
00000000
00000100
00000000
00000010
00000000
00000000
00000010
00001000
00000000
00000100
00000000
,
00010000
00000000
00000000
00010000
00001000
00000000
00010000
00000000
01000000
00000000
00000000
00000000
11000000
00000000
00000000
00000000
,
00010000
00000000
10000000
00010000
00000000
00000000
00010000
00000000
01000000
00000000
00100000
00000000
10000000
00000000
01000000
00000000
,
00000000
00000000
00010000
00000000
00001000
00010000
00000000
00001000
00000000
00000000
00000100
00000000
00000001
00000000
00001000
00000000
,
00000100
00000000
00001000
00000100
00000000
00000000
00000010
00000000
00000100
00000000
00000010
00000000
00000001
00000000
00000100
00000000
,
00000000
00000000
00001000
00000000
00000100
00001000
00000000
00010000
00000000
00000000
00100000
00000000
10000000
00000000
00010000
00000000
,
00000000
10000000
01000000
00100000
01000000
10000000
00100000
00010000
,
00000000
00001000
00010000
00001000
00000100
00000001
00000010
00000100
,
00000010
00000001
00000100
00001000
,
00010000
00100000
10000000
00100000
01000000
00000000
00100000
00000000
,
20020000
00000000
00000000
30030000
,
00200000
00000000
00320000
00000000
,
00032000
00000000
00000000
00000000
,
00003200
00000000
00000301
00001001
,
00000010
00001000
00000100
00000000
00010100
00000000
00011000
00000000
,
00100000
00010000
01000000
00000000
01010000
00000000
00011000
00000000
,
00000010
00001000
00000100
00010000
00000010
00001000
00000100
00010000
,
00001000
00100000
01000000
10000000
00010000
01000000
00100000
00000000
,
20000000
00000000
00000000
30000000
,
02200000
00000000
00000000
00000000
,
00000000
00000000
00000000
03300000
,
00000000
00000000
00000000
00000000
;
#NOTES:
     dance-double:
     :
     Hard:
     14:
     :
00000000
00000000
00000000
00000000
,
00000000
00000000
00000000
00000000
,
00000000
00000000
00000000
00000000
,
00000000
00000000
00000000
00000000
,
00000000
00000000
00000000
00000000
,
00000110
00000001
00000100
00001000
,
00011000
01000000
10000000
00100000
,
10000000
00000000
10000000
00000000
00000000
00000000
00001000
00010000
00001000
00000000
00010000
00000000
00000000
00000000
00000001
00001000
,
00000001
00000000
00000000
00000010
00000000
00000000
00000100
00000000
00000000
00001000
00000000
00000000
00000001
00000000
00001000
00000000
,
00000010
00000000
00000000
00010000
00001000
00000000
00100000
00000000
00000000
00010000
10000000
00000000
00100000
00000000
00100000
00000000
,
01000000
00000000
00000000
00100000
10000000
00000000
01000000
00000000
00000000
00100000
00001000
00000000
00010000
00000000
00010000
00000000
,
00001000
00000000
00000000
00000100
00000001
00000000
00000100
00000000
00000000
00000010
00001000
00000000
00000001
00000000
00000001
00000000
,
00000010
00000000
00000000
00001000
00010000
00000000
00001000
00000000
00000000
01000000
00010000
00000000
10000000
00000000
10000000
00000000
,
01000000
00000000
00000000
00100000
00010000
00000000
00100000
00000000
00000000
01000000
00100000
00000000
00010000
00000000
00010000
00000000
,
01000000
00000000
00000000
00010000
00001000
00000000
00000010
00000000
00000000
00000100
00000010
00000000
00001000
00000000
00001000
00000000
,
00000100
00000000
00000000
00000010
00000001
00000000
00000100
00000000
00000000
00000010
00001000
00000000
00000001
00000000
00000001
00000000
,
00000100
00000000
00000000
00001000
00000000
00000000
00010000
00000000
00000000
00100000
00000000
00000000
10000000
00000000
00010000
00000000
,
10000000
00000000
01000000
10000000
00000000
01000000
10000000
01000000
00100000
00000000
01000000
00100000
00000000
01000000
00100000
00010000
,
00100000
00000000
00010000
00100000
00000000
00010000
00100000
00001000
00010000
00000000
00001000
00010000
00000000
00001000
00010000
00000100
,
00001000
00000000
00000100
00001000
00000000
00000100
00001000
00000100
00000010
00000000
00000100
00000010
00000000
00000100
00000010
00000001
,
00000100
00000000
00000001
00000100
00000000
00000001
00000100
00000010
00001000
00000000
00000010
00001000
00000000
00000010
00001000
00000010
,
00010000
00000000
00000000
00001000
00000000
00000000
00110000
00000000
00000000
00000000
00000000
00000000
00010000
10000000
00010000
10000000
,
01000000
00000000
00000000
10000000
00000000
00000000
11000000
00000000
00000000
00000000
00000000
00000000
00000000
00000000
10000000
00000000
,
00100000
00000000
00000000
00010000
00000000
00000000
00001000
00000000
00100000
00000000
00000000
00010000
00000000
00000000
00001000
00000000
,
00000100
00000000
00000000
00000110
00000000
00000000
00001000
00000000
00000000
00001001
00000000
00000000
00000010
00000000
00001000
00000000
,
00000002
00000000
00000100
00000000
00000100
00000000
00000103
00002000
,
00010000
00000000
00010000
00000000
00010000
00000000
00013000
00100000
,
10000000
00100000
01000000
00100000
00010000
00001000
00000100
00000001
,
00000010
00000100
00000010
00000000
00001100
00000000
00011000
00000000
,
00000020
00000000
00001000
00000000
00001000
00000000
00001030
00020000
,
01000000
00000000
01000000
00000000
01000000
00000000
01030000
00200000
,
10000000
00000000
10000000
00000000
10000000
00000000
10300000
01000000
,
00000000
00000000
00010000
00000000
00001000
00000000
00000010
00000001
00001000
00000000
00000001
00000000
00000000
00000000
00001000
00000000
,
00000020
00000000
00000000
00000130
00000000
00000200
00020300
00000000
,
00032000
00000000
00000000
00023000
00000000
00000000
02030000
00000000
10000000
00000000
00000000
00000000
03010000
00000000
00000000
00000000
,
00200000
00000000
00000000
01300000
00000000
02000000
03002000
00000000
,
00023000
00000000
00000000
00032000
00000000
00000000
00003200
00000000
00000001
00000000
00000000
00000000
00001300
00000000
00000000
00000000
,
00000020
00000000
00000000
00000130
00000000
00000200
00020300
00000000
,
00032000
00000000
00000000
00023000
00000000
00000000
02030000
00000000
10000000
00000000
00000000
00000000
03010000
00000000
00000000
00000000
,
10000000
00000000
00100000
00000000
,
01000000
00000000
00010000
00000000
,
20000000
32000000
03200000
00320000
,
00032000
00003200
00000320
00000032
,
00001003
00000000
00000010
00000000
00000001
00000000
00000010
00000000
00010000
00001000
00010000
00001000
00100000
00010000
00100000
00010000
,
10000000
00000000
00000000
10000000
00000000
00000000
00010000
00000000
00000000
00010000
00000000
00000000
01000000
00000000
01000000
00000000
,
00100000
00000000
10000000
00100000
00000000
00000000
10000000
00000000
01000000
00100000
01000000
00000000
00100000
00010000
00100000
00000000
,
00001000
00000000
00010000
00000010
00000000
00001000
00000001
00000000
00000101
00000000
00000000
00000000
00001100
00000000
00000000
00000000
,
00000001
00000000
00001000
00000001
00000000
00000000
00000010
00000000
00000100
00001000
00000100
00000000
00010000
00001000
00010000
00000000
,
00000010
00000000
00000100
00001000
00000000
00001000
00010000
00000000
01000000
00000000
10000000
00010000
00000000
00010000
01000000
00000000
,
00000000
00000000
00100000
01000000
00100000
00000000
00100000
00000000
10000000
01000000
00100000
00010000
00000000
00100000
00000000
00001000
,
00000000
00000000
00010000
00000100
00010000
00000000
00010000
00000000
00001000
00000100
00000010
00001000
00000000
00000001
00000000
00000001
,
00001000
00000000
00000100
00000010
00000000
00000010
00000001
00000000
00000100
00000000
00001000
00010000
00000000
00010000
00100000
00000000
,
10000000
00000000
01000000
00010000
00000000
00010000
00001000
00000000
00011000
00000000
00000000
00000000
00001100
00000000
00000000
00000000
,
00000010
00000000
00000100
00000010
00000000
00000000
00000001
00000000
00000100
00000010
00000100
00000010
00001000
00000001
00001000
00000001
,
00000000
00000000
00011000
00000000
00100000
00001000
00000000
01000000
00000000
00000000
00100000
00000000
10000000
00000000
01000000
00000000
,
10000000
00000000
01000000
10000000
00000000
00000000
00010000
00000000
00100000
01000000
00100000
01000000
10000000
00010000
10000000
00010000
,
00000000
00000000
00011000
00000000
00000100
00000010
00000000
00000001
00000000
00000001
00000010
00000000
00000100
00000000
00000010
00000000
,
00000000
00000000
00000001
00000100
00000010
00000000
00000010
00000000
00001000
00000100
00000010
00000100
00000000
00010000
00000000
00001000
,
00000000
00000000
00100000
00010000
10000000
00000000
10000000
00000000
00010000
00100000
01000000
10000000
00000000
10000000
00000000
00020000
,
00000000
00000000
00000000
00000000
00000000
00000000
01030000
00000000
00100000
00000000
10000000
01000000
00000000
01000000
00010000
00000000
,
00001000
00000000
00000010
00000001
00000000
00000001
00000100
00000000
00000010
00000000
00000000
00000000
00001000
00000000
00000000
00000000
,
00022000
00000000
00000000
00003000
,
02030000
00000000
23000000
00000000
,
30020000
00000000
00000000
00000000
,
00032000
00000000
00003020
00000130
,
00000010
00000000
00001000
00000000
00000100
00000010
00000100
00000000
00010000
00000000
00001000
00100000
00000000
00010000
10000000
00000000
,
00100000
00000000
10000000
00000000
00010000
01000000
00010000
00000000
10000000
00000000
01000000
00100000
00000000
00001000
00010000
00000000
,
00000010
00000000
00001000
00000000
00000001
00000100
00000010
00000000
00001000
00000000
00000100
00000000
00000010
00000001
00001000
00000000
,
00000010
00010000
00000010
00010000
00001000
00010000
00001000
00010000
00001000
00100000
00001000
00100000
00010000
00100000
00010000
00100000
,
02000000
00000000
00000000
03000000
,
20020000
00000000
00000000
00000000
,
00000000
00000000
00000000
30030000
,
00000000
00000000
00000000
00000000
;
