#TITLE:Squeeze;
#ARTIST:VENUS feat. Mutsuhiko Izumi;
#BANNER:Squeeze.png;
#BACKGROUND:Squeeze-bg.png;
#CDTITLE:./CDTitles/DDR (2014).png;
#MUSIC:Squeeze.ogg;
#SAMPLESTART:63.125;
#SAMPLELENGTH:15;
#DISPLAYBPM:87:173;
#BPMS:0=173,83=86.5,115=173;
#STOPS:51=0.173,82.5=0.173,115=1.04,118=0.347,121=0.347,124=0.347,248.75=0.347;
#NOTES:
     dance-single:
     :
     Beginner:
     4:
     :
0000
0000
0000
0000
,
0000
0000
0000
0000
,
0000
0000
0000
0000
,
0000
0000
0000
0000
,
0000
0000
0000
0000
,
0100
0000
0100
0000
,
0001
0001
0001
0000
,
0100
0000
0100
0000
,
1000
0000
1000
0000
,
0100
0000
0100
0000
,
0001
0001
0001
0000
,
0100
0000
0100
0000
,
0010
0000
0000
0000
,
0000
1000
0000
0000
0000
1000
0000
0001
,
0000
0001
0000
0001
0000
0000
0000
0000
,
0000
1000
0000
0000
0000
1000
0000
0000
,
0000
0100
0000
0000
0000
0100
0000
0000
,
0000
1000
0000
0000
0000
1000
0000
0001
,
0000
0001
0000
0001
0000
0000
0000
0000
,
0000
1000
0000
0000
0000
1000
0000
0010
,
0000
0000
0000
0100
,
0000
0001
0000
0001
,
0000
1000
0000
1000
,
0000
0100
0000
0001
,
0000
0000
0000
0100
,
0000
1000
1000
1000
,
0000
0001
0001
0100
,
0000
0010
0000
0100
,
0000
0000
0000
1001
,
0100
0100
0000
0100
,
0100
0000
0100
0100
,
0000
0100
0100
0100
,
0000
0001
0000
0001
,
0000
1000
0000
1000
,
0000
0001
0001
0001
,
0000
0001
0000
0000
,
0000
1000
0000
1000
,
1000
0100
0000
0100
,
0000
0001
0000
0010
,
0010
0001
0000
1000
,
0000
0001
0000
0001
,
0001
0100
0000
0100
,
0000
1000
0000
0010
,
1000
1000
0000
0001
,
0000
1000
0000
1000
,
1000
0010
0000
0010
,
0000
0100
0000
0001
,
0001
0100
0000
0010
,
0010
0100
0000
0001
,
0001
1000
0000
0001
,
0000
0010
0000
0100
,
0100
0010
0000
0010
,
0000
0100
0001
0000
,
0001
0000
0001
0001
,
0000
0100
1000
0000
,
1000
0000
1000
1000
,
0000
0100
0010
0000
,
0010
0000
0010
0010
,
0000
0100
0100
0000
,
0100
0000
0100
0100
,
0000
0001
0000
1000
,
0000
0001
0001
1000
,
1000
2002
0000
0000
,
0000
0000
0000
0000
,
0000
0000
0000
3003
,
0000
0000
0000
0000
;
#NOTES:
     dance-single:
     :
     Easy:
     6:
     :
0000
0000
0000
0000
,
0000
0000
0000
0000
,
0000
0000
0000
0000
,
0000
0000
0000
0000
,
0000
0000
0000
0000
,
0001
0001
0001
0001
,
1000
0010
1000
0010
,
0001
0001
0001
0001
,
0100
0010
0001
1000
,
0001
0001
0001
0001
,
1000
0100
1000
0100
,
0001
0001
0001
0001
,
0200
0000
0000
0000
0000
0000
0300
0010
,
0000
0010
0000
0010
0000
0010
0000
1000
,
0000
1001
0000
1000
0000
1001
0000
0100
,
0000
0100
0000
0100
0000
0100
0000
0001
,
0000
0010
0000
1000
0000
1001
0000
0010
,
0000
0010
0000
0010
0000
0010
0000
0100
,
0000
0010
0000
1001
0000
1001
0000
0100
,
0000
0100
0000
0100
0000
0100
0000
1000
,
0000
1000
0000
2000
0000
3000
0200
0000
,
0000
0000
0300
0020
,
0000
0000
0030
0002
,
1000
0000
1003
0020
,
0000
0200
0330
2002
,
3003
0100
0010
2000
,
3000
0001
0010
0100
,
0010
1000
0001
0100
,
0010
1000
0001
1001
,
0100
0100
0001
0100
,
0100
1000
0100
0100
,
0010
0100
0100
1001
,
1001
0100
0100
0100
,
0100
0010
0010
0010
,
0010
1000
0001
0001
,
0001
0200
0000
0000
,
0300
0001
1001
0010
,
0001
0100
0010
0010
,
0000
1000
1001
0100
,
0001
0100
0010
1000
,
0000
0100
0110
1000
,
0010
1000
0100
0001
,
0000
0010
0110
0001
,
1000
0200
0000
0300
,
0000
0010
1001
0010
,
1001
0100
1000
0001
,
0100
1000
1001
0001
,
1001
0100
0010
1000
,
0100
0010
1001
0010
,
1001
0100
0001
0010
,
1000
0001
1001
1000
,
1001
0200
0000
0000
,
0310
2000
0000
0001
,
0000
0000
0100
0100
,
3100
0002
0000
1000
,
0000
0000
0100
0100
,
0103
0020
0000
0100
,
0000
0000
1000
1000
,
1030
0200
0000
0001
,
0000
0000
0010
0010
,
0310
1000
1000
0001
,
0001
0100
0010
0100
,
0010
2002
0000
0000
,
0000
0000
0000
0000
,
0000
0000
3003
0110
,
0000
0000
0000
0000
;
#NOTES:
     dance-single:
     :
     Medium:
     9:
     :
0000
0000
0000
0000
,
0000
0000
0000
0000
,
0000
0000
0000
0000
,
0000
0000
0000
0000
,
0000
0000
0000
0000
,
0010
0000
0001
0000
1000
0100
1000
0000
,
0010
1000
0000
1000
0000
1000
0001
0000
,
0100
0000
0001
0000
0010
0001
0010
0000
,
1000
0100
0101
1000
,
0010
0000
0100
0000
0001
0100
0001
0000
,
1000
0010
0000
0010
0000
0010
0100
0000
,
0001
1000
0001
0010
,
0200
0000
1000
0000
1000
0000
1300
0001
,
0000
0001
0000
1000
0001
0100
0000
0010
,
1000
0000
0001
0000
1000
0010
0000
0100
,
0000
0001
0000
0100
0010
0001
0000
0010
,
0000
0010
0000
0100
0000
1010
0000
0001
,
0000
0100
0000
0010
1000
0100
0000
0010
,
0001
0000
0001
0000
0001
1000
0000
0001
,
0000
0010
0000
0001
0000
1000
0000
0020
,
0000
0000
0000
0000
0000
0030
2001
0000
,
0000
0000
0000
0000
3100
0000
0000
0010
0000
0000
0100
0000
0002
0000
0000
0000
,
0000
0000
0000
0000
0103
0000
0000
0001
0000
0000
0100
0000
0010
0000
0000
1000
,
0000
0000
0010
0000
0100
0000
0000
0001
0000
0000
1000
0000
0001
0000
0000
0010
,
0000
0100
2000
0000
0000
3000
1001
0000
,
0010
0000
0100
1000
0010
0000
1000
0000
,
0001
0000
0010
0100
0010
0100
1000
0000
,
0010
0000
1000
0100
0001
0000
1000
0000
,
0010
0000
0100
0010
0100
0010
0110
0000
,
1000
0100
1000
0100
0001
0000
0010
0001
,
0010
0001
1000
0000
0010
0100
0010
0100
,
0001
0000
1000
0001
1000
0001
0010
0000
,
0110
0000
1000
0010
1000
0000
0001
0010
,
0001
0000
1000
0010
1000
0000
0001
0010
,
0001
0000
0000
0000
1000
0000
0001
0000
1000
0000
0000
0000
0001
0000
0000
0010
,
0000
0100
1000
0010
0100
0001
1000
0000
,
0001
0000
0100
0000
1001
0000
0001
1000
,
0010
2100
3001
1002
,
0013
0000
0100
0000
0011
0000
1000
0001
,
0010
0001
0100
1000
,
0001
1000
0010
0000
0101
0000
0100
0010
,
1000
2010
3001
1002
,
0103
0000
0010
0000
1100
0000
0100
1000
,
0001
0202
0000
0000
,
0303
0000
0000
0000
0100
0000
0000
0100
0000
0000
0010
0000
1000
0000
0000
0000
,
1001
0000
0010
0000
0102
0000
1003
0010
,
1000
0000
0000
0000
0001
0000
0000
0001
0000
0000
1000
0000
0001
0000
0000
0000
,
0101
0000
1000
0000
0120
0000
1030
0001
,
0010
0000
0000
0000
0100
0000
0000
0100
0000
0000
1000
0000
0001
0000
0000
0000
,
1010
0000
0100
0000
2001
0000
3010
0100
,
0001
0000
0000
0000
0010
0000
0000
0010
0000
0000
0001
0000
1000
0000
0000
0000
,
1001
0000
0000
0000
0100
0000
0000
0100
0000
0000
0100
0000
0010
0000
0000
0000
,
0100
0000
0000
0000
2002
0000
0000
0000
3003
0000
0000
0000
0100
0000
0000
0100
,
0000
2000
0000
0000
0001
0000
0001
0000
,
3010
0000
0000
0000
0220
0000
0000
0000
0330
0000
0000
0000
0001
0000
0000
0001
,
0000
0020
0000
0000
0100
0000
0100
0000
,
0130
0000
0000
0000
2200
0000
0000
0000
3300
0000
0000
0000
0001
0000
0000
1000
,
0000
0002
0000
0000
0010
0000
0010
0000
,
0013
0000
0000
0000
2002
0000
0000
0000
3003
0000
0000
0000
0010
0000
0000
0010
,
0000
0200
0000
0000
0001
0000
0001
0000
,
0301
1000
0110
0001
,
0110
0000
1001
0000
0110
0000
0001
1000
,
0010
0100
2002
0000
0000
0000
0000
0000
,
0000
0000
0000
0000
,
0000
0000
3003
0000
0000
0100
0010
0000
,
0000
0000
0000
0000
;
#NOTES:
     dance-single:
     :
     Hard:
     15:
     :
0000
0000
0000
0000
,
0000
0000
0000
0000
,
0000
0000
0000
0000
,
0000
0000
0000
0000
,
0000
0000
0000
0000
,
1000
0100
0000
0000
0010
0000
0000
0000
0001
0100
0000
0000
0010
0000
0000
0000
,
0100
0010
0000
1000
0010
1000
0000
0001
1000
0000
0001
0000
0010
0000
0000
0000
,
0100
1000
0000
0000
0001
0000
0000
0000
0100
0001
0000
0000
1000
0000
0000
0000
,
0010
0000
1000
0000
0001
0000
0100
0000
0001
1000
0001
0000
0010
0000
0000
0000
,
0001
1000
0000
0000
0010
0000
0000
0000
0100
0010
0000
0000
1000
0000
0000
0000
,
0001
1000
0000
0001
0100
0001
0000
0100
0010
0000
1000
0000
0001
0000
0000
0000
,
1000
0100
0000
0000
0010
0000
0000
0000
0001
0100
0000
0000
0010
0000
0000
0000
,
1000
0000
0010
0000
0010
0000
0010
0000
1000
0001
1000
0001
1000
0000
0000
0000
,
0001
1000
0000
0000
0010
0000
0000
0000
1000
0001
0000
0000
0010
0000
0001
1000
,
0000
0010
1000
0010
0000
0100
0001
0000
1000
0000
0100
0000
1000
0000
0000
0000
,
0010
0100
0000
0000
0001
0000
0000
0000
0010
0000
0100
0000
1000
0000
0001
0000
,
0100
0000
0010
0000
0100
0000
0001
1000
0001
0000
0010
0000
0001
1000
0000
0000
,
1000
0100
0000
0000
1000
0000
0000
0000
0010
0001
0000
0000
0010
0000
0100
1000
,
0000
0010
1000
0010
0000
0100
0001
0000
1000
0000
0100
0000
0010
0000
0000
0000
,
0001
1000
0000
0000
0010
0000
0000
0000
0100
0000
0100
0000
0010
0000
1000
0001
,
1000
0000
0001
0000
0100
0000
0001
1000
0001
1000
0001
0000
0210
0000
0000
0000
,
0000
0000
0000
0000
0001
0000
0000
0010
0000
0000
0001
0000
0010
0000
0000
0000
,
0000
0000
0000
0000
1000
0000
0000
0010
0000
0000
1000
0000
0010
0000
0000
0001
,
0000
0000
0010
0000
1000
0000
0000
0010
0000
0000
0001
0000
0310
0000
0000
1000
,
0000
0000
0010
0000
0001
0100
0010
0100
0010
1000
0100
1000
0110
0000
0000
0000
,
1001
0000
0000
0000
0000
0100
0000
0100
1010
0000
0000
0000
0100
0000
0000
0000
,
1001
0000
0000
0000
0000
0100
0000
0000
0011
0100
0000
0000
0100
0000
0000
0000
,
1001
0000
0000
0000
0000
0000
0000
0000
0000
0000
0100
0000
0000
0000
0100
0001
1000
0000
0000
0000
0000
0000
0000
0000
0100
0000
0000
0000
0000
0000
0110
0000
,
1001
0000
0000
0000
0000
0000
0000
0000
0000
0000
0000
0000
0000
0000
0000
0000
0000
0000
0000
0000
0000
0000
0000
0000
0000
0000
0000
0000
0000
0000
0100
0000
0000
0000
0000
0000
0000
0000
0000
0000
0000
0000
0100
0000
0000
0000
0000
0000
1001
0000
0000
0000
0000
0000
0100
0000
0000
0000
0000
0000
0010
0000
0000
0000
0000
0000
0000
0000
0000
0000
0000
0000
2002
3003
0000
0000
0000
0000
0000
0000
0000
0000
0000
0000
0000
0000
0000
0000
0000
0000
0000
0000
0000
0000
0000
0000
,
0010
0000
0001
0100
0001
0000
0100
0010
0100
0000
0000
0000
0010
0000
1000
0100
,
1000
0000
0100
0010
0100
0000
0000
0000
0010
0000
0001
0100
0010
0000
0100
0010
,
1000
0000
0000
0000
0100
0000
0010
0001
0100
0000
0010
0000
0101
0000
0000
0000
,
1100
0000
1000
0010
1000
0010
0001
0010
,
0001
0010
1000
0010
0001
0010
1000
0010
,
0001
0000
0010
0000
1000
0000
0100
0000
0010
0000
0001
0000
0100
0000
0010
0100
,
0010
1000
0001
0100
0010
1000
0100
0010
,
0001
0000
0000
0000
1000
0000
0001
1000
0000
0001
0100
0000
0001
1000
0001
0000
,
1000
0000
0100
0000
0010
0000
0000
0001
0000
0000
1000
0000
0001
1000
0000
0001
,
1000
0000
0001
1000
0001
0000
0010
0001
0000
1000
0010
0000
0100
0001
0000
1000
,
0010
0000
0100
0000
0001
0000
0000
0010
0000
0000
0100
0000
1000
0001
0000
1000
,
0001
0000
0100
0000
0010
0000
0010
1000
0000
0001
0010
0000
0100
1000
0100
0000
,
0001
0000
0100
0000
1000
0000
0000
0010
0000
0000
0100
0000
0001
0100
0000
1000
,
0100
0000
0001
1000
0001
0000
0010
0001
0000
0001
0100
0000
0010
1000
0000
1000
,
0100
0000
0010
0000
0001
0000
0000
0100
0000
0000
1000
0000
0100
0010
0000
0100
,
0010
0000
0100
0001
1000
0000
0100
1000
0000
0001
0100
0000
0001
1000
0001
0000
,
1000
0000
0100
1000
0100
0000
0010
0001
0000
1000
0010
0000
0100
0001
0000
1000
,
0100
1000
0001
1000
0001
0000
0010
0001
0000
1000
0010
0000
0100
0001
0000
1000
,
0001
1000
0001
0100
0010
0000
0010
1000
0000
0001
0010
0000
1000
0010
0000
0010
,
0001
0010
0100
1000
0001
0000
0001
0010
0000
0100
1000
0000
0010
1000
0001
0000
,
0100
0000
0010
0100
0010
0000
0100
0001
0000
0001
0010
0000
0010
0100
0000
0100
,
1000
0010
0100
0001
0010
0000
0001
0100
0000
0010
1000
0000
1000
0010
0000
0010
,
1000
0010
0100
0001
1000
0000
0000
1001
0000
0000
0010
0000
1100
0000
0000
0000
,
1000
0100
0010
0001
2000
0000
0000
0000
3001
0000
0100
0000
1000
0000
0000
0011
,
0000
0000
2010
0000
0000
0000
0000
0000
3001
0100
0001
0100
0010
0000
0100
0000
,
0001
0000
0010
0000
0002
0000
0000
0000
1003
0000
0100
0000
0001
0000
0000
1100
,
0000
0120
0000
0000
0031
1000
0100
0010
,
0001
0100
0010
1000
0200
0000
0000
0000
0301
0000
0100
0000
1000
0000
0000
1100
,
0000
0021
0000
0000
0130
1000
0001
0100
,
0010
1000
0010
1000
0200
0000
0000
0010
0000
0000
0010
0000
0310
0000
0000
0011
,
0000
2001
0000
0000
3010
0100
0001
0010
,
0100
0000
0010
0000
0001
0000
0100
0000
0010
1000
0010
0000
0100
0000
0001
0000
,
0010
0001
0010
0000
0001
0000
1000
0001
1000
0000
0010
1000
0010
0000
1000
0000
,
0100
1000
0100
1000
0022
0000
0000
0000
0000
0000
0000
0000
0000
0000
0000
0000
,
0000
0000
0000
0000
,
0000
0000
0000
0033
0000
0100
1001
0000
,
0000
0000
0000
0000
;
#NOTES:
     dance-double:
     :
     Easy:
     6:
     :
00000000
00000000
00000000
00000000
,
00000000
00000000
00000000
00000000
,
00000000
00000000
00000000
00000000
,
00000000
00000000
00000000
00000000
,
00000000
00000000
00000000
00000000
,
00010000
00010000
00100000
00100000
,
01000000
00010000
00001000
00000010
,
00000001
00000001
00001000
00001000
,
00000001
00000100
00000010
00000000
,
00001000
00001000
00000010
00000010
,
00000100
00001000
00010000
00100000
,
10000000
10000000
00010000
00010000
,
02000000
00000000
00000000
00000000
00000000
00000000
03000000
00010000
,
00000000
10000000
00000000
00010000
00000000
10000000
00000000
01000000
,
00000000
00010000
00000000
00001000
00000000
00011000
00000000
00001000
,
00000000
00001000
00000000
00000100
00000000
00000100
00000000
00000001
,
00000000
00000010
00000000
00000100
00000000
00001000
00000000
00000001
,
00000000
00001000
00000000
00000001
00000000
00001000
00000000
00000010
,
00000000
00000100
00000000
00001000
00000000
00011000
00000000
00010000
,
00000000
00001000
00000000
00010000
00000000
00001000
00000000
00100000
,
00000000
00100000
00000000
00100000
00000000
00000000
20000000
00000000
,
30000000
00200000
00300000
00020000
,
00030000
00002000
00003000
00000020
,
00000030
00000002
00000003
00000100
,
00000010
00000000
00000010
00000010
00000010
00000000
00002002
00000000
,
00003003
00000100
00001000
00022000
,
00033000
00010000
01000000
10000000
,
00100000
01000000
00001000
00010000
,
00000100
00001000
00000010
00001001
,
00000100
00000100
00000100
00001000
,
00001000
00001000
00010000
00010000
,
00010000
01000000
01000000
01100000
,
01100000
10000000
00100000
10000000
,
00100000
00010000
00100000
00010000
,
00001000
00010000
01000000
10000000
,
01000000
00020000
00001000
00002000
,
00033000
00011000
00000100
00000010
,
00000100
00001000
00000001
00000100
,
00000010
00000100
00001000
00010000
,
00001000
01000000
00010000
00100000
,
00000000
10010000
01000000
10000000
,
00100000
10000000
01000000
00010000
,
00001000
00010000
00010000
00000100
,
00001000
00000002
00000000
00000003
,
00000000
00000100
00000010
00010000
,
00001000
00000100
00001000
00010000
,
01000000
00100000
00010000
00001000
,
00000010
00001000
00010000
00100000
,
01000000
10000000
10000000
01000000
,
00010000
00001000
00010000
00100000
,
10000000
00010000
00100000
00001000
,
00010000
00001000
00001000
00022000
,
00033000
00000020
00000000
00000100
,
00000000
00000100
00000000
00000100
,
00000030
00002000
00000000
00000001
,
00000000
00000001
00000000
00000001
,
00003000
00000200
00000000
00001000
,
00000000
00001000
00000000
00001000
,
00000300
00020000
00000000
00001000
,
00000000
00001000
00000000
00001000
,
00030000
00001000
00001000
00010000
,
00010000
01000000
10000000
00100000
,
00010000
00022000
00000000
00000000
,
00000000
00000000
00000000
00000000
,
00000000
00000000
00033000
00010100
,
00000000
00000000
00000000
00000000
;
#NOTES:
     dance-double:
     :
     Medium:
     10:
     :
00000000
00000000
00000000
00000000
,
00000000
00000000
00000000
00000000
,
00000000
00000000
00000000
00000000
,
00000000
00000000
00000000
00000000
,
00000000
00000000
00000000
00000000
,
00000010
00000000
00000001
00000000
00000100
00001000
00010000
00000000
,
00001000
00000110
00001000
00000110
,
00000010
00000000
00000001
00000000
00000100
00001000
00010000
00000000
,
01000000
10000000
00100000
00010000
,
00100000
00000000
10000000
00000000
01000000
00010000
00001000
00000000
,
00010000
01100000
00010000
01100000
,
00010000
00000000
10000000
00000000
00100000
01000000
00100000
00000000
,
00010000
00001000
00010000
00001000
00010000
00001000
00010000
00000100
,
00000000
00000001
00000000
00000100
00000010
00000001
00000000
00001000
,
00000001
00000000
00000100
00000000
00000010
00000000
00010000
00001000
,
00000000
00011000
00000000
00001000
00010000
00100000
00000000
01000000
,
00000000
00010000
00000000
00100000
00000000
10100000
00000000
00010000
,
00000000
01000000
00000000
00100000
10000000
01000000
00000000
00100000
,
00001000
00000000
00010000
00000000
00001000
00000000
00010000
00000100
,
00000000
00000010
00000000
00001000
00000000
00000010
00000000
00000002
,
00000000
00001000
00000000
00001000
00000000
00001003
00000110
00000000
,
00000000
00000000
00000000
00000000
00000010
00000000
00000000
00000100
00000000
00000000
00001000
00000000
00011000
00000000
00000000
00000000
,
00000000
00000000
00000000
00000000
00100000
00000000
00000000
10000000
00000000
00000000
00100000
00000000
00010000
00000000
00000000
00001000
,
00000000
00000000
00010000
00000000
01000000
00000000
00000000
10000000
00000000
00000000
00010000
00000000
00100000
00000000
00000000
00001000
,
00000000
00000100
00000020
00000100
00000100
00000130
00001001
00000000
,
00000100
00000000
00000000
00000000
00000010
00000100
00000010
00000100
00001000
00000000
00000000
00000000
00010000
00000000
00000000
00000000
,
00001000
00000000
00000000
00000000
00100000
00001000
00100000
00001000
00010000
00000000
01000000
00000000
00100000
00000000
00000000
00000000
,
10000000
00000000
00000000
00000000
00010000
01000000
00010000
01000000
10000000
00000000
00000000
00000000
00100000
00000000
00000000
00000000
,
01000000
00000000
00000000
00000000
00100000
00010000
00001000
00010000
00001000
00000000
00001000
00000000
00011000
00000000
00000000
00000000
,
00001000
00000100
00000010
00000001
00000100
00000000
00000010
00001000
,
00000100
00010000
00001000
00000000
00010000
01000000
00100000
10000000
,
01000000
00000000
00010000
00100000
00001000
00010000
00001000
00000000
,
00011000
00000000
00010000
00000000
00000100
00000000
00000010
00000001
,
00000100
00000000
00001000
00000000
00100000
00000000
01000000
10000000
,
00100000
00000000
00000000
00000000
10000000
00000000
01000000
00000000
00010000
00000000
00000000
00000000
00001000
00000000
00000000
00010000
,
00000000
00000100
00001000
00000100
00000010
00000001
00001000
00000000
,
00000010
00000000
00000000
00000000
00000100
00000000
00000000
00000100
00000000
00000000
00000100
00000000
00000000
00000000
00000001
00000000
,
00001000
00000000
00000000
00000000
00000010
00000000
00000000
00000010
00000000
00000000
00000010
00000000
00000000
00000000
00000100
00000000
,
00001000
00000000
00000000
00000000
00100000
00000000
00000000
00100000
00000000
00000000
00100000
00000000
00000000
00000000
00010000
00000000
,
10000000
00000000
00000000
00000000
01000000
00000000
00000000
01000000
00000000
00000000
01000000
00000000
00000000
00000000
00100000
00000000
,
00010000
00000000
10000000
00000000
01000000
00000000
00000000
01000000
00000000
00000000
01000000
00000000
00000000
00000000
00010000
00000000
,
00001000
00000000
00000000
00000000
00000100
00000000
00000000
00000100
00000000
00000000
00000100
00000000
00000000
00000000
00000010
00000000
,
00001000
00000000
00000000
00000000
00000001
00000000
00000000
00000001
00000000
00000000
00000001
00000000
00000000
00000000
00000100
00000000
,
00000010
00002002
00000000
00000000
,
00003003
00000000
00000000
00000000
00000010
00000000
00000000
00000010
00000000
00000000
00000010
00000000
00000001
00000000
00001000
00000000
,
00000100
00000000
00000000
00000000
00010000
00000000
00000000
00010000
00000000
00000000
00010000
00000000
00001000
00000000
01000000
00000000
,
00010000
00000000
00000000
00000000
10000000
00000000
00000000
10000000
00000000
00000000
10000000
00000000
00100000
00000000
01000000
00000000
,
00010000
00000000
00000000
00000000
00100000
00000000
00000000
00100000
00000000
00000000
00100000
00000000
00001000
00000000
00010000
00000000
,
00001000
00000000
00010000
00000000
00000010
00000000
00000000
00000010
00000000
00000000
00000010
00000000
00001000
00000000
00000100
00000000
,
00000001
00000000
00000000
00000000
00000100
00000000
00000000
00000100
00000000
00000000
00000100
00000000
00000010
00000000
00000001
00000000
,
00000100
00000000
00000000
00000000
00001000
00000000
00000000
00001000
00000000
00000000
00001000
00000000
00010000
00000000
01000000
00000000
,
10000000
00000000
00000000
00000000
00100000
00000000
00000000
00100000
00000000
00000000
00100000
00000000
01000000
00000000
00000000
00000000
,
10010000
00000000
00000000
00000000
00020000
00000000
00000000
00000000
00000000
00000000
00000000
00000000
10000000
00000000
00000000
10000000
,
00000000
00200000
00000000
00000000
00000000
00000000
00000000
00000000
,
00330000
00000000
00000000
00000000
00102000
00000000
00000000
00000000
00000000
00000000
00000000
00000000
00010000
00000000
00000000
00010000
,
00000000
00010000
00000000
00000000
00000000
00000200
00000000
00000000
,
00003300
00000000
00000000
00000000
00000120
00000000
00000000
00000000
00000000
00000000
00000000
00000000
00001000
00000000
00000000
00001000
,
00000000
00000230
00000000
00000000
00000000
00000001
00000000
00000000
,
00000300
00000000
00000000
00000000
00002000
00000000
00000000
00000000
00000000
00000000
00000000
00000000
00010000
00000000
00000000
00010000
,
00000000
00203000
00000000
00000000
01000000
02000000
00000000
00000000
,
03300000
10000000
01100000
00010000
,
00011000
00000000
00000010
00000000
00000110
00000000
00000001
00000010
,
00000100
00001000
00020000
00000000
00000000
00000000
00000000
00000000
,
00000000
00000000
00000000
00000000
,
00000000
00000000
00000000
00000000
00030000
01000000
10000000
00000000
,
00000000
00000000
00000000
00000000
;
#NOTES:
     dance-double:
     :
     Hard:
     15:
     :
00000000
00000000
00000000
00000000
,
00000000
00000000
00000000
00000000
,
00000000
00000000
00000000
00000000
,
00000000
00000000
00000000
00000000
,
00000000
00000000
00000000
00000000
,
00100000
00010000
00000000
00000000
10000000
00000000
00000000
00000000
00010000
00100000
00000000
00000000
00001000
00000000
00000000
00000000
,
00100000
00010000
00000000
10000000
01000000
10000000
00000000
01000000
00010000
00000000
00001000
00000000
00010000
00000000
00000000
00000000
,
00001000
01000000
00000000
00000000
00010000
00000000
00000000
00000000
00100000
00001000
00000000
00000000
00010000
00000000
00000000
00000000
,
00001000
00000000
00000100
00000000
00000001
00000000
00000100
00000000
00000010
00000100
00000010
00000000
00001000
00000000
00000000
00000000
,
00000010
00001000
00000000
00000000
00000001
00000000
00000000
00000000
00001000
00000010
00000000
00000000
00010000
00000000
00000000
00000000
,
00000010
00001000
00000000
00000001
00000100
00000001
00000000
00000100
00001000
00000000
00010000
00000000
00001000
00000000
00000000
00000000
,
00010000
00000100
00000000
00000000
00001000
00000000
00000000
00000000
00000010
00010000
00000000
00000000
00001000
00000000
00000000
00000000
,
00010000
00001000
00010000
00000000
01000000
00000000
00100000
00000000
01000000
00100000
01000000
00100000
01000000
00000000
00000000
00000000
,
10000000
01000000
00000000
00000000
00010000
00000000
00000000
00000000
00001000
00010000
00000000
00000000
01000000
00000000
10000000
00010000
,
00000000
10000000
00100000
10000000
00000000
00010000
01000000
00000000
00100000
00000000
00010000
00000000
00001000
00000000
00000000
00000000
,
00001000
00000100
00000000
00000000
00000001
00000000
00000000
00000000
00000100
00000000
00001000
00000000
00010000
00000000
00000100
00000000
,
00001000
00000000
00000010
00000000
00000100
00000000
00000001
00000100
00000001
00000000
00001000
00000000
00000010
00000100
00000000
00000000
,
00000001
00000010
00000000
00000000
00001000
00000000
00000000
00000000
00010000
00001000
00000000
00000000
00000010
00000000
00000001
00001000
,
00000000
00000001
00000100
00000001
00000000
00001000
00000010
00000000
00010000
00000000
00001000
00000000
00010000
00000000
00000000
00000000
,
00010000
00100000
00000000
00000000
10000000
00000000
00000000
00000000
00100000
00000000
00010000
00000000
00100000
00000000
01000000
00100000
,
01000000
00000000
00010000
00000000
10000000
00000000
00010000
10000000
00010000
10000000
00010000
00000000
00200000
00000000
00000000
00000000
,
00000000
00000000
00000000
00000000
10000000
00000000
00000000
01000000
00000000
00000000
00010000
00000000
00302000
00000000
00000000
00000000
,
00000000
00000000
00000000
00000000
00000010
00000000
00000000
00010000
00000000
00000000
00100000
00000000
00023000
00000000
00000000
00100000
,
00000000
00000000
00001000
00000000
00030020
00000000
00000000
00001000
00000000
00000000
00000100
00000000
00000031
00000000
00000000
00001000
,
00000000
00000000
00000100
00000000
00000001
00000100
00000010
00001000
00000100
00010000
00001000
00100000
00010000
00000000
00000000
00000000
,
10010000
00000000
00000000
00000000
00100000
01000000
00000000
01000000
10100000
00000000
00000000
00000000
01000000
00000000
00000000
00000000
,
00110000
00000000
00000000
00000000
00010000
00001000
00000000
00000000
00101000
00010000
00000000
00000000
00001000
00000000
00000000
00000000
,
00011000
00000000
00000000
00000000
00000000
00000000
00000000
00000000
00000010
00000000
00000100
00000000
00000000
00000000
00001000
00000001
00001000
00000000
00000000
00000000
00000000
00000000
00000000
00000000
00000100
00000000
00000000
00000000
00000000
00000000
00001000
00000000
,
00010010
00000000
00000000
00000000
00000000
00000000
00000000
00000000
00000000
00000000
00000000
00000000
00000000
00000000
00000000
00000000
00000000
00000000
00000000
00000000
00000000
00000000
00000000
00000000
00001000
00000000
00000000
00000000
00000000
00000000
00010000
00000000
00000000
00000000
00000000
00000000
00000000
00000000
00000000
00000000
00000000
00000000
01000000
00000000
00000000
00000000
00000000
00000000
10010000
00000000
00000000
00000000
00000000
00000000
01000000
00000000
00000000
00000000
00000000
00000000
00100000
00000000
00000000
00000000
00000000
00000000
00000000
00000000
00000000
00000000
00000000
00000000
02200000
03300000
00000000
00000000
00000000
00000000
00000000
00000000
00000000
00000000
00000000
00000000
00000000
00000000
00000000
00000000
00000000
00000000
00000000
00000000
00000000
00000000
00000000
00000000
,
10000000
00000000
10000000
01000000
10000000
00000000
10000000
01000000
10000000
00000000
00000000
00000000
00010000
00000000
00010000
01000000
,
00010000
00000000
00010000
01000000
00010000
00000000
00000000
00000000
00001000
00000000
00001000
00000100
00001000
00000000
00001000
00000100
,
00001000
00000000
00000000
00000000
00000001
00000000
00000001
00000100
00000001
00000000
00000001
00000000
00000010
00000000
00000000
00000000
,
00000010
00000000
00000001
00000100
00000001
00000100
00001000
00000100
,
00001000
00000100
00001000
00010000
00001000
00010000
00100000
00010000
,
00100000
00000000
00010000
00000000
00100000
00000000
10000000
00000000
01000000
00000000
00100000
00000000
00010000
00000000
00000000
00100000
,
00000000
01000000
10000000
01000000
10000000
01000000
00010000
01000000
,
00010000
00000000
00000000
00000000
00001000
00000000
00000000
00010000
00000000
00000100
00001000
00000000
00000001
00001000
00000001
00000000
,
00000100
00000000
00000010
00000000
00000100
00000000
00000000
00000001
00000000
00000000
00000010
00000000
00001000
00010000
00000000
00001000
,
00100000
00000000
00010000
00100000
00010000
00000000
00000000
00100000
00000000
00000000
10000000
00000000
00100000
00010000
00000000
10000000
,
00010000
00000000
01000000
00000000
00100000
00000000
00000000
10000000
00000000
00000000
01000000
00000000
00010000
01000000
00000000
10000000
,
01000000
00000000
01000000
00000000
00010000
00000000
00000000
00001000
00000000
01000000
00010000
00000000
10000000
00010000
10000000
00000000
,
01000000
00000000
00100000
00000000
01000000
00000000
00000000
10000000
00000000
00000000
00100000
00000000
00010000
00001000
00000000
00010000
,
00000010
00000000
00001000
00000010
00001000
00000000
00000000
00000010
00000000
00000000
00000001
00000000
00000010
00001000
00000000
00000001
,
00001000
00000000
00000100
00000000
00000010
00000000
00000000
00000001
00000000
00000000
00000100
00000000
00000010
00000100
00000000
00001000
,
00010000
00000000
00001000
00010000
00001000
00000000
00100000
00001000
00000000
01000000
00010000
00000000
00100000
00010000
00100000
00000000
,
00010000
00000000
10000000
00010000
10000000
00000000
00100000
10000000
00000000
00010000
01000000
00000000
00010000
00100000
00000000
00001000
,
00100000
00001000
00010000
00001000
00010000
00000000
00000100
00010000
00000000
00000010
00001000
00000000
00000100
00001000
00000000
00000001
,
00001000
00000001
00001000
00000001
00000010
00000000
00000001
00001000
00000000
00000001
00000100
00000000
00000010
00000100
00000000
00000010
,
00001000
00000010
00001000
00000100
00010000
00000000
00001000
00100000
00000000
00010000
01000000
00000000
00100000
10000000
00000000
10000000
,
01000000
00000000
10000000
00010000
10000000
00000000
01000000
00010000
00000000
00010000
00001000
00000000
00001000
00000010
00000000
00000010
,
00000001
00000010
00000001
00001000
00000001
00000000
00000001
00000100
00000000
00000100
00001000
00000000
00001000
00010000
00000000
00010000
,
00001000
00000000
00010000
00001000
00100000
00000000
00000000
01010000
00000000
00000000
00100000
00000000
11000000
00000000
00000000
00000000
,
10000000
00100000
01000000
00010000
00200000
00000000
00000000
00000000
00301000
00000000
00010000
00000000
01000000
00000000
00000000
01100000
,
00000000
00000000
00102000
00000000
00000000
00000000
00000000
00000000
00013000
00000100
00010000
00000100
00001000
00000000
00000010
00000000
,
00001000
00000000
00000001
00000000
00000200
00000000
00000000
00000000
00001300
00000000
00000100
00000000
00000001
00000000
00000000
00000110
,
00000000
00020010
00000000
00000000
00030100
00001000
00000100
00000000
,
00000001
00000100
00000010
00001000
00000200
00000000
00000000
00000000
00010300
00000000
00001000
00000000
00000010
00000000
00000000
00000110
,
00000000
00020100
00000000
00000000
00031000
00010000
00001000
01000000
,
00010000
01000000
00100000
10000000
02000000
00000000
00000000
00100000
00000000
00000000
00100000
00000000
03100000
00000000
00000000
00010000
,
00000000
00012000
00000000
00000000
00103000
00001000
00010000
00000100
,
00001000
00000000
00000010
00000000
00000100
00000000
00000001
00000000
00000100
00000001
00000100
00000000
00000010
00000000
00001000
00000000
,
00000010
00001000
00000010
00000000
00001000
00000100
00001000
00000000
00000100
00010000
00000100
00000000
00010000
00001000
00010000
00000000
,
00001000
00010000
00100000
01000000
20020000
00000000
00000000
00000000
00000000
00000000
00000000
00000000
00000000
00000000
00000000
00000000
,
00000000
00000000
00000000
00000000
,
00000000
00000000
00000000
30030000
00000000
01000000
10010000
00000000
,
00000000
00000000
00000000
00000000
;
