
//----- song id: syun
#TITLE:瞬間 I LOVE YOU;
#ARTIST:H&A. 【静岡】;
#TITLETRANSLIT:Shunkan I LOVE YOU;
#ARTISTTRANSLIT:H&A. [Shizuoka];
#BANNER:Shunkan I LOVE YOU.png;
#BACKGROUND:Shunkan I LOVE YOU-bg.png;
#CDTITLE:./CDTitles/DDR (2014).png;
#MUSIC:Shunkan I LOVE YOU.ogg;
#SAMPLESTART:62.156;
#SAMPLELENGTH:15;
#DISPLAYBPM:167;
#BPMS:0=167;
#NOTES:
     dance-single:
     :
     Beginner:
     2:
     :
0000
0000
0000
0000
,
0000
0000
0000
0000
,
0000
0000
0000
0000
,
0001
0000
0000
0000
,
0001
0000
0000
0000
,
1000
0000
0000
0000
,
1000
0000
0000
0000
,
0010
0000
0000
0000
,
0010
0000
0000
0000
,
1000
0000
0000
0000
,
1001
0000
0000
0000
,
0001
0000
0000
0000
,
0010
0000
0000
0000
,
0100
0000
0000
0000
,
1000
0000
0000
0000
,
0010
0000
0000
0000
,
0100
0000
0000
0000
,
0001
0000
0000
0000
,
1001
0000
0000
0000
,
1000
0000
1000
0000
,
1000
0000
0000
0000
,
0001
0000
0001
0000
,
0001
0000
0000
0000
,
0100
0000
0000
0000
,
0100
0000
0000
0000
,
0010
0000
0010
0000
,
0010
0000
0000
0000
,
1001
0000
0000
0000
,
0100
0000
0000
0000
,
0100
0000
0000
0000
,
0010
0000
0000
0000
,
0010
0000
0000
0000
,
1000
0000
0000
0000
,
0001
0000
0000
0000
,
0100
0000
0000
0000
,
0010
0000
0000
0000
,
0010
0000
0000
0000
,
1000
0000
0000
0000
,
0001
0000
0000
0000
,
0100
0000
0000
0000
,
0001
0000
0000
0000
,
0010
0000
0000
0000
,
0100
0000
0000
0000
,
1000
0000
0000
0000
,
1000
0000
1000
0000
,
1000
0000
0000
0000
,
0001
0000
0001
0000
,
0001
0000
0000
0000
,
0010
0000
0000
0000
,
0010
0000
0000
0000
,
0100
0000
0000
0000
,
0100
0000
0000
0000
,
1000
0000
0001
0000
,
1000
0000
0000
0000
,
0001
0000
1000
0000
,
0001
0000
0000
0000
,
0100
0000
0100
0000
,
0100
0000
0000
0000
,
0010
0000
0000
0000
,
1000
0000
0000
0000
,
0001
0000
0001
0000
,
0001
0000
0000
0000
,
1000
0000
1000
0000
,
1000
0000
0000
0000
,
0010
0000
0010
0000
,
0010
0000
0000
0000
,
0100
0000
0100
0000
,
0100
0000
0000
0000
,
0001
0000
0000
0000
,
1001
0000
0000
0000
,
0000
0000
0000
0000
;
#NOTES:
     dance-single:
     :
     Easy:
     6:
     :
0000
0000
0000
0000
,
0000
0000
0000
0000
,
0000
0000
0000
0000
,
0001
1000
0001
0000
,
0100
0010
0100
0000
,
0010
1000
0010
0100
,
0001
0010
0100
0000
,
1000
0010
1000
0000
,
0001
0100
0001
0000
,
0010
0100
1000
0001
,
0100
0010
0110
0000
,
0010
1000
0100
0000
,
0100
0010
0001
0000
,
0001
0100
0010
1000
,
0100
0010
0001
0000
,
1000
0010
0100
0000
,
0001
0100
0010
0000
,
1000
0100
0001
0100
,
1000
0010
0100
0000
,
0001
0010
0001
0010
,
0001
0000
0001
0000
,
1000
0100
1000
0100
,
1000
0000
1000
0000
,
0010
0100
0001
0100
,
0010
1000
0100
0100
,
0010
0001
1000
0001
,
0100
0010
0100
0010
,
0100
0100
0000
0000
,
0110
0110
1000
0010
,
0002
0000
0003
0000
,
0110
0110
0001
0100
,
2000
0000
3000
0000
,
0100
1000
0010
0100
,
0001
0010
0100
0010
,
0001
0100
1000
0100
,
0001
0000
0001
0000
,
0100
0000
0010
0000
,
1000
0000
0000
0000
,
0010
0000
0100
0000
,
0001
0000
0000
0000
,
1000
0100
0010
0100
,
1000
0001
0100
0010
,
1000
0001
0010
0100
,
1000
0001
1000
0000
,
1001
1001
0100
0010
,
0200
0000
0300
0000
,
1001
1001
0010
0100
,
0020
0000
0030
0000
,
0010
0100
1000
0100
,
0001
0010
0100
0010
,
0001
1000
0001
0100
,
0010
0000
0010
0010
,
0100
0000
0001
0000
,
1000
0000
0000
0000
,
1000
0000
0010
0000
,
0100
0000
0000
0000
,
0001
0010
0100
1000
,
1001
1001
0000
0000
,
0010
1000
0100
0010
,
0001
0010
0100
1000
,
0010
0010
0100
0000
,
0001
1000
0001
0000
,
0100
0100
0010
0000
,
1000
0001
1000
0000
,
0001
0001
0100
0000
,
0010
1000
0010
0000
,
1000
1000
0010
0000
,
0100
0001
0100
0000
,
0010
1000
0001
0010
,
0100
0100
0100
0000
,
0000
0000
0000
0000
;
#NOTES:
     dance-single:
     :
     Medium:
     9:
     :
0000
0000
0000
0000
,
0000
0000
0000
0000
,
0000
0000
0000
0000
,
0001
0000
0001
0000
0100
0010
1000
0000
,
0100
0010
0001
0000
,
0001
0000
1000
0001
0100
0010
0000
0010
,
1000
0100
0010
0000
,
0001
0100
0001
0000
0100
0000
0010
0000
,
1000
0001
0010
0000
0100
0000
0000
0000
,
1000
0000
0001
0010
0100
1000
0000
1000
,
0010
0100
0110
0000
,
0010
1000
0010
0000
0100
0000
0100
0000
,
0001
0010
0100
0000
1000
0000
0000
0000
,
0010
0100
0010
0000
1000
0001
0000
0001
,
0010
0100
0010
0000
,
0001
0100
0001
0000
1000
0000
1000
0000
,
0010
0100
0001
0000
0010
0000
0000
0000
,
0100
0000
1000
0010
0100
0001
0000
0001
,
0010
0100
1100
0000
,
0010
0000
0010
0000
0100
0010
0000
0010
,
2000
0100
0000
3100
,
0001
0000
0001
0000
0010
0001
0000
0020
,
0000
0100
0000
0130
,
1000
0000
0010
0000
0100
0001
0000
0010
,
0000
0100
0000
1000
0010
0000
0010
0000
,
0100
0001
0010
0000
0100
0000
0100
0000
,
1000
0100
0010
0001
0100
0010
0100
0010
,
1000
0001
1000
0000
0110
0000
0110
0000
,
0001
0000
0100
0000
0010
1000
0000
0200
,
0000
0010
0000
0310
,
0010
0000
0001
0000
0010
0100
0000
2000
,
0000
0001
0000
3001
,
0100
0000
0010
0000
0100
0010
0000
0010
,
1000
0001
0010
0100
,
1100
0000
1100
0000
1000
0100
0000
0010
,
0100
0100
0010
0010
,
0001
0000
0000
0100
0000
0000
0010
0000
,
2000
0100
0000
3100
,
0010
0000
0000
0001
0000
0000
0100
0000
,
0020
1000
0000
1030
,
0001
0000
0010
0000
0100
1000
0000
0100
,
0000
0010
0010
0100
,
1000
0000
0000
0001
0000
0000
0100
0000
,
0010
1000
0010
0000
0100
0001
0010
0100
,
1000
0000
1000
0000
0010
0100
0000
0100
,
0002
0010
0000
0013
,
0100
0000
0100
0000
1000
0010
0000
0010
,
0200
0001
0000
0301
,
0010
0000
0100
0000
0010
0001
0000
0001
,
1000
0010
0100
0100
,
0010
1000
0010
0000
0100
0010
0000
1000
,
0001
0010
0100
0110
,
0001
0000
0000
1000
0000
0000
0010
0000
,
0200
0001
0000
0301
,
0010
0000
0000
0100
0000
0000
1000
0000
,
0002
0100
0000
0103
,
0010
0000
1000
0000
0100
0010
0000
0001
,
1000
1000
1000
0000
0010
0000
0010
0000
,
0100
0000
0100
0000
0001
0010
0100
1000
,
0010
0000
0010
0000
1000
0010
0100
0001
,
0010
0000
0010
0000
0100
1000
0000
0010
,
0000
0010
0000
0010
0100
0000
0101
0000
,
0001
0000
0001
0000
0100
0010
0000
1000
,
0000
1000
0000
1000
0010
0000
1010
0000
,
0010
0000
0100
0000
0001
0010
0000
0100
,
0000
0100
0000
0100
1000
0000
1001
0000
,
1000
0000
0010
0000
0100
0001
0000
0010
,
0000
0010
0000
0010
0100
0000
1100
0000
,
1000
0010
0100
0000
0001
0100
0010
0000
,
1001
1001
1001
0000
,
0000
0000
0000
0000
;
#NOTES:
     dance-single:
     :
     Hard:
     11:
     :
0000
0000
0000
0000
,
0000
0000
0000
0000
,
0000
0000
0000
0000
,
1000
0010
0200
0000
0310
1000
0001
0010
,
0100
1000
0020
0000
0130
0000
0001
0000
,
0011
0000
0010
0100
1000
0001
0100
0020
,
1000
1030
0010
0110
,
0001
1000
0001
0100
0010
0200
0000
0301
,
1000
0100
0010
0100
1000
0000
1100
0000
,
0010
1000
0001
0010
0100
0010
0000
0001
,
1000
0010
1000
0100
0001
0000
0001
0100
,
1000
0001
1000
0000
1000
0010
0100
0001
,
0010
1000
0010
0000
0001
0000
1001
0000
,
0010
1000
0010
0100
0001
0010
0000
0001
,
0200
0320
2030
3001
,
1000
0100
0010
0001
0100
0010
0000
0010
,
1000
0001
0010
0100
1000
0000
1100
0000
,
1000
0010
0100
1000
0100
0001
0000
0001
,
1000
0100
0001
0100
1000
0000
0020
0000
,
0130
0001
0100
1000
0100
0010
0000
2000
,
0000
0001
0001
3001
,
0100
0000
0010
0100
0001
1000
0000
0020
,
0000
1000
1000
1030
,
0001
0100
0001
0010
0100
0010
0000
0001
,
1000
0010
1000
0001
0100
0000
0110
0000
,
0010
1000
0100
0010
0100
1000
0000
0001
,
1000
0010
1000
0100
0010
0001
0100
0010
,
1000
1000
1100
0000
0001
0000
0100
0000
,
0110
0000
0110
0000
0010
0100
0000
0002
,
1000
0010
0100
0013
,
1100
0000
1100
0000
1000
0010
0000
2000
,
0001
0100
0010
3100
,
0001
0000
0101
0000
1000
0010
0000
0010
,
0100
0101
1100
0101
,
1000
0010
1000
0000
0100
1000
0100
0010
,
0001
1000
0010
0100
1000
0000
1100
0000
,
0110
0000
0010
0100
0001
0000
1000
0000
,
2001
0001
0001
3001
,
1000
0000
0010
0100
0001
0000
0010
0000
,
1000
0010
0001
0010
0100
0000
1100
0000
,
0001
0000
0100
0000
0010
1000
0100
0010
,
0001
0101
1010
1100
,
0001
0100
1000
0100
0010
0000
0110
0000
,
1000
0000
0000
1000
0010
0000
0000
0010
0100
0000
0000
0100
0001
0000
0000
0001
,
0010
0000
0110
0000
1000
0001
0000
0200
,
0000
0001
1000
0301
,
1010
0000
1010
0000
1000
0100
0000
0020
,
0000
0001
1000
0031
,
0101
0000
0101
0000
0010
1000
0000
0200
,
0000
0320
0032
2003
,
3010
1000
0100
0010
0001
0100
0000
0020
,
0000
0000
1000
0030
1000
0010
0100
1000
,
0100
0000
0000
0101
0000
0000
0010
0000
,
0012
0100
0010
0103
,
2000
0000
0000
3020
0000
0000
0230
0000
,
0301
0010
0100
1000
0000
0010
0100
0000
,
0001
0000
0011
0000
1000
0010
0000
0100
,
0001
0001
0001
0000
1000
0000
1100
0000
,
1000
0000
0010
0100
0000
0000
0001
0000
,
1000
0010
0100
1000
0100
0001
0010
0100
,
1000
0000
1010
0000
0010
0100
0000
0110
,
0000
0110
0000
0100
0001
0000
0101
0000
,
0011
0000
0011
0000
0100
0010
0000
1010
,
0000
1010
0000
1000
0100
0000
0110
0000
,
0001
0000
0101
0000
0100
0010
0000
0110
,
0000
0110
0000
0100
0001
0000
0011
0000
,
0110
0000
0110
0000
1000
0100
0000
1100
,
0000
1100
0000
0100
0010
0000
0011
0000
,
0001
0100
0010
0001
0010
1000
0100
0010
,
0001
0100
0001
0001
0101
0000
0000
0000
,
0000
0000
0000
0000
;
#NOTES:
     dance-double:
     :
     Easy:
     6:
     :
00000000
00000000
00000000
00000000
,
00000000
00000000
00000000
00000000
,
00000000
00000000
00000000
00000000
,
00010000
10000000
00010000
00000000
,
00100000
00010000
01000000
00000000
,
00100000
00010000
00001000
00000100
,
00000010
00000100
00000001
00000000
,
00000001
00000100
00000010
00000000
,
00000010
00000100
00001000
00000000
,
00001000
00010000
00100000
01000000
,
00010000
01000000
00100000
00000000
,
10000000
01000000
00100000
00000000
,
00010000
01000000
00100000
00000000
,
00010000
00001000
00010000
00000000
,
00001000
00000100
00000010
00000000
,
00000100
00000001
00001000
00000000
,
00000010
00000100
00000010
00000000
,
00000010
00000100
00001000
00010000
,
00001000
00010000
00100000
00000000
,
01000000
00010000
10000000
10000000
,
00200000
00000000
00000000
00300000
,
01000000
01000000
00100000
00010000
,
00002000
00000000
00000000
00003000
,
00010000
00001000
00000100
00000100
,
00000010
00001000
00000001
00000010
,
00000100
00010000
00001000
00000100
,
00000010
00000100
00001000
00010000
,
00011000
00011000
00010000
00100000
,
01100000
01100000
00100000
10000000
,
02000000
00000000
00000000
03000000
,
11000000
11000000
00100000
00010000
,
00200000
00000000
00000000
00300000
,
00001000
00001000
00010000
00001000
,
00000100
00000010
00000100
00001000
,
00010000
00010000
00001000
00010000
,
00100000
01000000
01100000
00000000
,
00100000
10000000
01000000
00000000
,
00100000
00010000
00100000
00000000
,
00001000
00010000
00001000
00000100
,
00000010
00001000
00000001
00000000
,
00000001
00000100
00000010
00000010
,
00001000
00000100
00001000
00000000
,
00000010
00000100
00001000
00010000
,
00001000
00010000
00011000
00011000
,
00010000
00100000
10000000
01000000
,
00200000
00000000
00000000
00300000
,
00001000
00010000
00001000
00000100
,
00000020
00000000
00000000
00000030
,
00000100
00000001
00000010
00000100
,
00010000
00000010
00000100
00001000
,
00010000
00010000
00001000
00001000
,
00100000
00001000
00010000
00010000
,
00100000
00000000
01000000
00000000
,
00010000
00100000
01000000
00000000
,
10000000
00000000
00100000
00000000
,
01000000
00100000
00010000
00000000
,
00001000
00010000
00001000
00000100
,
00000110
00000110
00000100
00000001
,
00000010
00000100
00001000
00000100
,
00000010
00000010
00000001
00000001
,
00000100
00000010
00001000
00000000
,
00000100
00000100
00010000
00000000
,
00001000
00010000
00100000
00000000
,
01000000
01000000
00010000
00000000
,
10000000
00010000
01000000
00000000
,
00100000
00100000
01000000
00000000
,
00100000
00010000
00001000
00000000
,
00001000
00001000
00000100
00000100
,
00000010
00000100
00001000
00010000
,
00001000
00010000
00011000
00000000
,
00000000
00000000
00000000
00000000
;
#NOTES:
     dance-double:
     :
     Medium:
     9:
     :
00000000
00000000
00000000
00000000
,
00000000
00000000
00000000
00000000
,
00000000
00000000
00000000
00000000
,
10000000
00000000
00010000
00000000
01000000
00100000
00000000
00100000
,
00010000
00001000
00000100
00000000
,
00000010
00000000
00001000
00000001
00000010
00000000
00000100
00000000
,
00001000
00000001
00000100
00000000
,
00000100
00000000
00001000
00000000
00010000
00001000
00000000
00001000
,
00010000
00100000
01000000
00000000
,
00010000
10000000
00100000
00000000
01000000
00100000
00000000
00010000
,
00001000
00010000
00011000
00000000
,
00001000
00000000
00000100
00000000
00000010
00001000
00000000
00000001
,
00000100
00000010
00001000
00000000
,
00000100
00000000
00001000
00000000
00000010
00000100
00000000
00001000
,
00010000
00001000
00100000
00000000
,
00001000
00010000
00100000
00000000
01000000
00100000
00000000
00100000
,
10000000
01000000
00100000
00000000
,
00010000
00100000
00010000
00000000
01000000
00100000
00000000
10000000
,
00100000
00010000
00001000
00000000
,
00001000
00010000
00001000
00000000
00000100
00000010
00000000
00001000
,
00000002
00000100
00000000
00000103
,
00000010
00001000
00000010
00000000
00000010
00000100
00000000
00001000
,
00020000
00000100
00000000
00030100
,
00010000
00001000
00010000
00000000
00100000
00010000
00000000
00001000
,
00000000
00010000
00000000
00100000
01000000
00000000
01100000
00000000
,
00100000
10000000
00010000
00000000
00100000
01000000
00000000
10000000
,
00100000
00010000
00001000
00010000
,
00001000
00001000
00011000
00000000
00000100
00000000
00001000
00000000
,
00001010
00000000
00001010
00000000
00000010
00000100
00000000
00000001
,
00002000
00000010
00000000
00003010
,
00000110
00000000
00000110
00000000
00000100
00001000
00000000
00010000
,
00002000
00100000
00000000
00103000
,
00010000
00000000
00100000
00000000
01000000
10000000
00000000
00100000
,
01000000
00010000
01000000
00100000
,
00010000
00000000
00001000
00000000
00010000
00000100
00000000
00001000
,
00000010
00000100
00000101
00000000
,
00000001
00000000
00000000
00000100
00000000
00000000
00000010
00000000
,
00002000
00000100
00000000
00003100
,
00010000
00000000
00000000
00001000
00000000
00000000
00010000
00000000
,
00200000
10000000
00000000
10300000
,
01000000
00000000
00100000
00000000
00010000
01000000
00000000
00100000
,
00010000
00001000
00010000
00001000
,
00000100
00000000
00000010
00001000
00000001
00000000
00000010
00000000
,
00000100
00001000
00000010
00000100
00000001
00000000
00000010
00000000
,
00000110
00000000
00000110
00000000
00000100
00001000
00000000
00000010
,
00000200
00001000
00000000
00001300
,
00011000
00000000
00011000
00000000
00010000
00100000
00000000
01000000
,
00020000
10000000
00000000
10030000
,
00100000
00000000
00100000
00000000
01000000
00010000
00000000
10000000
,
00100000
01000000
00100000
00010000
,
00001000
00000000
00001000
00000000
00010000
00000100
00000000
00000100
,
00001000
00000010
00000000
00000010
00000100
00000000
00000110
00000000
,
00000001
00000000
00001000
00000010
00000100
00000000
00001000
00000000
,
00020000
00000100
00000000
00030100
,
00010000
00000000
00001000
00010000
00100000
00000000
01100000
00000000
,
20000000
00010000
00000000
30010000
,
01000000
00000000
00100000
00000000
00010000
00001000
00000000
00000100
,
00001000
00010000
00001000
00000000
00010000
00000000
00011000
00000000
,
00001000
00000100
00000010
00000000
00000100
00000010
00001000
00000001
,
00000010
00000100
00001000
00000000
00000010
00000100
00001000
00010000
,
00001000
00000000
00011000
00000000
00010000
00001000
00000000
00100000
,
00000000
00100000
00000000
00100000
00010000
00000000
00110000
00000000
,
00010000
00000000
01010000
00000000
01000000
00100000
00000000
10000000
,
00000000
10000000
00000000
10000000
01000000
00000000
11000000
00000000
,
00100000
00000000
01100000
00000000
01000000
10000000
00000000
00010000
,
00000000
00010000
00000000
00010000
01000000
00000000
01100000
00000000
,
00100000
00000000
00010000
00000000
00001000
00010000
00000000
00000100
,
00000000
00000100
00000000
00000100
00000010
00000000
00000110
00000000
,
00000001
00001000
00000010
00000000
00000010
00000100
00001000
00010000
,
00001000
00100000
00001000
00000000
00011000
00000000
00000000
00000000
,
00000000
00000000
00000000
00000000
;
#NOTES:
     dance-double:
     :
     Hard:
     11:
     :
00000000
00000000
00000000
00000000
,
00000000
00000000
00000000
00000000
,
00000000
00000000
00000000
00000000
,
00100000
10000000
00100000
00000000
01000000
00100000
00000000
00100000
,
00010000
00001000
00010000
00000000
00011000
00000000
00001000
00000000
,
00000100
00000000
00000010
00001000
00000001
00000010
00000000
00000100
,
00001000
00000020
00000130
00000000
,
00000100
00001000
00010000
00100000
00010000
00001000
00000000
00001000
,
00010000
00100000
01000000
00000000
01100000
00000000
00000000
00000000
,
01000000
10000000
01000000
00100000
10000000
00010000
00000000
00010000
,
01000000
00100000
00010000
00001000
00010000
00000000
00011000
00000000
,
00010000
00000100
00001000
00000000
00000010
00000100
00000000
00000001
,
00000010
00000100
00001000
00000000
00001010
00000000
00000010
00000000
,
00000100
00001000
00010000
00100000
00010000
00001000
00000000
00001000
,
00100000
00010000
00110000
00000000
,
00100000
01000000
10000000
00010000
01000000
00010000
00000000
00100000
,
00001000
00010000
00100000
00000000
00010000
00000000
00011000
00000000
,
00001000
00000100
00000010
00001000
00000010
00000100
00000000
00000001
,
00000010
00000100
00000010
00000001
00001000
00000000
00001100
00000000
,
00000010
00000100
00001000
00000100
00000010
00001000
00000000
00000020
,
00010000
00001000
00010000
00001030
,
00000100
00001000
00010000
00100000
00010000
00001000
00000000
00020000
,
00000100
00001000
00000100
00031000
,
00001000
00010000
00100000
01000000
00100000
10000000
00000000
00010000
,
00000000
00100000
00000000
01000000
10000000
00000000
00100000
00000000
,
00100000
00010000
00001000
00010000
00000100
00001000
00000000
00000010
,
00000100
00000001
00000010
00000100
00001000
00000010
00000100
00001000
,
00010000
00010000
00011000
00000000
00000100
00000000
00010000
00000000
,
00011000
00000000
00011000
00000000
00001000
00100000
00000000
00010000
,
10000000
00100000
01000000
00000000
00100000
01000000
00010000
00000000
,
00110000
00000000
00110000
00000000
00100000
01000000
00000000
10000000
,
00010000
01000000
00100000
00000000
00100000
00010000
00001000
00000000
,
00001000
00000000
00010000
00000000
00001000
00000100
00000000
00000010
,
00001000
00000001
00000010
00000100
,
00001000
00000010
00000100
00000000
00000100
00001000
00010000
00100000
,
00010000
00001000
00000000
00001000
00010000
00000000
00010000
00000000
,
00100000
00000000
10000000
00100000
01000000
00000000
00010000
00000000
,
00200000
01000000
00010000
01300000
,
10000000
00000000
00100000
01000000
00010000
00000000
00100000
00000000
,
00002000
00010000
00000100
00013000
,
00000010
00000000
00001000
00000000
00000100
00000010
00000000
00000001
,
00001000
00000010
00000100
00001000
,
00010000
00001000
00010000
00100000
01000000
00010000
10000000
00100000
,
01000000
00100000
00010000
00001000
00010000
00000000
00001000
00000000
,
00001100
00000000
00001100
00000000
00000100
00000001
00000000
00000010
,
00000100
00001000
00000010
00000000
00000100
00000001
00000010
00000000
,
00000001
00000000
00000100
00000000
00001000
00010000
00000000
00010000
,
00100000
01000000
00010000
00000000
00100000
01000000
10000000
00000000
,
00100000
00000000
10100000
00000000
10000000
01000000
00000000
00010000
,
01000000
10000000
00100000
00010000
,
00001000
00000000
00000100
00000000
00000010
00001000
00000000
00000001
,
00000100
00000010
00000001
00000010
00001000
00000000
00001100
00000000
,
00000010
00000000
00000100
00001000
00000000
00010000
00001000
00000000
,
00100000
00001000
00010000
01000000
,
10000000
00000000
00100000
01000000
00000000
00001000
00010000
00000000
,
00100000
00010000
00001000
00000100
,
00000020
00000000
00002030
00000000
00003001
00000010
00000000
00000100
,
00001000
00001000
00001010
00000000
00000010
00000000
00000100
00000000
,
00001000
00010000
00100000
00010000
00001000
00001000
00010000
00100000
,
01000000
10000000
01000000
00100000
01000000
01000000
00010000
00100000
,
01000000
00000000
11000000
00000000
10000000
00100000
00000000
01100000
,
00000000
01100000
00000000
00100000
00010000
00000000
00011000
00000000
,
00010100
00000000
00010100
00000000
00000100
00001000
00000000
00001010
,
00000000
00001010
00000000
00000010
00000100
00000000
00001100
00000000
,
00011000
00000000
00011000
00000000
00010000
01000000
00000000
01100000
,
00000000
01100000
00000000
00100000
01000000
00000000
11000000
00000000
,
10000000
00100000
01000000
10000000
01000000
00100000
00000000
01100000
,
00000000
01100000
00000000
00100000
00010000
00000000
00011000
00000000
,
00001000
00000100
00000010
00000100
00000001
00000010
00000100
00010000
,
00001000
00001000
00010000
00010000
00011000
00000000
00000000
00000000
,
00000000
00000000
00000000
00000000
;
