
//----- song id: shik
#TITLE:漆黒のスペシャルプリンセスサンデー;
#ARTIST:日向美ビタースイーツ♪;
#TITLETRANSLIT:Shikkoku no Special Princess Sundae;
#ARTISTTRANSLIT:Hinatabi Bitter Sweets♪;
#BANNER:Shikkoku no Special Princess Sundae.png;
#BACKGROUND:Shikkoku no Special Princess Sundae-bg.png;
#CDTITLE:./CDTitles/DDR (2014).png;
#MUSIC:Shikkoku no Special Princess Sundae.ogg;
#SAMPLESTART:45.6;
#SAMPLELENGTH:15;
#DISPLAYBPM:200;
#BPMS:0=200;
#NOTES:
     dance-single:
     :
     Beginner:
     4:
     :
0000
0000
0000
0000
,
0000
0000
0000
0000
,
0000
0000
0000
0000
,
0000
0000
0000
0000
,
0000
0000
0000
0000
,
0000
0000
0000
0000
,
0000
0000
0000
0000
,
0000
0000
0000
0000
,
0000
0000
0000
0000
,
0001
0000
0000
0000
,
1000
0000
0000
0000
,
1000
0000
0000
0000
,
0001
0000
0000
0000
,
1000
0000
0000
0000
,
0001
0000
0000
0000
,
0001
0000
0000
0000
,
1000
0000
0000
0000
,
0001
0000
0000
0000
,
0002
0003
2000
3000
,
1000
0000
0000
0000
,
2000
3000
0002
0003
,
0000
0000
0000
0000
,
0001
0000
0000
0000
,
1000
0000
0000
0000
,
0001
0000
0000
0000
,
1000
0000
0000
0000
,
1000
0000
0001
0000
,
0010
0000
0001
0000
,
0100
0000
0000
0000
,
1000
0000
0000
0000
,
1000
0000
0000
0000
,
0001
0000
0000
0000
,
1000
0000
0000
0000
,
0001
0000
0000
0000
,
0001
0000
1000
0000
,
0010
0000
1000
0000
,
0100
0000
0000
0000
,
0001
0000
0000
0000
,
0010
0000
0000
0000
,
1000
0000
1000
0000
,
1000
0000
0000
0000
,
0010
0000
0010
0000
,
0010
0000
0000
0000
,
0001
0000
0001
0000
,
0001
0000
0000
0000
,
0010
0000
0000
0000
,
0010
0000
0000
0000
,
0001
0000
0001
0000
,
0001
0000
0000
0000
,
0010
0000
0010
0000
,
0010
0000
0000
0000
,
1000
0000
1000
0000
,
1000
0000
0000
0000
,
0010
0000
0000
0000
,
0010
0000
0010
0000
,
0000
0000
0000
0000
,
1000
0000
1000
0000
,
0001
0000
0000
0000
,
0010
0000
0020
0030
,
0000
0001
0000
1000
,
0000
0001
0000
1000
,
1000
0000
0000
0000
,
1000
0000
1000
0000
,
1000
0000
0000
0000
,
0010
0000
0010
0000
,
0010
0000
0000
0000
,
0001
0000
0000
0000
,
0010
0000
0000
0000
,
0001
0000
0000
0000
,
2000
0000
0000
3000
,
0010
0000
0000
0000
,
0001
0000
0000
0000
,
0010
0000
0000
0000
,
1000
0000
0000
0000
,
0100
0000
0000
0000
,
1000
0000
0001
0000
,
0010
0000
0000
0000
,
0001
0000
0010
0000
,
0001
0000
1000
0000
,
1000
0000
0000
0000
,
0001
0000
0000
0000
,
0010
0000
0000
0000
,
1000
0000
0000
0000
,
0002
0000
0000
0003
,
0010
0000
0000
0000
,
1000
0000
0000
0000
,
0010
0000
0000
0000
,
0001
0000
0000
0000
,
0100
0000
0000
0000
,
0001
0000
1000
0000
,
0010
0000
0000
0000
,
1000
0000
0010
0000
,
1000
0000
0001
0000
,
0001
0000
0000
0000
,
1000
0000
0000
0000
,
0010
0000
0000
0000
,
0010
0000
0010
0000
,
1000
0000
0000
0000
,
1000
0000
1000
0000
,
0100
0000
0000
0000
,
0100
0000
0100
0000
,
0001
0000
0001
0000
,
0100
0000
0000
0100
,
0000
0100
0200
0000
,
0000
0000
0000
0300
,
0000
0000
0000
0000
;
#NOTES:
     dance-single:
     :
     Easy:
     8:
     :
0000
0000
0000
0000
,
0000
0000
0000
0000
,
0000
0000
0000
0000
,
0000
0000
0000
0000
,
0000
0000
0000
0000
,
0000
0000
0000
0000
,
0000
0000
0000
0000
,
0000
0000
0000
0000
,
0000
0000
0000
0000
,
0001
0001
0000
1000
,
1000
0000
0000
0000
,
1000
1000
0000
0001
,
0001
0000
0000
0000
,
1000
0001
0000
0010
,
0001
0000
0000
0000
,
0001
1000
0000
1000
,
0001
0010
0001
1000
,
0001
0010
0100
0010
,
0002
0003
2000
3000
,
1000
0010
0100
0010
,
2000
3000
0002
0003
,
0010
0000
0100
0000
,
0001
1000
0010
0000
,
1000
0100
0010
0000
,
0001
0100
1000
0100
,
0001
0010
0100
1000
,
0100
0010
0001
0000
,
0010
0100
0001
0000
,
0100
0010
1000
0100
,
1000
0100
0010
0000
,
0001
1000
0010
0000
,
0001
0100
0010
0000
,
1000
0100
0001
0100
,
1000
0010
0100
0001
,
0100
0010
1000
0100
,
0010
0100
1000
0010
,
0100
0010
0001
0100
,
0001
1000
0010
0100
,
0010
0000
0000
0000
,
0100
0001
0100
0001
,
0100
0000
0000
0000
,
0010
1000
0010
1000
,
0010
0000
0000
0000
,
0100
1000
0100
1000
,
0100
0001
0100
1000
,
1001
0000
0000
0000
,
0010
1000
0100
0001
,
0100
1000
0100
0000
,
0010
0001
0010
1000
,
0010
0001
0010
0000
,
0010
0001
0100
1000
,
0100
0001
0100
1000
,
1000
1000
0001
0001
,
0010
0010
0010
0000
,
0010
0001
0010
0100
,
1000
0100
0010
0000
,
1000
0100
2000
0000
,
3002
0000
0000
0003
,
0010
0001
0020
0030
,
0001
0100
1000
0000
,
1000
0001
0001
0000
,
0010
1000
0100
0001
,
0100
1000
0100
0000
,
0010
0001
0010
1000
,
0010
0001
0010
0001
,
0010
0001
0100
1000
,
0100
0000
0000
0000
,
0020
0000
0030
0000
,
0001
0001
0000
0000
,
2000
0000
0000
3000
,
0010
0001
0000
1000
,
0001
0000
0000
0000
,
0001
0010
1000
0100
,
1000
0000
0000
0000
,
0100
0000
0000
0000
,
1000
0010
0001
0010
,
0010
1000
1000
0100
,
0001
0100
0010
0100
,
0001
0000
1000
0100
,
1000
0001
0010
0001
,
1000
0000
0000
0000
,
1000
0010
0001
0010
,
0010
1000
1000
0100
,
0001
0100
0010
0100
,
0001
0000
1000
0000
,
1000
0001
0010
0001
,
1000
0100
1000
0001
,
0001
1000
0010
1000
,
0100
0000
0100
0000
,
0001
0010
1000
0010
,
0010
0001
0001
0100
,
1000
0100
0010
0100
,
1000
0000
0001
0100
,
0001
1000
0010
1000
,
1000
0000
0000
0000
,
1000
0001
0010
0001
,
0010
0000
0100
0000
,
1000
0001
0100
0001
,
0100
0000
1000
0000
,
1000
1000
0010
0001
,
0001
0000
0100
0000
,
1000
0010
0010
1000
,
0100
0010
0001
0110
,
0000
2000
0002
0000
,
0000
0000
0000
3003
,
0000
0000
0000
0000
;
#NOTES:
     dance-single:
     :
     Medium:
     11:
     :
0000
0000
0000
0000
,
0000
0000
0000
0000
,
0000
0000
0000
0000
,
0000
0000
0000
0000
,
0000
0000
0000
0000
,
0000
0100
0100
0100
,
1001
0110
0000
0000
,
0000
0001
0010
0100
,
1000
1100
0001
0100
,
0001
0010
0001
0000
0000
1000
0000
2000
,
0000
0100
0100
3100
,
1000
0010
1000
0000
0000
0001
0000
0002
,
0000
0100
0100
0103
,
0001
1000
0001
0000
0000
1000
0000
0002
,
0000
0000
0010
0013
,
0010
0100
0010
0000
0000
0100
0000
0000
,
0001
0010
0001
1100
,
0001
0000
0100
0000
0001
0010
0000
0002
,
0000
0103
2000
3100
,
1000
0000
0100
0000
1000
0010
0000
2000
,
0000
3100
0002
0103
,
0000
2000
0000
0002
0000
0000
3003
0000
,
1000
0001
0010
0001
,
1000
1100
0100
0010
,
0001
0100
1000
0100
,
0001
0010
0001
0000
0010
0000
0100
0000
,
0001
0010
0001
1000
,
0010
0100
0001
1000
,
0001
0010
0001
1000
0000
0100
0000
0000
,
1000
0000
0100
0000
0010
0001
1000
0000
,
0001
0101
0100
0010
,
1000
0100
0001
0100
,
1000
0010
1000
0000
0010
0000
0100
0000
,
1000
0010
1000
0001
,
0010
0100
1000
0001
,
1100
0000
1100
0000
0000
0000
0001
0010
,
0001
0000
0100
0000
0010
1000
0001
0000
,
0010
0001
1000
0100
,
0020
0001
0001
0001
,
0100
0000
0100
0000
0100
0000
0100
0030
,
0200
1000
1000
1000
,
0010
0010
0010
0310
,
0020
0100
0100
0100
,
0001
0001
0001
0030
,
0000
1001
0000
0000
0110
0000
0000
1001
,
0000
0000
0000
0000
,
0010
1000
0100
0011
,
0100
0000
1000
0001
0100
0000
0001
0000
,
0100
0001
0010
1100
,
0010
0000
0001
1000
0010
0000
0001
0000
,
0020
0001
0100
0001
,
0100
0001
0100
0031
,
0000
0101
0000
0000
0110
0000
0000
1010
,
0000
0000
1000
0100
1000
0100
1000
0000
,
0010
0000
0100
0000
0010
0000
1000
0100
,
1000
0000
0010
0000
0001
0000
1000
0100
,
1000
0001
2000
0100
,
3002
0000
0000
0000
0000
0000
0003
0010
,
0100
0000
0001
0020
0000
0000
0030
0000
,
0001
0010
0001
0000
1000
0100
1000
0000
,
0100
0001
0100
0001
,
0010
0001
0100
1010
,
0100
0000
0001
1000
0100
0000
1000
0000
,
0100
1000
0010
0101
,
0010
0000
1000
0001
0010
0000
1000
0000
,
0000
0001
0000
0000
1000
0000
0001
0100
,
0000
0000
0000
1000
,
0001
0000
0000
0010
0000
0000
0000
0001
,
0000
0010
0100
0000
1000
0000
0100
0000
,
1000
0000
0001
0010
0000
0001
0000
0010
,
0000
0010
0000
0000
0000
0000
1000
0000
,
0001
0000
0000
0010
0000
0000
0000
0001
,
0000
0010
0100
0000
1000
0000
0100
0000
,
1000
0000
0001
0010
0000
0001
0000
2000
,
0000
0000
3000
0000
,
0001
0010
0001
1000
,
0010
0000
1000
0000
0001
0100
0001
0000
,
1001
0110
1001
0110
,
0001
0010
0100
1000
,
1000
0000
0001
1000
0000
0001
0000
1000
,
0000
0100
0000
1000
0000
0000
0001
0000
,
1000
0101
0001
1000
,
0100
0001
0100
0000
0001
0000
0100
0000
,
1000
0000
0100
0010
0000
0010
0000
0100
,
0010
0001
0100
1000
,
0001
0000
1000
0010
1000
0000
0001
0000
,
0100
0100
0001
0100
,
0001
0000
1000
0010
0000
1000
0000
0002
,
0000
0100
0103
1000
,
0001
0010
0001
1000
,
0010
0000
1000
0000
0001
0100
0001
0000
,
1001
0110
1001
0110
,
0001
0010
0100
1000
,
1000
0000
0001
1000
0000
0001
0000
1000
,
0000
0100
0000
0000
0000
0000
0000
0000
,
1000
1001
0001
0010
,
0001
0000
0100
0000
,
0001
0000
1000
0100
1000
0000
0010
0000
,
1000
0000
0100
0000
,
1000
1001
0001
0010
,
0001
0000
0100
0000
,
0011
0000
0011
0000
0000
1000
0000
0100
,
1000
0000
0000
0100
0000
0000
1000
0000
,
0000
0000
0100
0000
0002
0020
0000
0000
,
0000
0000
0000
0033
,
0000
0000
0000
0000
;
#NOTES:
     dance-single:
     :
     Hard:
     13:
     :
0000
0000
0000
0000
,
0000
0000
0000
0000
,
0000
0000
0000
0000
,
0000
0000
0000
0000
,
0000
0000
0000
0000
,
0000
0100
0100
0100
,
1001
0110
0000
0000
,
0000
0000
1000
0100
0010
0001
0100
0000
,
1000
1100
0001
0100
,
0001
0010
0001
0000
0000
1100
0000
2100
,
0000
0100
0100
3100
,
1000
0010
1000
0000
0000
0101
0000
0102
,
0000
0100
0100
0103
,
1000
0001
1000
0000
0000
0110
0000
0012
,
0000
0000
0010
0013
,
0010
0100
0010
0000
0000
1000
0000
0001
,
0000
0100
0010
0001
0010
0100
1000
0000
,
0001
0010
0001
0100
0001
0010
0000
0002
,
0000
0103
2000
3100
,
1000
0010
1000
0100
1000
0010
0000
2000
,
0000
3100
0002
0103
,
0000
1100
0000
0022
0000
0000
0033
0000
,
1000
0001
0010
0001
,
1000
0100
1000
0010
0100
0001
0010
0100
,
0001
0100
1000
0100
,
0001
0010
0001
0100
0010
1000
0100
1000
,
0001
0010
0001
1000
,
0010
0000
0100
0000
0001
0010
0001
0100
,
0001
0010
0001
1000
0000
0100
0000
0000
,
1000
0010
0100
0001
0010
0100
1000
0000
,
0001
1000
0010
1000
,
0001
0100
0001
0010
0100
1000
0010
0100
,
1000
0100
0001
0100
,
1000
0010
1000
0100
0010
0001
0100
0001
,
1000
0000
0010
0100
0010
0000
0001
0000
,
0010
0000
0100
0010
0100
0010
1000
0100
,
1000
0010
1000
0001
0010
0001
1000
0100
,
0010
0001
0010
0100
1000
0100
1000
0000
,
0020
0001
0100
0001
,
0100
0001
0100
0031
,
0200
1000
0010
1000
,
0010
1000
0010
1300
,
0020
1000
0100
1000
,
0100
1000
0100
1030
,
0100
1100
0000
0010
0110
0000
0010
0011
,
0000
0000
0000
0000
,
0020
1000
0100
0001
,
0100
1000
0100
0031
,
0200
0001
0010
1000
,
0010
0001
0010
0301
,
0020
0001
0100
1000
,
0100
0001
0100
1030
,
0100
0101
0000
0100
0110
0000
0010
1010
,
0000
0000
1000
0100
1000
0010
0100
0001
,
0010
0001
0010
0001
0010
0100
1000
0100
,
1000
0100
0010
0001
0010
0001
1000
0100
,
1000
0100
1000
0001
2000
0000
0000
0000
,
3002
0000
0000
0000
0000
0000
0003
0010
,
0100
0000
0001
0020
0000
0000
0030
0000
,
0001
0010
0100
1000
0001
0100
0010
1000
,
0100
1000
0001
0010
0001
0010
0001
0000
,
1100
0011
0110
0011
,
0110
1100
0110
0011
,
0101
0110
1100
0101
,
0110
1001
0011
1100
,
1000
0001
0000
0000
1000
0000
0001
0010
,
0000
0000
0000
1000
,
0001
0000
0000
0010
0000
0000
0000
0001
,
0000
0010
0100
0000
1000
0000
0100
0000
,
1000
0000
0001
0010
0000
0001
0000
0010
,
0000
0011
0000
0000
0000
0000
1000
0000
,
0001
0000
0000
0010
0000
0000
0000
0001
,
0000
0010
0100
0000
1000
0000
0100
0000
,
1000
0000
0001
0010
0000
0001
0000
2000
,
0100
0000
0100
0000
3100
0000
0000
1000
,
0001
0010
0001
1000
,
0010
0000
0001
0000
1000
0100
1000
0000
,
0011
0110
1100
0110
,
0011
0110
1100
0110
,
1000
0000
0001
0010
0000
0001
0000
1000
,
0000
0100
0000
1000
0100
1000
0001
0000
,
1000
0000
0001
0010
0100
0000
1000
0100
,
0000
0010
0100
0000
0001
0000
0100
0000
,
1000
0000
0100
0010
0000
0001
0000
0010
,
0100
0001
1000
0010
0100
0001
1000
0000
,
0001
0000
1000
0010
1000
0000
0001
1000
,
0100
0010
0100
1000
0001
0000
0100
0000
,
0001
0000
1000
0010
0000
1000
0000
0002
,
0100
0000
0100
0000
0103
0000
1000
0001
,
1000
0010
1000
0001
,
0010
0000
1000
0000
0001
0100
0001
0000
,
1010
0110
0101
0110
,
1010
0110
0101
0110
,
0001
0000
1000
0010
0000
1000
0000
0001
,
0000
0100
0000
0001
0100
0001
1000
0100
,
1000
0000
0001
0010
0000
0001
0000
0010
,
0001
0000
0000
1100
0000
0000
0110
0000
,
1000
0000
0001
0100
0000
0001
0000
0100
,
0001
0000
0000
1010
0000
0000
0110
0000
,
1000
0100
1000
0010
0000
0001
0000
0010
,
0001
0000
0000
1100
0000
0000
0110
0000
,
1000
0010
0001
0010
0000
1000
0000
0100
,
1100
0000
0000
1010
0000
0000
0110
0000
,
0000
0000
1000
0000
0002
0020
0000
0000
,
0000
0000
0000
0033
,
0000
0000
0000
0000
;
#NOTES:
     dance-double:
     :
     Easy:
     7:
     :
00000000
00000000
00000000
00000000
,
00000000
00000000
00000000
00000000
,
00000000
00000000
00000000
00000000
,
00000000
00000000
00000000
00000000
,
00000000
00000000
00000000
00000000
,
00000000
00000000
00000000
00000000
,
00000000
00000000
00000000
00000000
,
00000000
00000000
00000000
00000000
,
00000000
00000000
00000000
00000000
,
10000000
10000000
00000000
00010000
,
00010000
00000000
00000000
00000000
,
00001000
00001000
00000000
00000001
,
00000001
00000000
00000000
00000000
,
00000001
00001000
00000000
00000010
,
00010000
00000000
00000000
00000000
,
00001000
01000000
00000000
00010000
,
10000000
00100000
10000000
00010000
,
10000000
00100000
01000000
00100000
,
00020000
00030000
00002000
00003000
,
00001000
00000010
00000100
00000010
,
00000002
00000003
00002000
00003000
,
00000100
00010000
00001000
00000000
,
00010000
00001000
00010000
01000000
,
10000000
01000000
00100000
00000000
,
00010000
10000000
01000000
00010000
,
00001000
00010000
00001000
00000000
,
00001000
00010000
00001000
00000010
,
00000001
00000010
00000100
00000000
,
00001000
00000001
00000010
00001000
,
00010000
00001000
00010000
00000000
,
00001000
00010000
00001000
00000100
,
00000001
00000100
00000010
00000000
,
00001000
00000001
00000100
00001000
,
00010000
00001000
00010000
00000000
,
00010000
00001000
00010000
00100000
,
10000000
00100000
01000000
00000000
,
00010000
10000000
00100000
00010000
,
00001000
00010000
00001000
00000000
,
00010000
00000000
00000000
00000000
,
00001000
00000100
00000001
00000010
,
00000001
00000000
00000000
00000000
,
00000100
00001000
00010000
00100000
,
00010000
00000000
00000000
00000000
,
00001000
00010000
01000000
10000000
,
01000000
00010000
01000000
10000000
,
01000000
00000000
00000000
00000000
,
10000000
00000000
00000000
00000000
,
00010000
00010000
01000000
00010000
,
10000000
00000000
00000000
00000000
,
01000000
00010000
00001000
00000010
,
00001000
00000000
00000000
00000000
,
00010000
00001000
00000100
00000001
,
00000100
00001000
00000100
00000001
,
00000010
00001000
00010000
00001000
,
00010000
00010000
00100000
01000000
,
00010000
01000000
00100000
00000000
,
10000000
01000000
20000000
00000000
,
30020000
00000000
00000000
00030000
,
00100000
00001000
00020000
00030000
,
00000100
00001000
00000010
00000000
,
00001000
00000100
00000100
00000000
,
00010000
00010000
00001000
00001000
,
00010000
00100000
01000000
00000000
,
00100000
10000000
00100000
00010000
,
00001000
00010000
00001000
00010000
,
00100000
00010000
00001000
00000100
,
00001000
00000000
00000000
00000000
,
00000200
00000000
00000300
00000000
,
00000001
00000001
00000000
00000000
,
00000200
00000000
00000000
00000300
,
00001000
00010000
00000000
01000000
,
10000000
00000000
00000000
00000000
,
00010000
00100000
10000000
01000000
,
10000000
00000000
00000000
00000000
,
01000000
00000000
00000000
00000000
,
00010000
00010000
00001000
00001000
,
00000100
00000001
00000001
00000000
,
00000001
00000010
00000100
00000010
,
00001000
00000000
00010000
00001000
,
00010000
00100000
10000000
01000000
,
10000000
00000000
00000000
00000000
,
10000000
00100000
00010000
00000000
,
00001000
00000000
00010000
00000000
,
00001000
00000100
00000001
00000010
,
00000001
00000000
00000100
00000000
,
00001000
00010000
00100000
00010000
,
00001000
00010000
01000000
00000000
,
10000000
00010000
00100000
00000000
,
00001000
00000000
00001000
00000000
,
00010000
00010000
00001000
00001000
,
00000100
00000001
00000001
00000000
,
00000001
00000010
00000100
00000010
,
00001000
00000000
00010000
00001000
,
00010000
00100000
10000000
01000000
,
10000000
00000000
00000000
00000000
,
10000000
01000000
00010000
00001000
,
00000100
00000000
00000001
00000000
,
00001000
00000001
00000100
00000001
,
00000100
00000000
00001000
00000000
,
00010000
00010000
00100000
10000000
,
10000000
00000000
01000000
00000000
,
10000000
00100000
00100000
00010000
,
00001000
00000100
00000001
00000110
,
00000000
00002000
00000002
00000000
,
00000000
00000000
00000000
00003003
,
00000000
00000000
00000000
00000000
;
#NOTES:
     dance-double:
     :
     Medium:
     11:
     :
00000000
00000000
00000000
00000000
,
00000000
00000000
00000000
00000000
,
00000000
00000000
00000000
00000000
,
00000000
00000000
00000000
00000000
,
00000000
00000000
00000000
00000000
,
00000000
00001000
00001000
00001000
,
00010000
00011000
00000000
00000000
,
00000000
00010000
00001000
00000100
,
00000001
00000100
00000010
00000100
,
00001000
00010000
00001000
00000000
00000000
00010000
00000000
00200000
,
00000000
01000000
01000000
01300000
,
10000000
00100000
10000000
00000000
00000000
00010000
00000000
00020000
,
00000000
01000000
01000000
01030000
,
00001000
00010000
00001000
00000000
00000000
00010000
00000000
00002000
,
00000000
00000000
00000010
00003010
,
00000010
00000100
00000010
00000000
00000000
00000001
00000000
00000000
,
00000100
00001000
00010000
01000000
,
10000000
00000000
01000000
00000000
00010000
00100000
00000000
00020000
,
00000000
01030000
20000000
31000000
,
10000000
00000000
01000000
00000000
00010000
00001000
00000000
00020000
,
00000000
00031000
00020000
00030100
,
00000000
00002000
00000000
00000020
00000000
00000000
00003030
00000000
,
00010000
00001000
00100000
00010000
,
10000000
11000000
01000000
00100000
,
00010000
01000000
10000000
01000000
,
00010000
00100000
00010000
00000000
01000000
00000000
00001000
00000000
,
00010000
00001000
00000100
00000001
,
00000010
00000100
00000001
00000100
,
00010000
00001000
00010000
00001000
00000000
00010000
00000000
00000000
,
00001000
00010000
01000000
00010000
,
00001000
00010000
00000010
00001000
,
00000001
00000101
00000100
00000010
,
00001000
00000100
00000001
00000100
,
00001000
00000010
00001000
00000000
00000100
00000000
00010000
00000000
,
00001000
00010000
01000000
10000000
,
00100000
01000000
10000000
01000000
,
00001000
00010000
00001000
00010000
00001000
00010000
00001000
00000000
,
00001000
00000000
00000100
00000000
00000001
00000100
00000001
00000000
,
00002000
00000001
00000001
00000001
,
00000100
00000100
00000100
00003100
,
00020000
01000000
01000000
01000000
,
00001000
00001000
00001000
00031000
,
00002000
00000100
00000100
00000100
,
00010000
00010000
00010000
00013000
,
00000000
00011000
00000000
00000000
01100000
00000000
00000000
11000000
,
00000000
00000000
00000000
00000000
,
00100000
10000000
01000000
00110000
,
00100000
00000000
00001000
00010000
00001000
00000000
00000100
00000000
,
00000001
00000001
00000010
00000110
,
00000010
00000000
00000001
00001000
00000010
00000000
00010000
00000000
,
00002000
00010000
01000000
00010000
,
01000000
00010000
01000000
00013000
,
00000000
00011000
00000000
00000000
00000110
00000000
00000000
00000011
,
00000000
00000000
00000001
00000100
00000001
00000100
00000001
00000000
,
00000010
00000000
00001000
00000000
00010000
00000000
00001000
00010000
,
00001000
00000000
00100000
00000000
00010000
00000000
10000000
01000000
,
10000000
00010000
20000000
01000000
,
30020000
00000000
00000000
00000000
00030000
00000000
00000000
00000010
,
00000100
00000000
00001000
00000020
00000000
00000000
00000030
00000000
,
00001000
00000001
00001000
00000000
00000100
00010000
00000100
00000000
,
00010000
00001000
00100000
00010000
,
00100000
00010000
01000000
10100000
,
01000000
00000000
00001000
00010000
00001000
00000000
00010000
00000000
,
00000100
00001000
00000010
00000101
,
00000010
00000000
00000010
00000001
00000010
00000000
00001000
00000000
,
00000000
00010000
00000000
00000000
00001000
00000000
00010000
01000000
,
00000000
00000000
00000000
10000000
,
01000000
00000000
00000000
00010000
00000000
00000000
00000000
00001000
,
00000000
00000100
00000001
00000000
00000000
00000000
00000000
00000000
,
00000001
00000000
00000000
00000000
00000000
00000000
00000000
00000100
,
00000000
00001000
00000000
00000000
00000000
00000000
00010000
00000000
,
00100000
00000000
00000000
10000000
00000000
00000000
00000000
00010000
,
00000000
00100000
01000000
00000000
10000000
00000000
01000000
00000000
,
10000000
00000000
00010000
00100000
00000000
00010000
00000000
20000000
,
00000000
00000000
30000000
00000000
,
10000000
00100000
00010000
00001000
,
00010000
00000000
00000010
00000000
00010000
00001000
00010000
00000000
,
00001000
01000000
00001000
00010000
,
00001000
00000010
00001000
00010000
,
00001000
00000000
00010000
01000000
00000000
10000000
00000000
01000000
,
00000000
00010000
00000000
00001000
00000000
00000000
00010000
00000000
,
00001000
00001100
00001000
00000001
,
00000100
00000001
00000100
00000000
00001000
00000000
00010000
00000000
,
01000000
00000000
10000000
00100000
00000000
00100000
00000000
01000000
,
00100000
10000000
01000000
00010000
,
00001000
00000000
00010000
00000010
00010000
00000000
00001000
00000000
,
00010000
00001000
00000100
00000100
,
00000001
00000000
00000001
00000010
00000000
00000001
00000000
00002000
,
00000000
00000100
00003100
00000001
,
00000001
00000010
00001000
00010000
,
00001000
00000000
00100000
00000000
00001000
00010000
00001000
00000000
,
00010000
00000100
00010000
00001000
,
00010000
00100000
00010000
00001000
,
00010000
00000000
00001000
00000100
00000000
00000001
00000000
00000001
,
00000000
00000100
00000000
00000001
00000000
00000000
00000000
00000000
,
00000001
00001001
00000100
00010000
,
00001000
00000000
01000000
00000000
,
00010000
00000000
10000000
01000000
10000000
00000000
00100000
00000000
,
10000000
00000000
01000000
00000000
,
10000000
10010000
01000000
00001000
,
00010000
00000000
00001000
00000000
,
00000100
00000010
00000100
00000010
00000100
00000000
00000001
00000000
,
00001000
00000000
00000000
00000100
00000000
00000000
00010000
00000000
,
00000000
00000000
00010000
00000000
00200000
20000000
00000000
00000000
,
00000000
00000000
00000000
30300000
,
00000000
00000000
00000000
00000000
;
#NOTES:
     dance-double:
     :
     Hard:
     13:
     :
00000000
00000000
00000000
00000000
,
00000000
00000000
00000000
00000000
,
00000000
00000000
00000000
00000000
,
00000000
00000000
00000000
00000000
,
00000000
00000000
00000000
00000000
,
00000000
00010000
00001000
00010000
,
00011000
00110000
00000000
00000000
,
00000000
00000000
10000000
01000000
00100000
00010000
01000000
00000000
,
10000000
11000000
10000000
01000000
,
00010000
00001000
00010000
00000000
00000000
00001100
00000000
00002100
,
00000000
00000100
00000100
00003100
,
00000001
00000010
00000001
00000000
00000000
00001100
00000000
00002100
,
00000000
00000100
00000100
00003100
,
00001000
00010000
00001000
00000000
00000000
01100000
00000000
00120000
,
00000000
00000000
00100000
00130000
,
00100000
01000000
00100000
00000000
00000000
00010000
00000000
01000000
,
00000000
00001000
00010000
00001000
00000100
00000010
00001000
00000000
,
00000001
00000010
00000001
00000100
00000001
00000010
00000000
00000002
,
00000000
00000103
00002000
00013000
,
01000000
00100000
00010000
01000000
00010000
00100000
00000000
00002000
,
00000000
00013000
00002000
00003100
,
00000000
00000011
00000000
00002020
00000000
00000000
00003030
00000000
,
00000010
00010000
00001000
00010000
,
00100000
01000000
10000000
01000000
00100000
10000000
00100000
01000000
,
00001000
00010000
00001000
00000100
,
00000001
00000010
00000001
00000100
00000010
00001000
00000100
00001000
,
00000001
00000100
00001000
00010000
,
00100000
00000000
01000000
00000000
00010000
00100000
00010000
01000000
,
00010000
00100000
00010000
10000000
00000000
01000000
00000000
00000000
,
00010000
00001000
00010000
00000100
00010000
00001000
00010000
00000000
,
00010000
00001000
00010000
00001000
,
00000010
00000100
00000001
00000100
00000010
00000001
00000010
00000100
,
00010000
00001000
00010000
01000000
,
10000000
00100000
10000000
01000000
00100000
00010000
01000000
00010000
,
10000000
01000000
00010000
00001000
,
00000010
00000000
00000100
00000000
00001000
00000010
00001000
00000100
,
00001000
00000010
00001000
00000001
00000000
00000100
00000000
00000000
,
00001000
00010000
00001000
01000000
00010000
10000000
00100000
00000000
,
00020000
00001000
01000000
00001000
,
01000000
00001000
01000000
00031000
,
00002000
00000100
00010000
00000100
,
00010000
00000100
00010000
00003100
,
00000020
00000001
00000100
00000001
,
00000100
00000001
00000100
00000031
,
00000100
00001000
00000000
00010000
01000000
00000000
10000000
11000000
,
00000000
00000000
00000000
00000000
,
10000000
01000000
00010000
00001000
,
00000100
00000010
00000001
00000010
,
00010000
00001000
00010000
00000100
,
00010000
00001000
00100000
00010000
,
00100000
00001000
01000000
10000000
,
01000000
00001000
01000000
10000000
,
00010000
01000000
00000000
01000000
00010000
00000000
00010000
00001000
,
00000000
00000000
00001000
00000100
00001000
00000010
00000100
00000001
,
00000010
00000001
00000010
00000001
00000010
00000100
00010000
00001000
,
00010000
01000000
00100000
00010000
00100000
00010000
10000000
01000000
,
10000000
01000000
10000000
00010000
02000000
00000000
00000000
00000000
,
03002000
00000000
00000000
00000000
00000000
00000000
00003000
00010000
,
00001000
00000000
00000100
00000020
00000000
00000000
00000030
00000000
,
00000001
00000010
00000100
00001000
00000001
00000100
00000010
00010000
,
00000010
00010000
00001000
00100000
00001000
00100000
00010000
00000000
,
00110000
10100000
11000000
01100000
,
00110000
00011000
00001100
00000101
,
00000011
00000110
00001100
00011000
,
00110000
10100000
11000000
01100000
,
10000000
01000000
00000000
01000000
00100000
00000000
00100000
00001000
,
00000000
00000000
00000000
00000100
,
00000001
00000000
00000000
00000010
00000000
00000000
00000000
00000001
,
00000000
00000010
00001000
00000000
00010000
00000000
01000000
00000000
,
10000000
00000000
00010000
00100000
00000000
00010000
00000000
00100000
,
00000000
11000000
00000000
00000000
00000000
00000000
10000000
00000000
,
00010000
00000000
00000000
00100000
00000000
00000000
00000000
00001000
,
00000000
00010000
00000100
00000000
00001000
00000000
00000100
00000000
,
00000010
00000000
00000100
00000001
00000000
00000100
00000000
00002000
,
00000100
00000000
00000100
00000000
00003100
00000000
00000000
00010000
,
00001000
00010000
00100000
00010000
,
00001000
00000000
00010000
00000000
00100000
10000000
01000000
00000000
,
11000000
01100000
01001000
00011000
,
00010100
00001100
00000110
00001001
,
00000001
00000000
00001000
00000010
00000000
00000100
00000000
00001000
,
00000000
00010000
00000000
00001000
00000100
00001000
00010000
00000000
,
00001000
00000000
00010000
00100000
01000000
00000000
00010000
01000000
,
00000000
00100000
01000000
00000000
00010000
00000000
01000000
00000000
,
10000000
00000000
01000000
00100000
00000000
00010000
00000000
00001000
,
00000100
00000001
00001000
00000010
00000100
00000001
00001000
00000000
,
00000001
00000000
00000100
00001000
00010000
00000000
00001000
00010000
,
00000000
00100000
01000000
00000000
00010000
00000000
01000000
00000000
,
10000000
00000000
01000000
00100000
00000000
10000000
00000000
00020000
,
01000000
00000000
01000000
00000000
01030000
00000000
00000000
00001000
,
00010000
00001000
00000010
00001000
,
00010000
00000000
00001000
00000000
00000010
00000001
00000100
00000000
,
00000101
00000110
00010100
00011000
,
01001000
01010000
01100000
10010000
,
10000000
00000000
00010000
00100000
00000000
01000000
00000000
00010000
,
00000000
00001000
00000000
00010000
01000000
00010000
00001000
00000000
,
00000100
00000000
00000001
00000010
00000000
00000001
00000000
00000100
,
00001000
00000000
00000000
00011000
00000000
00000000
00010000
00000000
,
01000000
00000000
10000000
00100000
00000000
10000000
00000000
01000000
,
00010000
00000000
00000000
00011000
00000000
00000000
00001000
00000000
,
00010000
00001000
00000100
00000010
00000000
00000001
00000000
00000010
,
00001000
00000000
00000000
00001100
00000000
00000000
00011000
00000000
,
00010000
00100000
10000000
00100000
01000000
10000000
01000000
00010000
,
01000000
00001000
00000000
00010000
00000000
00000000
00001100
00000000
,
00000000
00000000
00001000
00000000
00000200
00000002
00000000
00000000
,
00000000
00000000
00000000
00000303
,
00000000
00000000
00000000
00000000
;
