
//----- song id: setu
#TITLE:セツナトリップ;
#ARTIST:Last Note. feat. GUMI;
#TITLETRANSLIT:Setsuna Trip;
#BANNER:Setsuna Trip.png;
#BACKGROUND:Setsuna Trip-bg.png;
#CDTITLE:./CDTitles/DDR (2014).png;
#MUSIC:Setsuna Trip.ogg;
#SAMPLESTART:41.172;
#SAMPLELENGTH:15;
#BPMS:0=145;
#NOTES:
     dance-single:
     :
     Beginner:
     1:
     :
0000
0000
0000
0000
,
0000
0000
0000
0000
,
0000
0000
0000
0000
,
0000
0000
0000
0000
,
0000
0000
0000
0000
,
0001
0000
0001
0000
,
0001
0000
0000
0000
,
1000
0000
1000
0000
,
1000
0000
0000
0000
,
0001
0000
0000
0000
,
0100
0000
0000
0000
,
1000
0000
0000
0000
,
1000
0000
1000
0000
,
1000
0000
0000
0000
,
0001
0000
0000
0000
,
1000
0000
0000
0000
,
0100
0000
0000
0000
,
0002
0000
0000
0000
,
0003
0000
0000
0000
,
2000
0000
0000
0000
,
3000
0000
0000
0000
,
0100
0000
0100
0000
,
0100
0000
0000
0000
,
0100
0000
0100
0000
,
0100
0000
0000
0000
,
0001
0000
0001
0000
,
0001
0001
0001
0000
,
0001
0000
0001
0000
,
0001
0001
0001
0000
,
1000
0000
1000
0000
,
1000
1000
1000
0000
,
1000
0000
1000
0000
,
1000
1000
1000
0000
,
0001
0000
0000
0000
,
1000
0000
0000
0000
,
0010
0000
0000
0000
,
0100
0000
0000
0000
,
0001
0000
0001
0000
,
0001
0000
0000
0000
,
1000
0000
1000
0000
,
1000
0000
0000
0000
,
0001
0000
0001
0000
,
0001
0000
0000
0000
,
0100
0000
0100
0000
,
0100
0000
0000
0000
,
1000
0000
1000
0000
,
1000
0000
0000
0000
,
0100
0000
0100
0000
,
0100
0000
0000
0000
,
0001
0000
0001
0000
,
0001
0001
0001
0000
,
0001
0000
0001
0000
,
0001
0001
0001
0000
,
1000
0000
1000
0000
,
1000
1000
1000
0000
,
1000
0000
1000
0000
,
1000
1000
1000
0000
,
0010
0000
0010
0000
,
0010
0000
0000
0000
,
0001
0000
0001
0000
,
0001
0000
0000
0000
,
1000
0000
1000
0000
,
1000
0000
0000
0000
,
0100
0000
0100
0000
,
0100
0000
0000
0000
,
0010
0000
0010
0000
,
0010
0000
0000
0000
,
1001
0000
0000
0000
,
0000
0000
0000
0000
;
#NOTES:
     dance-single:
     :
     Easy:
     4:
     :
0000
0000
0000
0000
,
0000
0000
0000
0000
,
0000
0000
0000
0000
,
0000
0000
0000
0000
,
0000
0000
0000
0000
,
1000
0000
1000
0000
,
0100
0000
0100
0000
,
0001
0000
0001
0000
,
0100
0100
0100
0000
,
0001
0000
0001
0000
,
0100
0100
0001
0000
,
1000
0000
1000
0000
,
0100
0100
1000
0000
,
0001
0000
0001
0000
,
0001
1000
0001
0000
,
0100
0000
0100
0000
,
1000
0001
1000
0000
,
0020
0000
0030
0000
,
2000
0000
3000
0000
,
0200
0000
0300
0000
,
0002
0000
0003
0000
,
0010
0000
0010
0000
,
1000
0000
0001
0000
,
1000
1000
1000
0000
,
1001
0000
0000
0000
,
0001
0000
1000
0000
,
0001
0100
1000
0000
,
1000
1000
1000
0000
,
0001
0001
0001
0000
,
1000
0000
0001
0000
,
1000
0100
0001
0000
,
0001
0001
0001
0000
,
1000
1000
1000
0000
,
1001
0000
0000
0000
,
0110
0000
0000
0000
,
1001
0000
0000
0000
,
0010
0010
0010
0000
,
1000
1000
0100
0000
,
0001
0001
0100
0000
,
1000
0001
1000
0000
,
0020
0000
0000
0030
,
1000
0000
0100
0000
,
0010
0001
0010
0000
,
0001
0001
0001
0000
,
1000
0001
1000
0000
,
0100
0100
0001
0000
,
0100
0100
1000
0000
,
0010
0010
0010
0010
,
0020
0000
0000
0030
,
0000
1001
0000
1001
,
0001
0100
1000
0000
,
0001
0001
1000
0000
,
0010
0010
0100
0000
,
1000
0000
0001
0000
,
1000
0100
0001
0000
,
0010
0010
0100
0100
,
0010
0000
0100
0000
,
0001
1000
0001
1000
,
2002
0000
0000
3003
,
0100
0100
0100
0000
,
1000
1000
0001
0000
,
0010
1000
0010
0000
,
0100
0100
0100
0000
,
1000
1000
0100
0000
,
0001
0001
0100
0000
,
0010
0010
0100
0100
,
0010
0000
0100
0000
,
1001
0000
0000
0000
,
0000
0000
0000
0000
;
#NOTES:
     dance-single:
     :
     Medium:
     10:
     :
0000
0000
0000
0000
,
0000
0000
0000
0000
,
0000
0000
0000
0000
,
0000
0000
0000
0000
,
0000
0000
0000
0000
,
1000
0000
0001
0100
0001
0100
0001
0000
,
0010
0000
0100
1000
0100
1000
0100
0000
,
1000
0000
0001
1000
0001
1000
0001
0000
,
0001
0010
0100
1000
0100
0000
0010
0000
,
0001
0100
0010
1000
,
0100
0000
0001
0000
0010
0001
1000
0000
,
0001
0100
0010
1000
,
0001
0010
0001
0000
1000
0100
1000
0000
,
0001
0001
1000
0001
1000
0001
1000
0000
,
0100
1000
0010
0001
,
1000
0000
0001
0010
0100
0000
1000
0000
,
0010
0100
0001
0000
0101
0000
0000
0000
,
2000
0000
0000
3001
1001
0000
0100
0000
,
0020
0000
0000
1030
1010
0000
0100
0000
,
0002
0000
0000
1003
1001
0000
0100
0000
,
0010
0000
0100
0000
0001
0010
0100
1000
,
0001
0000
0001
0000
0100
1000
0100
0000
,
1000
0000
1000
0000
0010
0001
0010
0000
,
0002
0103
2000
3010
,
2002
0000
0000
3003
0000
0000
0000
1000
,
0010
0000
0000
1000
0000
0000
0001
0000
0010
0000
0000
0001
0000
0000
0010
0000
,
0000
0010
0100
0010
0100
0010
0100
0000
,
1100
1001
0101
1001
,
1000
0001
0010
0001
1000
0000
0000
0001
,
1000
0000
0000
1000
0000
0000
0100
0000
0010
0000
0000
0010
0000
0000
0100
0000
,
0000
0100
0010
0100
0010
0100
0010
0000
,
0011
0101
1100
1010
,
0001
1000
0100
0000
0120
0000
0130
0000
,
1100
0000
0000
0000
0000
0000
0000
0000
0000
0000
0000
0000
0000
1000
0000
0001
,
1000
0000
0000
0000
0000
0000
0000
0000
0000
0000
0000
0000
0000
0010
0000
0100
,
0010
0000
0000
0000
0000
0000
0000
0000
0000
0000
0000
0000
0000
0001
0000
1000
,
0001
0000
0010
0000
1000
0100
0010
0000
,
0001
0100
0100
0100
0001
0100
0010
0000
,
1000
0010
0010
0010
1000
0010
0100
0000
,
0001
1000
0001
0001
1000
1000
0001
0000
,
0010
0100
1001
0000
,
0001
0000
1000
0100
1000
0000
0001
0000
,
1000
0001
0100
1000
0100
0000
0010
0000
,
0100
0000
0001
1000
0001
0000
0010
0000
,
0100
1000
0001
0100
0010
0000
0100
0000
,
1000
1100
0100
0101
,
0001
0000
0011
0000
0010
1000
0100
0000
,
0001
0101
0110
1100
,
1001
0010
0200
0000
,
0300
0000
0000
0000
1001
0000
0001
0000
0100
0000
0000
0110
0000
0000
0010
0000
,
0000
0010
1000
0001
1000
0001
0010
0000
,
0011
1100
1010
0101
,
0001
0100
0010
1000
0001
0000
0100
0100
,
0010
0000
0000
1001
0000
0000
0010
0000
0100
0000
0000
1001
0000
0000
0100
0000
,
0000
0001
0100
0010
0100
1000
0100
0000
,
0110
1001
0110
1001
,
0010
0001
0100
0010
1000
0000
1000
0001
,
1000
0100
0001
0100
1000
0100
0001
0100
,
0020
0000
0130
0010
,
0011
0000
1000
0100
1000
0100
1000
0000
,
0010
0000
1000
0000
0001
0100
1000
0000
,
0101
0000
0010
0100
0010
0100
0010
0000
,
1000
0000
0001
0100
1000
0000
0100
0000
,
0001
0010
0001
0100
0001
1000
0001
0010
,
0001
0100
0001
0100
0001
0000
0010
0000
,
1000
0100
0010
0001
1000
0010
0100
0001
,
1000
0000
0000
0100
0000
0000
0001
0000
0000
0100
0000
0000
0010
0000
0000
0000
,
1001
0000
0000
0000
,
0000
0000
0000
0000
;
#NOTES:
     dance-single:
     :
     Hard:
     14:
     :
0000
0000
0000
0000
,
0000
0000
0000
0000
,
0000
0000
0000
0000
,
0000
0000
0000
0000
,
0000
0000
0000
0000
,
0001
0100
0000
0010
1000
0000
0001
0000
1000
0000
0100
0000
0010
0000
0001
0000
,
1000
0010
0000
1000
0001
1000
0001
0000
1000
0000
0010
0000
0100
0000
0001
0000
,
1000
0010
0000
0100
0001
0000
1000
0000
0001
0000
0010
0000
0100
0000
1000
0000
,
0010
0010
0010
0010
0110
0000
0000
0000
,
1000
0000
0000
0000
0001
0000
0010
0001
0000
1000
0010
0000
0100
0000
0001
0100
,
0001
0000
0000
0000
1000
0000
0010
1000
0000
0001
0010
0000
0100
0000
1000
0100
,
1000
0000
0000
0000
0010
0000
0100
0001
0000
1000
0100
0000
0010
0000
0001
0010
,
0001
0000
0000
0000
1000
0000
0100
1000
0000
0001
0100
0000
0010
0000
1000
0000
,
0001
0100
1000
0100
0001
0100
1000
0100
,
0001
0010
0100
0000
0001
0100
0010
0000
,
1000
0000
0100
0000
1000
0000
0001
1000
0000
0010
0100
0000
0001
0000
1000
0100
,
1000
0001
1000
0010
1000
0000
0001
0000
,
0201
0000
0000
0000
0310
0000
0010
0100
0001
0000
0000
0000
1000
0000
0000
0000
,
1200
0000
0000
0000
0310
0000
0010
0001
1000
0000
0000
0000
0010
0000
0000
0000
,
0201
0000
0000
0000
0310
0000
0010
1000
0001
0000
0000
0000
0010
0000
0000
0000
,
0110
0100
0010
0000
0001
1000
0001
1000
,
0001
0000
0100
0000
0010
0000
1000
0010
0000
0010
1000
0000
0001
0000
1000
0000
,
0001
0000
0010
0000
0100
0000
0010
0001
0000
0001
0010
0000
0001
0000
0100
0000
,
1000
1000
0100
0000
0001
0001
0100
0100
,
2002
0000
0000
0000
0000
0000
0000
0000
0000
0000
0000
0000
3003
0000
0100
0010
,
0001
0000
0001
0100
0000
0000
0100
0010
1000
0000
1000
0100
0000
0000
0100
0000
,
0001
0000
0100
0000
1000
0000
0010
0000
0001
0000
0010
0000
1000
0000
0001
1000
,
0100
0000
1000
0001
0100
0000
0001
1000
0100
0000
1000
0001
0100
0000
0010
0000
,
1000
0000
0001
0000
1000
0000
0100
0010
0000
0000
0010
0000
0001
0000
0010
0100
,
1000
0000
0001
1000
0000
0000
1000
0010
0100
0000
0001
1000
0000
0000
0010
0000
,
0001
0000
0010
0000
1000
0000
0100
0000
0001
0000
0100
0000
1000
0000
0010
1000
,
0001
0000
0010
0001
1000
0000
0010
1000
0001
0000
0010
0001
1000
0000
0010
0000
,
0100
0000
0010
0000
1000
0001
1000
0001
0020
0000
0000
0000
0030
0000
0000
0000
,
0110
0000
1000
0000
1000
0100
0000
0010
0000
0001
0000
0100
0000
0010
0000
0010
,
0100
0000
0001
0000
1000
0010
1000
0001
0000
0010
0000
1000
0000
0010
0000
0010
,
0001
0000
1000
0001
1000
0100
0000
0010
0000
0001
0000
0100
0000
0010
0000
0010
,
1000
0000
0010
0100
0010
1000
0000
0001
0000
0100
0000
0010
1000
0000
0001
1000
,
0100
0000
1000
0000
1000
0000
0100
1000
0000
0001
0100
0001
0100
0000
0001
0000
,
0010
0000
0001
0000
0001
0000
0010
0001
0000
1000
0010
1000
0010
0000
0100
0000
,
0001
0000
1000
0001
1000
0000
0001
0100
0000
0010
1000
0000
0001
0000
0010
0000
,
0100
1000
1001
0000
,
0010
0001
0100
0001
0020
0000
0130
1000
,
0010
0001
0010
0001
1000
0100
0001
0100
,
0020
0000
0000
0000
1030
0000
0100
0000
0020
0000
0000
0000
0031
1000
0001
1000
,
0010
0000
0001
0000
0010
0000
0000
0110
0000
0000
1000
0000
0010
0000
0100
0000
,
0001
0001
0010
0100
1000
1000
0010
0100
,
0001
0001
0010
1000
0001
0001
0100
1000
,
0010
0010
0100
0100
0001
0001
1000
1000
,
0020
0000
0000
0000
,
0130
0000
0000
0000
1001
0000
0100
1000
0001
0000
0100
0010
0000
0000
1000
0000
,
0001
0000
0100
0000
1000
0000
0001
0000
0010
0000
1000
0000
0100
0000
0001
0100
,
1000
0000
1000
0100
0001
0000
0001
0100
1000
0000
1000
0100
0001
0000
0100
0000
,
1000
0000
0001
0000
1000
0000
0010
0100
0000
0000
0100
0000
0001
0000
0010
0001
,
0100
0000
0100
0010
0000
0000
0010
1000
0100
0000
0100
0010
0000
0000
0001
0000
,
0100
0000
1000
0000
0001
0000
0010
0000
1000
0000
0100
0000
0010
0000
0001
0100
,
1000
0000
1000
0100
0001
0000
0001
0010
1000
0000
1000
0010
0001
0000
1000
0000
,
0001
0000
0010
0000
0100
1000
0100
1000
0020
0000
0000
0000
0130
0000
0001
0100
,
1000
0000
1000
0100
0001
0000
1000
0100
0001
0000
0001
0100
1000
0000
0001
0000
,
0020
0000
0130
1001
,
1000
0100
0000
0010
0001
0000
1000
0000
0001
0100
0010
0000
1000
0000
0100
0000
,
0010
0001
0000
0001
1000
0001
1000
0000
0001
0000
0100
0000
0010
0000
1000
0000
,
0001
0010
0000
0100
1000
0000
0001
0000
1000
0100
0010
0000
0001
0000
1000
0000
,
0001
0100
1000
0010
1000
0100
0001
1000
,
0001
1000
0100
0000
1000
0000
0010
0000
1000
0001
0100
0000
0010
0000
1000
0000
,
0001
0010
0100
0000
1000
0000
0010
0000
0100
0001
0010
0000
0100
0000
1000
0000
,
0010
0100
0010
0000
1000
0010
1000
0000
0001
1000
0001
1000
0010
0000
0100
0000
,
0101
0000
0000
1100
0000
0000
1001
0000
0000
0100
0000
0000
0110
0000
0000
0000
,
1001
0000
0000
0000
,
0000
0000
0000
0000
;
#NOTES:
     dance-double:
     :
     Easy:
     4:
     :
00000000
00000000
00000000
00000000
,
00000000
00000000
00000000
00000000
,
00000000
00000000
00000000
00000000
,
00000000
00000000
00000000
00000000
,
00000000
00000000
00000000
00000000
,
00010000
00010000
00010000
00000000
,
00001000
00001000
00001000
00000000
,
00000100
00000100
00000100
00000000
,
00000001
00001000
00000001
00000000
,
00000010
00000000
00000010
00000000
,
00000010
00001000
00000010
00000000
,
00001000
00000000
00001000
00000000
,
00001000
00010000
00001000
00000000
,
00010000
00000000
00010000
00000000
,
00010000
00100000
00010000
00000000
,
01000000
00000000
01000000
00000000
,
01000000
00100000
01000000
00000000
,
20000000
00000000
30000000
00000000
,
00020000
00000000
00030000
00000000
,
00200000
00000000
00300000
00000000
,
00002000
00000000
00003000
00000000
,
00010000
00000000
00001000
00000000
,
00010000
00000000
00001000
00000000
,
00000100
00000000
00000010
00000000
,
00000110
00000000
00000000
00000000
,
00000001
00000000
00000001
00000000
,
00001000
00000100
00001000
00000000
,
00010000
00000000
00001000
00000000
,
00010000
00010000
00010000
00000000
,
10000000
00000000
10000000
00000000
,
00010000
01000000
00010000
00000000
,
00001000
00000000
00010000
00000000
,
00001000
00001000
00001000
00000000
,
00000100
00000000
00000000
00000000
,
00011000
00000000
00000000
00000000
,
01000000
00000000
00000000
00000000
,
00011000
00000000
00000000
00000000
,
00001000
00001000
00000100
00000000
,
00000100
00000100
00000001
00000000
,
00000001
00000001
00000010
00000000
,
00001000
00000000
00011000
00000000
,
00100000
00000000
00100000
00000000
,
10000000
01000000
10000000
00000000
,
00010000
00000000
00010000
00000000
,
00001000
00010000
00001000
00000000
,
00000010
00000010
00000100
00000000
,
00000001
00000001
00000010
00000000
,
00001000
00001000
00010000
00000000
,
00022000
00000000
00000000
00033000
,
00000000
00100000
00100000
00000000
,
10000000
00010000
10000000
00000000
,
01000000
00000000
00010000
00000000
,
00001000
00010000
00001000
00000000
,
00000010
00000000
00000001
00000000
,
00001000
00001000
00001000
00000000
,
00010000
00000000
00001000
00000000
,
00010000
00010000
00010000
00000000
,
01000000
00000000
10000000
00000000
,
00200000
00000000
00000000
00300000
,
00010000
00010000
00001000
00001000
,
00010000
00000000
00000010
00000000
,
00000100
00000100
00000001
00000001
,
00000010
00000000
00000100
00000000
,
00010000
00010000
00001000
00001000
,
00100000
00000000
00010000
00000000
,
10000000
10000000
00010000
00010000
,
01000000
00100000
01000000
00000000
,
00011000
00000000
00000000
00000000
,
00000000
00000000
00000000
00000000
;
#NOTES:
     dance-double:
     :
     Medium:
     10:
     :
00000000
00000000
00000000
00000000
,
00000000
00000000
00000000
00000000
,
00000000
00000000
00000000
00000000
,
00000000
00000000
00000000
00000000
,
00000000
00000000
00000000
00000000
,
00000010
00000000
00010000
00000000
00001000
00000100
00000001
00000000
,
00001000
00000000
00000100
00000000
00000010
00001000
00010000
00000000
,
00100000
00000000
01000000
00000000
00001000
00010000
01000000
00000000
,
10000000
00010000
10000000
00010000
10000000
00000000
00000000
00000000
,
11000000
00000000
00010000
00000000
00001000
00010000
00001000
00000000
,
00000100
00000000
00000001
00000000
00000100
00001000
00010000
00000000
,
00011000
00000000
01000000
00000000
10000000
01000000
00010000
00000000
,
01000000
10000000
01000000
00000000
00100000
00010000
00001000
00000000
,
00000100
00000101
00000010
00001010
,
00010000
00100000
10000000
01000000
,
01100000
00000000
00010000
00001000
00000100
00000000
00000001
00000000
,
00001000
00000010
00000100
00000001
00001000
00000000
00000000
00000000
,
00001010
00000000
00000000
00011000
00000000
00000000
00120000
00000000
,
00001000
00000000
00100000
00000000
10030000
00000000
10000000
00010000
,
01010000
00000000
00000000
00011000
00000000
00000000
00001100
00000000
,
00000021
00000000
00000100
00000000
00000031
00000100
00000010
00001000
,
00000100
00000000
00010000
00001000
00000000
01000000
00010000
00100000
,
01000000
00000000
10000000
00100000
00000000
01000000
00010000
00100000
,
00010000
00001000
00000100
00000001
,
00000210
00000000
00000000
00000310
00000000
00000000
00000000
00000100
,
00001000
00000000
00000000
00010000
00000000
00000000
00000010
00000000
00001000
00000000
00000000
00010000
00000000
00000000
00000100
00000000
,
00000000
00000010
00001000
00010000
01000000
10000000
00010000
00000000
,
12000000
00000000
03010000
00000000
00001000
00010000
00000100
00000000
,
00000201
00000000
00001300
00000000
00001001
00000000
00000000
00000010
,
00010000
00000000
00000000
00001000
00000000
00000000
00000100
00000000
00010000
00000000
00000000
00001000
00000000
00000000
00000010
00000000
,
00000000
00000010
00000100
00001000
00010000
01000000
00100000
00000000
,
11000000
00110000
01001000
00010010
,
00001100
00000000
00000010
00000001
00002002
00000000
00003003
00000000
,
00000101
00000000
00000000
00000000
00000000
00000000
00000000
00000000
00000000
00000000
00000000
00000000
00000000
00001000
00000000
00000000
,
01010000
00000000
00000000
00000000
00000000
00000000
00000000
00000000
00000000
00000000
00000000
00000000
00000000
00100000
00000000
00000000
,
11000000
00000000
00000000
00000000
00000000
00000000
00000000
00000000
00000000
00000000
00000000
00000000
00000000
00010000
00000000
00000000
,
00002100
00000001
00000010
00013000
,
01000000
10000000
01000000
00000000
00010000
00000000
00001000
00000000
,
00000100
00000001
00000100
00000000
00001000
00000000
00010000
00000000
,
00100000
10000000
00100000
00000000
00010000
00000000
00001000
00000000
,
00000010
00000000
00000100
00000010
00000110
00000000
00000000
00000000
,
00000001
00000010
00000000
00000001
00000010
00000001
00000000
00000100
,
00000010
00000100
00000000
00000010
00001000
00000100
00000000
00000100
,
00010000
00001000
00000000
01000000
00001000
01000000
00010000
01000000
,
00100000
10000000
00000000
10000000
01000000
10000000
00010000
00000000
,
10000000
00100000
00000000
10000000
00100000
10000000
00000000
01000000
,
00100000
01000000
00000000
00100000
00001000
00010000
00000000
00001000
,
00010000
00001000
00000000
00010000
00000010
00001000
00000100
00000010
,
00000002
00001000
00000000
00002000
00000000
00000000
00000000
00000000
,
00003003
00000000
00000000
00000000
00000110
00000000
00000100
00000000
00001000
00000000
00000000
00010000
00000000
00000000
00011000
00000000
,
00000000
00010000
01000000
10000000
01000000
00010000
00001000
00000000
,
00000100
00001001
00000010
00011000
,
01000000
00000000
10010000
00000000
01100000
00000000
00000000
00001000
,
00010000
00000000
00000000
01000000
00000000
00000000
00001000
00000000
00010000
00000000
00000000
00100000
00000000
00000000
10000000
00000000
,
00000000
10000000
00100000
01000000
00010000
00001000
00010000
00000000
,
00011000
00001010
00011000
00110000
,
00012000
00000000
00003100
00000000
00000110
00000000
00000000
00000001
,
00001000
00000001
00001000
00000100
00000010
00000001
00000100
00001000
,
00020000
00000000
00000000
00130000
,
10000000
01000000
00010000
00000000
00001000
00000000
00000100
00000000
,
00000001
00000000
00000100
00000000
00001000
00000100
00000001
00000000
,
00000100
00001000
00010000
00000000
00000010
00000000
00001000
00000000
,
00010000
00000000
01000000
00000000
00010000
00100000
10000000
00000000
,
00100000
00010000
00000000
00001000
00010000
00001000
00000000
00001000
,
00000100
00000001
00000000
00000001
00000010
00000001
00000000
00000100
,
00001000
00010000
00001000
00010000
00001000
00100000
01000000
10000000
,
00100000
00000000
00000000
00100000
00000000
00000000
00100000
00000000
00000000
00010000
00000000
00000000
00001000
00000000
00000000
00000000
,
00011000
00000000
00000000
00000000
,
00000000
00000000
00000000
00000000
;
#NOTES:
     dance-double:
     :
     Hard:
     14:
     :
00000000
00000000
00000000
00000000
,
00000000
00000000
00000000
00000000
,
00000000
00000000
00000000
00000000
,
00000000
00000000
00000000
00000000
,
00000000
00000000
00000000
00000000
,
00000100
00001000
00000000
00000100
00000001
00000000
00000100
00000000
00001000
00000001
00000100
00000000
00001000
00000000
00010000
00000000
,
01000000
10000000
00000000
01000000
00010000
00000000
01000000
00000000
10000000
00010000
10000000
00000000
00100000
00000000
00010000
00000000
,
00001000
00000100
00000000
00000001
00000100
00000000
00001000
00000000
00000100
00000010
00000100
00000000
00000001
00000000
00001000
00000000
,
00000001
00000010
00001000
00010000
00011000
00000000
00100000
00000000
,
10000000
00000000
00000000
00000000
01000000
00000000
00100000
00010000
00000000
00010000
01000000
00000000
00100000
00000000
10000000
00000000
,
01000000
00000000
00000000
00000000
00100000
00000000
00010000
01000000
00000000
01000000
00001000
00000000
00010000
00000000
00000100
00000000
,
00001000
00000000
00000000
00000000
00000010
00000000
00000001
00000010
00000000
00000010
00001000
00000000
00000001
00000000
00001000
00000000
,
00000100
00000000
00000000
00000000
00000010
00000000
00001000
00010000
00000000
00010000
00100000
00000000
10000000
00000000
00010000
00000000
,
10000000
00000000
10000000
00000000
00010000
00000000
00200000
00001000
00000000
00310000
01000000
00000000
00100000
00000000
10000000
01000000
,
10000000
00000000
01000000
00000000
00010000
00000000
00001000
00100000
00000000
01000000
00010000
00000000
00001000
00000000
00000100
00000000
,
00000010
00000000
00000010
00000000
00001000
00000000
00000200
00010000
00000000
00001300
00000010
00000000
00000100
00000000
00000001
00001000
,
00000001
00000010
00001000
00000010
00000001
00000000
00001000
00000000
,
00002001
00000000
00000000
00000000
00000000
00000000
00013000
00000100
00010000
00000000
00000000
00000000
00000000
00000000
00000000
00000000
,
00011000
00000000
00000000
00000000
00110000
00000000
10000000
00100000
10000000
00000000
00000000
00000000
11000000
00000000
00000000
00000000
,
10020000
00000000
00000000
00000000
00000000
00000000
00031000
01000000
00001000
00000000
00000000
00000000
00011000
00000000
00000000
00000000
,
00000100
00000010
00000100
00001000
00000001
00000010
00001000
00000100
,
00000010
00000000
00000001
00000000
00000100
00000000
00001000
00010000
00000000
00100000
01000000
00000000
00010000
00000000
01000000
00000000
,
00100000
00000000
10000000
00000000
01000000
00000000
00010000
00001000
00000000
00000100
00000010
00000000
00000100
00000000
00000001
00000000
,
00000010
00001000
00000010
00001000
00000010
00000001
00000100
00001000
,
00020000
00000000
00000000
00000000
00000000
00000000
00031000
00000000
00000000
00000000
00000000
00000000
00011000
00000000
00001000
00100000
,
00010000
00000000
10000000
01000000
00000000
00000000
00100000
00001000
00010000
00000000
01000000
10000000
00000000
00000000
01000000
00000000
,
00010000
00000000
00001000
00000000
00000100
00000000
00000001
00000000
00000100
00000000
00001000
00000000
00010000
00000000
00001000
00010000
,
00100000
00000000
00010000
00001000
00000100
00000000
00001000
00010000
00100000
00000000
00010000
00001000
00000100
00000000
00001000
00000000
,
00010000
00000000
00100000
00000000
10000000
00000000
00010000
01000000
00000000
00000000
01000000
00000000
00001000
00000000
00010000
00000010
,
00001000
00000000
00000001
00000100
00000000
00000000
00000010
00010000
00001000
00000000
00000100
00000001
00000000
00000000
00000100
00000000
,
00001000
00000000
00010000
00000000
00100000
00000000
10000000
00000000
01000000
00000000
00010000
00000000
00001000
00000000
00010000
00001000
,
00000010
00000000
00001000
00010000
01000000
00000000
00010000
00001000
00000010
00000000
00001000
00010000
01000000
00000000
00010000
00000000
,
00001000
00000100
00000001
00000010
00002000
00000000
00000000
00000000
,
00013000
00000000
00000000
00000000
00000000
00000000
00000000
00000000
00000000
00000000
00000000
00000000
00000000
00110000
00000000
00100000
,
10000000
00000000
00000000
00000000
00000000
00000000
00000000
00000000
00000000
00000000
00000000
00000000
00000000
01010000
00000000
00010000
,
00000100
00000000
00000000
00000000
00000000
00000000
00000000
00000000
00000000
00000000
00000000
00000000
00000000
00001010
00000000
00000010
,
00000001
00000010
00000100
00000000
00000001
00000010
00000100
00000000
,
00010000
00000000
00000100
00000000
00010000
00000000
00001000
00100000
00000000
01000000
10000000
00000000
00010000
00000000
00100000
00000000
,
00001000
00000000
00010000
00000000
00000100
00000000
00010000
00000010
00000000
00000100
00000001
00000000
00001000
00000000
00000010
00000000
,
00000100
00000000
00000001
00000000
00000010
00000000
00000100
00001000
00000000
00010000
01000000
00000000
10000000
00000000
00010000
00000000
,
01000000
00000000
00100000
00000000
01000000
00100000
01000000
00000000
,
10000000
01000000
00010000
00001000
00010000
01000000
10000000
00010000
,
01000000
10000000
01000000
00100000
00010000
00001000
00000100
00000001
,
00001000
00000001
00000010
00001000
00010000
00001000
00000010
00000001
,
00000100
00000010
00001000
00000100
00010000
00001000
00010000
01000000
,
10000000
10000000
00100000
01000000
00010000
00010000
00100000
00001000
,
00010000
00010000
00000010
00001000
00000001
00000001
00000100
00000001
,
00000010
00000010
00000100
00010000
00001000
00001000
00100000
00020000
,
20000000
00000000
00000000
00000000
,
30030000
00000000
00000000
00000000
01100000
00000000
00010000
00000000
00001000
00000000
00000100
00000001
00000000
00000000
00000010
00000000
,
00000001
00000000
00000100
00000000
00001000
00000000
00010000
00000000
00100000
00000000
10000000
00000000
01000000
00000000
00010000
01000000
,
10000000
00000000
10000000
01000000
00010000
00000000
00001000
00000100
00000001
00000000
00000001
00000100
00001000
00000000
00010000
00000000
,
00100000
00000000
01000000
00000000
00100000
00000000
10000000
00010000
00000000
00000000
10000000
00000000
00010000
00000000
10000000
00100000
,
01000000
00000000
00001000
00010000
00000000
00000000
00000100
00001000
00000010
00000000
00000100
00000001
00000000
00000000
00001000
00000000
,
00000010
00000000
00000001
00000000
00001000
00000000
00000100
00000000
00001000
00000000
00010000
00000000
01000000
00000000
10000000
01000000
,
00100000
00000000
00100000
01000000
00010000
00000000
00010000
00001000
00000100
00000000
00000100
00000010
00000001
00000000
00000010
00000000
,
00001000
00000000
00000100
00000000
00010000
00000000
00001000
00000000
00200000
00000000
00000000
00000000
01300000
00000000
00010000
01000000
,
10000000
00000000
10000000
00100000
00010000
00000000
00001000
00000100
00000001
00000000
00000001
00000010
00001000
00000000
00010000
00000000
,
00002000
00000000
00020000
00033000
,
00100000
00001000
00000000
00100000
10000000
00000000
00100000
00000000
00010000
00000000
01000000
00000000
00010000
00000000
00100000
00000000
,
01000000
10000000
00100000
00010000
00001000
00000100
00000001
00001000
,
00000010
00000001
00000000
00000010
00001000
00000000
00000010
00000000
00000100
00000000
00000001
00000000
00001000
00000000
00000100
00000000
,
00000010
00000001
00001000
00000100
00010000
00001000
00100000
00010000
,
10000000
01000000
00000000
00010000
01000000
00000000
10000000
00000000
00010000
01000000
00000000
00001000
00100000
00000000
00001000
00000000
,
00010000
00000010
00000000
00000001
00000010
00000000
00001000
00000000
00000001
00000000
00000010
00000000
00000100
00000000
00001000
00000000
,
00000001
00001000
00000001
00000000
00000100
00000010
00000100
00000000
00001000
00010000
00001000
00000000
00100000
01000000
00100000
00000000
,
00010000
00000000
00000000
10000000
00000000
00000000
10010000
00000000
00000000
11000000
00000000
00000000
00110000
00000000
00000000
00000000
,
00011000
00000000
00000000
00000000
,
00000000
00000000
00000000
00000000
;
