
//----- song id: sakm
#TITLE:Sakura Mirage;
#ARTIST:Ryu☆;
#BANNER:Sakura Mirage.png;
#BACKGROUND:Sakura Mirage-bg.png;
#CDTITLE:./CDTitles/Reflec Beat Groovin.png;
#MUSIC:Sakura Mirage.ogg;
#SAMPLESTART:82.139;
#SAMPLELENGTH:15;
#DISPLAYBPM:187;
#BPMS:0=187;
#NOTES:
     dance-single:
     :
     Beginner:
     4:
     :
0000
0000
0000
0000
,
0000
0000
0000
0000
,
0000
0000
0000
0000
,
0000
0000
0000
0000
,
0000
0000
0000
0000
,
0000
0000
0000
0000
,
1000
1000
1000
0000
,
0000
0000
0000
0000
,
0001
0001
0001
0000
,
0000
0000
0000
0000
,
0002
0000
0000
0000
,
0003
0000
0000
0000
,
2000
0000
0000
0000
,
3000
0000
0000
0000
,
1000
1000
1000
0000
,
0100
0000
0000
0000
,
0001
0001
0001
0000
,
0010
0000
0000
0000
,
0001
0000
1000
0000
,
0001
0000
1000
0000
,
1000
0000
0001
0000
,
1000
0000
0000
0000
,
0010
0000
0010
0000
,
0100
0000
0000
0000
,
0010
0000
0000
0000
,
1000
1000
1000
0000
,
0001
0000
0002
0000
,
0003
0000
0010
0000
,
0100
0000
0000
0000
,
0000
0000
0000
0000
,
1000
0000
2000
0000
,
3000
0000
0001
0000
,
0010
0000
0000
0000
,
0000
0000
0000
0000
,
1000
0000
0000
0000
,
0100
0000
0100
0000
,
0001
0000
0000
0000
,
0100
0000
0100
0000
,
1000
0000
1000
0000
,
0001
0000
0001
0000
,
1000
1000
1000
0000
,
0001
0001
0001
0000
,
1001
0000
0000
0000
,
0000
0000
0000
0000
,
0000
0000
0000
0000
,
0000
0000
0000
0000
,
0010
0000
0010
0010
,
0000
0000
0000
0000
,
0100
0000
0100
0100
,
0000
0000
0000
0000
,
0001
0000
0001
0001
,
0000
0000
0000
0000
,
1000
1000
1000
0000
,
0001
0001
0000
0000
,
1000
1000
0000
1001
,
0000
0000
0000
0000
,
0000
0000
0000
0000
,
0000
0000
0000
0000
,
0000
0000
0000
0000
,
2000
0000
3100
0000
,
0001
0000
1000
0000
,
0002
0000
0103
0000
,
1000
0000
0001
0000
,
0000
0000
0000
0000
,
0001
0000
0001
0000
,
1000
1000
1000
0000
,
1000
0000
1000
0000
,
0001
0001
0001
0000
,
0010
0000
0000
0000
,
0100
0000
0000
0000
,
1000
0000
0001
0000
,
0000
0000
1001
0000
,
0002
0000
2003
0000
,
3010
0000
0000
0000
,
2000
0000
3002
0000
,
0103
0000
0000
0000
,
0002
0000
2003
0000
,
3010
0010
0010
0000
,
2000
0000
3002
0000
,
0013
0010
0010
0000
,
1001
0000
0000
0000
,
0000
0000
0000
0000
;
#NOTES:
     dance-single:
     :
     Easy:
     7:
     :
0000
0000
0000
0000
,
0000
0000
0000
0000
,
0000
0000
0000
0000
,
0000
0000
0000
0000
,
0000
0000
0000
0000
,
0000
0000
0000
0000
,
0001
0010
0100
1000
,
0100
0010
1001
0000
,
0100
0001
1000
0010
,
0100
0001
1001
0000
,
0002
0010
0010
0013
,
0020
0100
0130
0000
,
2000
0010
0010
3010
,
0200
0001
0301
0000
,
1000
0010
0001
0010
,
0100
0100
0001
0000
,
0100
0001
1000
0010
,
1000
0000
0100
0000
0010
0001
0010
0000
,
0001
0001
1000
1000
,
0001
0010
0100
1000
,
0001
0001
0100
0100
,
0010
1000
0001
0000
,
0010
0010
1000
1000
,
0100
0010
0001
1000
,
0100
0100
0010
0010
,
0001
0000
0001
0000
0100
0010
0100
0000
,
0001
1000
0002
0000
,
0000
0000
0013
0000
,
0200
0000
0000
0000
,
0300
1000
0010
0100
,
0001
1000
0002
0000
,
0000
0000
0013
0000
,
0200
0000
0000
0300
,
0000
0000
0000
0000
,
1000
0100
0010
0001
,
0010
0001
0010
0000
0110
0000
0000
0000
,
1000
0010
0100
0001
,
1000
1000
0001
0001
,
1000
0100
0001
0100
,
0010
0001
0010
0000
0110
0000
0000
0000
,
1000
0100
0010
0001
,
0110
0110
1001
1001
,
2002
0000
0000
0000
,
0000
0000
0000
3003
,
0000
0000
0000
0000
,
0000
0000
0000
0000
,
0010
0000
0000
0010
0010
0000
1001
0000
,
0100
0001
1000
0010
,
0100
0000
0000
0100
0100
0000
1001
0000
,
0010
0100
1000
0100
,
0010
0000
0000
0010
0010
0000
1001
0000
,
0100
0001
1000
0010
,
0100
0000
0100
0000
0000
0001
1000
0001
,
0100
0001
1000
0010
,
0001
0010
1000
1001
,
0000
0000
0000
0000
,
0000
0000
0000
0000
,
0000
0000
0000
0000
,
0000
0000
0000
0000
,
0100
0000
0010
0000
0001
1000
0001
0000
,
0100
0000
0010
0000
1000
0001
1000
0000
,
0100
0010
0001
0100
,
0001
1000
0001
1000
0001
0000
0000
0000
,
0000
0000
0000
0000
,
0100
0100
0010
0010
,
1000
0001
1000
0001
1000
0000
0000
0000
,
0100
0100
0010
0010
,
0001
1000
0001
1000
0001
0000
0000
0000
,
0010
0010
0100
0100
,
1000
0001
1000
0001
1000
0000
0000
0000
,
0010
0010
0100
0100
,
0001
1000
0001
1000
0001
0000
0000
0000
,
0010
0001
0010
0100
,
2000
0001
0010
3001
,
0001
0100
1000
0100
,
0002
0010
0013
0000
,
0001
0100
0010
1000
,
0002
1000
0010
1003
,
0001
1000
0100
0010
,
0001
0100
0110
0000
,
1001
0000
0000
0000
,
0000
0000
0000
0000
;
#NOTES:
     dance-single:
     :
     Medium:
     11:
     :
0000
0000
0000
0000
,
0000
0000
0000
0000
,
0000
0000
0000
0000
,
0000
0000
0000
0000
,
0000
0000
0000
0000
,
0000
0000
0000
0000
,
0000
1001
0000
0001
0000
0110
0000
0100
,
0000
1000
0001
1000
0010
0100
0010
0100
,
0000
0101
0000
0001
0000
1010
0000
1000
,
0000
0010
0000
0100
0000
0001
1001
0000
,
0020
0000
0130
0000
0001
0010
0100
0000
,
1000
0100
0010
0000
0001
0100
0010
0000
,
0002
0000
0013
0000
1000
0001
0100
0000
,
0010
0100
0001
0000
1000
0010
0100
0000
,
0000
0101
0000
1100
0000
0101
0000
1100
,
0000
1000
0100
0001
1000
0100
0001
0100
,
0000
0101
0000
1100
0000
0101
0000
1100
,
0200
0000
0020
0330
,
0001
1000
0010
0000
0100
0001
0010
0000
,
0100
1000
0001
1000
0100
0010
0001
0000
,
1000
0001
0100
0000
0010
0100
0001
0000
,
0010
0100
1000
0100
0001
0100
1000
0000
,
0010
0100
0001
0000
1000
0100
0010
0000
,
0001
0010
1000
0010
0001
0100
0010
0000
,
0100
0001
0010
0000
0100
1000
0010
0000
,
0100
0000
0010
0000
1000
0001
1000
0000
,
0001
0010
0001
0000
0020
0000
0000
0000
,
0000
0000
0230
0000
,
2300
0000
0000
0000
,
0000
3001
0100
0000
0010
0000
0010
0000
,
0100
0001
1000
0000
0200
0000
0000
0000
,
0000
0000
2300
0000
,
0002
0000
0000
0000
,
3003
0000
0000
0000
,
1000
0000
0000
1000
0001
0000
0000
0000
0100
0000
0000
0100
0010
0000
0000
0000
,
1000
0000
0000
1000
0100
0000
0000
0000
0010
0000
0000
0010
0001
0000
0000
0000
,
0010
0000
0000
0010
0100
0000
0000
0000
1000
0000
0000
1000
0001
0000
0000
0000
,
0020
0230
2300
3001
,
0001
0000
0000
0001
1000
0000
0000
0000
0010
0000
0000
0010
1000
0000
0000
0000
,
0100
0000
0000
0100
0001
0000
0000
0000
0100
0000
0000
0100
1000
0000
0000
0000
,
0010
0000
0000
0010
0100
0000
0000
0000
0001
0000
0000
0001
1000
0000
0000
0000
,
0001
0100
1000
0010
,
0002
0000
0000
0000
,
0000
0000
0000
0003
,
0000
0000
0000
0000
,
0000
0000
0000
0000
,
0010
0000
0000
0010
0100
0000
1001
0000
,
0100
0001
1000
0010
0100
0001
0010
0000
,
0100
0000
0000
0100
0010
0000
1001
0000
,
0010
1000
0001
0100
1000
0100
0001
0000
,
0010
0000
0000
0010
0100
0000
1001
0000
,
0010
0001
1000
0100
0010
0001
1000
0000
,
0100
0000
0100
0000
0000
1000
0100
0001
,
0000
0101
0000
0101
0000
1100
0000
1100
,
0000
1010
0000
1010
0000
1001
1001
0000
,
0000
0000
0000
0000
,
0000
0000
0000
0000
,
0000
0000
0000
0000
,
0000
0000
0000
0000
,
0001
1000
0001
1000
0010
0100
0010
0000
,
1000
0001
1000
0001
0010
0100
0010
0000
,
0001
1000
0100
0000
0010
0001
1000
0100
,
0010
0001
1000
0001
1000
0000
0000
0000
,
0000
0000
0000
0000
,
0001
0100
1000
0000
0100
0001
0100
0000
,
0010
1000
0001
1000
0200
0000
0310
0000
,
0001
1000
0001
0000
0010
0100
1000
0000
,
0100
0010
0001
1000
0002
0100
0103
0000
,
0010
0001
0010
0000
0100
1000
0100
0010
,
1000
0001
0100
0010
2000
0000
3001
0000
,
0010
0100
1000
0000
0001
0100
0010
1000
,
0100
0001
0100
1000
0002
0000
0003
0000
,
1000
0001
1000
0010
0100
0010
0100
0000
,
0101
0110
1100
1001
,
0001
0010
1000
0010
0001
0100
0010
0000
,
1100
0110
2002
3003
,
0010
0001
1000
0100
0010
0001
0100
0000
,
0101
0110
1100
1001
,
0001
0100
1000
0100
0001
0010
1000
0010
,
0001
1000
0010
0100
0002
0000
0000
0000
,
1003
0000
0000
0000
,
0000
0000
0000
0000
;
#NOTES:
     dance-single:
     :
     Hard:
     14:
     :
0000
0000
0000
0000
,
0000
0000
0000
0000
,
0000
0000
0000
0000
,
0000
0000
0000
0000
,
0000
0000
0000
0000
,
0000
0000
0000
0000
,
0000
1001
0000
0101
0000
0110
0000
1010
,
0000
0001
1000
0100
0010
0010
0010
0010
,
0000
1001
0000
1010
0000
0110
0000
0101
,
0000
0001
1000
0100
0010
0001
1001
0000
,
1000
0010
0100
0001
0010
0100
1000
0100
,
0010
0001
0100
0010
1000
0010
0001
0000
,
0010
1000
0010
0100
0001
0010
0100
1000
,
0100
0010
0001
0010
0100
0100
0100
0100
,
0000
1001
0000
0110
0000
1001
0000
0110
,
0000
1000
0100
0010
0001
0001
0001
0001
,
0000
0110
0000
1001
0000
0110
0000
1001
,
0001
1000
0010
0100
0001
0010
0100
1000
,
0001
0100
1000
0100
0001
0010
1000
0010
,
0001
0100
0010
1000
0100
0010
0001
0000
,
1000
0100
0001
0100
1000
0010
0001
0010
,
1000
0010
0100
0001
0010
0010
0010
0010
,
1000
0100
0010
0001
1000
0010
0100
0001
,
0010
0100
0001
0100
1000
0100
0010
0000
,
0001
1000
0010
0100
0001
0100
1000
0100
,
0001
0101
0000
1010
0000
1001
0110
0000
,
1000
0100
0010
0000
0002
0000
0000
0000
,
0000
0000
0203
0000
,
0320
0000
0000
0000
,
0030
0000
1000
0001
1000
0000
0010
0000
0100
0000
0010
0000
1001
0000
0000
0000
,
1000
0100
0010
0000
0002
0000
0000
0000
,
0000
0000
2003
0000
,
3020
0000
0000
0000
,
0130
0001
0010
0100
1000
0001
0100
0010
,
1000
0100
0001
0100
1000
0100
0001
0100
,
0010
1000
0010
0001
0010
1000
0010
0001
,
0100
1000
0100
0001
0100
1000
0100
0001
,
0101
0011
0110
1100
,
0001
0010
1000
0010
0001
0010
1000
0010
,
0100
0001
0100
1000
0100
0001
0100
1000
,
0001
0100
1000
0100
0001
0100
1000
0100
,
0110
0101
0011
0110
,
2002
0000
0000
0000
,
0000
0000
0000
0000
,
0000
0000
0000
3003
,
0000
0100
0000
0100
0000
0100
0010
0000
,
1001
0000
0000
1001
0011
0000
1100
0000
,
1000
0010
0100
0001
0010
0100
1000
0010
,
1001
0000
0000
1001
1010
0000
0101
0000
,
0010
0000
0001
0000
0010
0000
0100
1000
0100
0000
0010
0000
0001
0000
0100
0000
,
0101
0000
0000
0110
1010
0000
0101
0000
,
1000
0100
0010
0001
0100
0010
1000
0100
,
0110
0000
0011
0000
0000
1001
0001
1000
,
0001
0100
0010
1000
0001
0010
0100
1000
,
0100
0010
0001
0100
0010
1000
1001
0000
,
0000
0000
0000
0000
,
0000
0000
0000
0000
,
0000
0000
0000
0000
,
0000
0000
0000
0000
,
1000
0100
0010
0001
0100
0010
0010
0010
,
1000
0001
0100
0010
1000
0100
0100
0100
,
1000
0000
0001
0010
0001
0000
1000
0010
1000
0000
0001
0100
0001
0000
1000
0001
,
1000
0100
0010
0002
2000
0000
0000
0000
,
0000
0000
3003
1001
,
0010
0000
0001
0000
1000
0000
0100
0010
0100
0000
0010
0000
0001
0000
0100
0000
,
0001
0001
0100
0100
0100
0000
0001
1000
,
0100
0000
1000
0000
0010
0000
0100
0001
0100
0000
0010
0000
1000
0000
0100
0000
,
0010
0010
0001
0001
0001
0000
0100
0001
,
0010
0000
0100
0000
1000
0000
0001
0100
0001
0000
0100
0000
0010
0000
1000
0000
,
0100
0100
0001
0001
0001
0001
0100
1000
,
0010
0000
0100
0000
0001
0000
1000
0010
1000
0000
0001
0000
0010
0000
0100
0000
,
0010
0010
1000
1000
1000
0000
0000
0000
,
0001
0010
0100
1000
0001
0100
0010
1000
,
0100
0100
0010
0010
0001
0001
1001
0000
,
0001
0100
1000
0100
0001
0010
0100
1000
,
0001
0001
0100
0100
0101
0000
0001
1000
,
0100
0010
0001
1000
0010
0100
0001
0010
,
0100
0100
0001
0001
0100
0100
0010
0010
,
0100
0000
0010
0000
0100
0000
0010
0000
0001
1000
0100
0000
0010
0001
1000
0000
,
0001
1000
0010
0100
0110
0000
0000
0000
,
2002
0000
0000
0000
,
0000
0000
0000
3003
,
0000
0000
0000
0000
;
#NOTES:
     dance-double:
     :
     Easy:
     7:
     :
00000000
00000000
00000000
00000000
,
00000000
00000000
00000000
00000000
,
00000000
00000000
00000000
00000000
,
00000000
00000000
00000000
00000000
,
00000000
00000000
00000000
00000000
,
00000000
00000000
00000000
00000000
,
00000000
10000000
00000000
00100000
00000000
01000000
00000000
00010000
,
00000000
10000000
00000000
01000000
00000000
00010000
00001000
00000000
,
00000000
00000010
00000000
00000001
00000000
00001000
00000000
00000100
,
00000000
00010000
00000000
00001000
00000000
00010000
00001000
00000000
,
00020000
00000000
00000000
00030000
,
00200000
01000000
01300000
00000000
,
20000000
00000000
00000000
30000000
,
02000000
00010000
00010000
03010000
,
00000000
00001000
00000000
00000010
00000000
00000001
00000000
00000010
,
00000000
00000001
00000000
00000001
00000000
00000100
00000010
00000000
,
00000000
00000100
00000000
00001000
00000000
00010000
00000000
00100000
,
10000000
00000000
00100000
00000000
01000000
00010000
01000000
00000000
,
00001000
00001000
00010000
00010000
,
00001000
00000010
00000001
00000010
,
00000001
00000001
00000100
00000100
,
00001000
00010000
00001000
00010000
,
00100000
00100000
10000000
10000000
,
01000000
00010000
00001000
00010000
,
00001000
00001000
00000010
00000010
,
00000001
00000001
00000100
00000100
,
00001000
00010000
00020000
00000000
,
00000000
00000000
00130000
00000000
,
20000000
00000000
00000000
00000000
,
30000000
01000000
00100000
00010000
,
01000000
00001000
00020000
00000000
,
00000000
00000000
00031000
00000000
,
00000020
00000000
00000000
00000030
,
00000000
00000000
00000000
00000000
,
00000001
00000000
00000100
00000000
00000010
00001000
00000100
00000000
,
00020000
00032000
00203000
00310000
,
10000000
00000000
01000000
00000000
00100000
00010000
01000000
00000000
,
00002000
00023000
00030020
00001030
,
00000001
00000000
00000010
00000000
00001000
00010000
00001000
00000000
,
00200000
00320000
20030000
31000000
,
10000000
00000000
01000000
00000000
00010000
00001000
00010000
00000000
,
00002000
00003020
00000032
00000023
,
00002030
00000000
00000000
00000000
,
00000000
00000000
00000000
00003000
,
00000000
00000000
00000000
00000000
,
00000000
00000000
00000000
00000000
,
00000010
00000000
00000000
00000010
00001000
00000000
00001001
00000000
,
00000100
00010000
00001000
00100000
,
01000000
00000000
00000000
01000000
10000000
00000000
10010000
00000000
,
00100000
00001000
00010000
00000100
,
00000010
00000000
00000000
00000010
00000001
00000000
00001001
00000000
,
00000010
00010000
00001000
00100000
,
01000000
00000000
01000000
00000000
00000000
10000000
00010000
10000000
,
00000000
01000000
00000000
00010000
00000000
00001000
00000000
00000010
,
00000000
00000001
00000000
00000100
00000000
00000001
00001001
00000000
,
00000000
00000000
00000000
00000000
,
00000000
00000000
00000000
00000000
,
00000000
00000000
00000000
00000000
,
00000000
00000000
00000000
00000000
,
00000001
00000000
00000100
00000000
00001000
00010000
00001000
00000000
,
00100000
00000000
01000000
00000000
10000000
00010000
10000000
00000000
,
01000000
00010000
00001000
00010000
,
00001000
00010000
00001000
00010000
00001000
00000000
00000000
00000000
,
00000000
00000000
00000000
00000000
,
00000010
00000010
00000001
00000001
,
00001000
00000001
00001000
00000001
00001000
00000000
00000000
00000000
,
00000100
00000100
00010000
00010000
,
00001000
00010000
00001000
00010000
00001000
00000000
00000000
00000000
,
00100000
00100000
01000000
01000000
,
10000000
00010000
10000000
00010000
10000000
00000000
00000000
00000000
,
00100000
00100000
00010000
00010000
,
00001000
00010000
00001000
00010000
00001000
00000000
00000000
00000000
,
00000010
00000001
00000010
00001000
,
00020000
00001000
00100000
00031000
,
00010000
01000000
10000000
01000000
,
00200000
00010000
00310000
00000000
,
10000000
01000000
00010000
00001000
,
00020000
00001000
00000010
00031000
,
00010000
00001000
00000100
00000001
,
00000010
00000001
00000110
00000000
,
00001001
00000000
00000000
00000000
,
00000000
00000000
00000000
00000000
;
#NOTES:
     dance-double:
     :
     Medium:
     11:
     :
00000000
00000000
00000000
00000000
,
00000000
00000000
00000000
00000000
,
00000000
00000000
00000000
00000000
,
00000000
00000000
00000000
00000000
,
00000000
00000000
00000000
00000000
,
00000000
00000000
00000000
00000000
,
00000000
10010000
00000000
10000000
00000000
01100000
00000000
01000000
,
00000000
00001000
00010000
00001000
00000100
00000010
00000100
00000010
,
00000000
00000101
00000000
00000001
00000000
00000110
00000000
00000100
,
00000000
00001000
00000000
00010000
00000000
00001000
00011000
00000000
,
02000000
00000000
13000000
00000000
00010000
10000000
00100000
00000000
,
01000000
00001000
00010000
00000000
00000010
00010000
00001000
00000000
,
00000020
00000000
00000031
00000000
00001000
00000001
00000100
00000000
,
00000010
00010000
00001000
00000000
00100000
00001000
00010000
00000000
,
00000000
01010000
00000000
01100000
00000000
11000000
00000000
10010000
,
00000000
10000000
01000000
00010000
00001000
00010000
00001000
00000010
,
00000000
00000011
00000000
00001001
00000000
00000101
00000000
00000110
,
00000200
00000000
00001300
00000000
,
00010000
00001000
00100000
00000000
00010000
01000000
00100000
00000000
,
10000000
01000000
00010000
00001000
00010000
00001000
00000010
00000000
,
00000001
00001000
00000100
00000000
00000010
00000001
00001000
00000000
,
00000001
00000100
00001000
00010000
00001000
00010000
00100000
00000000
,
01000000
00100000
00010000
00000000
10000000
01000000
00100000
00000000
,
10000000
01000000
00010000
00001000
00010000
00001000
00000010
00000000
,
00000001
00000100
00000010
00000000
00001000
00000010
00000100
00000000
,
00000001
00000000
00000100
00000000
00001000
00010000
00001000
00000000
,
00010000
00100000
10000000
00000000
02000000
00000000
00000000
00000000
,
00000000
00000000
03200000
00000000
,
00320000
00000000
00000000
00000000
,
00000000
00031000
00000100
00000000
00000001
00000000
00000001
00000000
,
00000100
00001000
00000001
00000000
00000200
00000000
00000000
00000000
,
00000000
00000000
00002300
00000000
,
00020000
00000000
00000000
00000000
,
00033000
00000000
00000000
00000000
,
10000000
01000000
00010000
00000000
01000000
00010000
00001000
00000000
,
00010000
00001000
00000010
00000000
00001000
00000010
00000001
00000000
,
00000001
00000100
00001000
00000000
00000100
00001000
00010000
00000000
,
00200000
20300000
30020000
00130000
,
10000000
00100000
00010000
00000000
00100000
00010000
00001000
00000000
,
00010000
00001000
00000100
00000000
00001000
00000100
00000001
00000000
,
00000001
00000010
00001000
00000000
00000010
00001000
00010000
00000000
,
02000000
23000000
30020000
00230000
,
00302000
00000000
00000000
00000000
,
00000000
00000000
00000000
00003000
,
00000000
00000000
00000000
00000000
,
00000000
00000000
00000000
00000000
,
00000010
00000000
00000000
00000010
00000100
00000000
00001001
00000000
,
00000100
00010000
00001000
00000000
00010000
00001000
00100000
00000000
,
01000000
00000000
00000000
01000000
00100000
00000000
10010000
00000000
,
00100000
00001000
00010000
00000000
00001000
00010000
00000100
00000000
,
00000010
00000000
00000000
00000010
00000100
00000000
00001001
00000000
,
00000010
00010000
00001000
00000000
00010000
00001000
00100000
00000000
,
01000000
00000000
01000000
00000000
00000000
10000000
01000000
00010000
,
00000000
01010000
00000000
01010000
00000000
00011000
00000000
00011000
,
00000000
00001010
00000000
00001010
00000000
00001001
00001001
00000000
,
00000000
00000000
00000000
00000000
,
00000000
00000000
00000000
00000000
,
00000000
00000000
00000000
00000000
,
00000000
00000000
00000000
00000000
,
00000001
00001000
00000001
00001000
00000010
00000100
00000010
00000000
,
00010000
00001000
00010000
00001000
00100000
01000000
00100000
00000000
,
00010000
10000000
01000000
00000000
00100000
00010000
10000000
01000000
,
00010000
00001000
00010000
00001000
00010000
00000000
00000000
00000000
,
00000000
00000000
00000000
00000000
,
00000010
00000001
00001000
00000000
00000001
00000100
00000001
00000000
,
00000100
00001000
00010000
00001000
00020000
00000000
00030000
00000000
,
00100000
10000000
00010000
00000000
00100000
01000000
10000000
00000000
,
01000000
00010000
00001000
00010000
00002000
00000000
00003000
00000000
,
00000010
00000001
00000010
00000000
00000100
00001000
00000001
00000000
,
00000100
00001000
00010000
00001000
00100000
00001000
00010000
00000000
,
00010000
00100000
10000000
00000000
00010000
01000000
00100000
00000000
,
10000000
01000000
00010000
00001000
00020000
00000000
00030000
00000000
,
00001000
00010000
00001000
00000000
00000100
00000010
00000100
00000000
,
00000101
00000110
00001100
00011000
,
00100000
01000000
00100000
00000000
00010000
10000000
00010000
00000000
,
11000000
01010000
00022000
00033000
,
00000010
00000001
00001000
00000000
00000100
00000010
00000001
00000000
,
00000101
00000110
00001100
00011000
,
00010000
00001000
00010000
00000000
00100000
01000000
00100000
01000000
,
00010000
10000000
00100000
01000000
00020000
00000000
00000000
00000000
,
10030000
00000000
00000000
00000000
,
00000000
00000000
00000000
00000000
;
#NOTES:
     dance-double:
     :
     Hard:
     14:
     :
00000000
00000000
00000000
00000000
,
00000000
00000000
00000000
00000000
,
00000000
00000000
00000000
00000000
,
00000000
00000000
00000000
00000000
,
00000000
00000000
00000000
00000000
,
00000000
00000000
00000000
00000000
,
00000000
11000000
00000000
01010000
00000000
11000000
00000000
01010000
,
00000000
00010000
00001000
00000100
00000001
00000001
00000001
00000001
,
00000000
00000101
00000000
00001100
00000000
00000101
00000000
00001100
,
00000000
00000010
00001000
00000100
00010000
00001000
01001000
00000000
,
00001000
00100000
01000000
00100000
00001000
00010000
01000000
10000000
,
00100000
01000000
00001000
00010000
00001000
00000010
00000001
00000000
,
00000100
00001000
00000100
00000010
00000001
00000010
00001000
00010000
,
01000000
00100000
00100000
00100000
10000000
00100000
00010000
00001000
,
00000000
00101000
00000000
01100000
00000000
00101000
00000000
01100000
,
00000000
10000000
01000000
00010000
00001000
00001000
00001000
00001000
,
00000000
00001010
00000000
00011000
00000000
00001010
00000000
00011000
,
00010000
00001000
00000010
00000100
00000001
00000010
00001000
00010000
,
01000000
00010000
01000000
10000000
00100000
00010000
00100000
10000000
,
01000000
00010000
00001000
00010000
00001000
00000010
00000001
00000000
,
00000001
00000010
00001000
00000010
00000001
00000100
00001000
00000100
,
00000001
00000010
00001000
00010000
01000000
01000000
01000000
01000000
,
00010000
10000000
00100000
00010000
00001000
00010000
01000000
10000000
,
00010000
01000000
00001000
00010000
00000100
00000010
00000001
00000000
,
00000100
00001000
00000001
00000010
00001000
00010000
00001000
00000100
,
00000001
00000101
00000000
00001010
00000000
00011000
00101000
00000000
,
10000000
00000000
00000000
10000000
00100000
00000000
00000000
00100000
01000000
00000000
00000000
01000000
00001000
00000000
00000000
00001000
,
00010000
00000000
00000000
00010000
00000100
00000000
00000000
00000100
00000001
00000000
00000000
00000001
00001000
00000000
00000000
00001000
,
00010000
00000000
00000000
00010000
00000010
00000000
00000000
00000010
00000001
00000000
00000000
00000001
00000010
00000000
00000000
00000010
,
00001000
00000000
00000000
00001000
00000100
00000000
00000000
00000100
00010000
00000000
00000000
00010000
00001000
00000000
00000000
00000000
,
00100000
00000000
00000000
00100000
01000000
00000000
00000000
01000000
10000000
00000000
00000000
10000000
00100000
00000000
00000000
00100000
,
00001000
00000000
00000000
00001000
00100000
00000000
00000000
00100000
10000000
00000000
00000000
10000000
00010000
00000000
00000000
00010000
,
00100000
00000000
00000000
00100000
10000000
00000000
00000000
10000000
00010000
00000000
00000000
00010000
00001000
00000000
00000000
00001000
,
00000100
00000001
00000010
00000100
00001000
00000001
00000100
00000010
,
00001000
00000100
00000001
00000100
00001000
00000100
00000001
00000100
,
00000010
00001000
00010000
00001000
00000010
00001000
00010000
00001000
,
00100000
10000000
00100000
00010000
00100000
10000000
00100000
00010000
,
01100000
00101000
01001000
01100000
,
10000000
00100000
00010000
00100000
10000000
00100000
00010000
00100000
,
00001000
00010000
01000000
00010000
00001000
00010000
01000000
00010000
,
00001000
00000010
00000001
00000010
00001000
00000010
00000001
00000010
,
00000110
00000000
00001001
00000000
00000001
00000010
00000100
00001000
,
00002002
00000000
00000000
00000000
,
00000000
00000000
00000000
00000000
,
00000000
00000000
00000000
00003003
,
00000000
00000100
00000000
00000100
00000000
00000100
00000010
00000000
,
00001001
00000000
00000000
00001010
00010010
00000000
00101000
00000000
,
02000000
03200000
00320000
10030000
,
10010000
00000000
00000000
00110000
00101000
00000000
00010100
00000000
,
00000020
00000230
00002300
00003001
,
00000101
00000000
00000000
00000110
00001010
00000000
00011000
00000000
,
00200000
20300000
30020000
01030000
,
01010000
00000000
00011000
00000000
00000000
00000010
00000001
00000010
,
00000000
00000011
00000000
00001010
00000000
00011000
00000000
00110000
,
00000000
10100000
00000000
11000000
00000000
00100000
00010000
00000000
,
00002000
00000100
00000001
00000010
,
00023000
01000000
10000000
00100000
,
00032000
00000100
00000001
00000010
,
00023000
01000000
10000000
00100000
,
00031000
00000100
00000010
00000001
00000020
00001000
00001030
00000000
,
00010000
01000000
10000000
00010000
02000000
00001000
03001000
00000000
,
00010000
00001000
00000010
00000001
00000100
00001000
00010000
00100000
,
00010000
00001000
00000010
00002000
00020000
00000000
00000000
00000000
,
00000000
00000000
00033000
00011000
,
00100000
00010000
10000000
01000000
00010000
01000000
10000000
00200000
,
00010000
00310000
00002000
00010000
00013000
00000000
00001000
00000010
,
00000001
00000100
00000010
00001000
00000100
00010000
00001000
02000000
,
00100000
03100000
00020000
00100000
00130000
00000000
10000000
01000000
,
00010000
00001000
00010000
01000000
00100000
10000000
00100000
00020000
,
01000000
01030000
20000000
01000000
31000000
00010000
00100000
00001000
,
00010000
00001000
00000010
00000001
00000100
00001000
00000100
00000002
,
00000010
00000013
00002000
00000010
00003010
00000000
00000000
00000000
,
00000001
00000010
00001000
00010000
00000100
00010000
00100000
10000000
,
00100000
00100000
00010000
00010000
00001000
00001000
00001100
00000000
,
00000001
00000100
00001000
00000100
00000001
00000010
00001000
00010000
,
01000000
01000000
10000000
10000000
10010000
00000000
00010000
10000000
,
01000000
00100000
00001000
00010000
00000010
00000100
00000001
00000010
,
00001000
00010000
00010000
00000100
00000100
00001000
00000010
00000100
,
00001000
00000000
00010000
00000000
00001000
00000000
00010000
00000000
00000010
00010000
00001000
00000000
01000000
00001000
00010000
00000000
,
00100000
10000000
01000000
00010000
00001000
00000000
00000000
00000000
,
00022000
00000000
00000000
00000000
,
00000000
00000000
00000000
00033000
,
00000000
00000000
00000000
00000000
;
