
//----- song id: sumd
#TITLE:夏色DIARY -DDR mix-;
#ARTIST:猫叉王子 feat. TAG;
#TITLETRANSLIT:SUMMER DIARY -DDR mix-;
#ARTISTTRANSLIT:Nekomata Ouji feat. TAG;
#BANNER:SUMMER DIARY -DDR mix-.png;
#BACKGROUND:SUMMER DIARY -DDR mix--bg.png;
#CDTITLE:./CDTitles/DDR (2014).png;
#MUSIC:SUMMER DIARY -DDR mix-.ogg;
#SAMPLESTART:79.48;
#SAMPLELENGTH:15;
#DISPLAYBPM:160;
#BPMS:0=160;
#NOTES:
     dance-single:
     :
     Beginner:
     3:
     :
0000
0000
0000
0000
,
0000
0000
0000
0000
,
0000
0000
0000
0000
,
0000
0000
0000
0000
,
0000
0000
0000
0000
,
0002
0003
0002
0003
,
0001
0000
0000
0000
,
2000
3000
2000
3000
,
1000
0000
0000
0000
,
1001
0000
0000
0000
,
0000
0000
0000
0000
,
0010
0000
0010
0000
,
0001
0000
1000
0000
,
0010
0000
0010
0000
,
0001
0000
0000
0000
,
0001
0000
1000
0000
,
0001
0000
0000
0000
,
0001
0000
1000
0000
,
0001
0000
0000
0000
,
0001
0000
1000
0000
,
0001
0000
1000
0000
,
0010
0000
0000
0000
,
0001
0001
0001
0000
,
0001
0000
1000
0000
,
0001
0000
0000
0000
,
0001
0000
1000
0000
,
0001
0000
0000
0000
,
0010
0000
0010
0000
,
0100
0000
0000
0000
,
0002
0003
0001
0000
,
2000
3000
1000
0000
,
0002
0000
0000
0003
,
0001
0000
0100
0000
,
2000
0000
0000
3000
,
1000
0000
0010
0000
,
0010
0000
0010
0000
,
0100
0000
0000
0000
,
0001
0000
0001
0000
,
1000
0000
0000
0000
,
0001
0000
0001
0000
,
1000
0000
0000
0000
,
0100
0000
0000
0000
,
0010
0000
0010
0000
,
0100
0000
0100
0000
,
0010
0000
0000
0000
,
2002
0000
0000
0000
,
3003
0000
0000
0000
,
1000
0000
1000
0000
,
0001
0000
0001
0000
,
0010
0000
0000
0000
,
0000
0000
0000
0000
,
0001
0000
0001
0001
,
0000
0001
0001
0000
,
1000
0000
0001
0000
,
1000
0000
0001
0000
,
0010
0000
0010
0010
,
0010
0000
0000
0000
,
0001
0000
0010
0000
,
1000
0000
0010
0000
,
0001
0000
0001
0001
,
0001
0000
0000
0000
,
0010
0000
0001
0000
,
0010
0000
1000
0000
,
0100
0000
0000
0000
,
0010
0010
0010
0010
,
0010
0000
0000
0000
,
0000
0000
1000
1000
,
1000
0000
0000
0000
,
0010
0000
0000
0000
,
0002
0000
0000
0000
,
0003
0000
0000
0000
,
1000
0000
1000
0000
,
0001
0000
0000
0000
,
0000
0000
0000
0000
;
#NOTES:
     dance-single:
     :
     Easy:
     7:
     :
0000
0000
0000
0000
,
0000
0000
0000
0000
,
0000
0000
0000
0000
,
0000
0000
0000
0000
,
0000
0000
0000
0000
,
0100
0000
1000
0000
,
0001
0100
0001
1000
,
0100
0000
0010
0000
,
0001
0100
0010
0100
,
1001
0000
0000
0000
,
0000
0000
0000
1001
,
0000
0001
1000
0100
,
2000
3001
0002
1003
,
0010
0100
0001
0010
,
0110
0000
0000
1000
,
0001
0100
0010
0000
,
0010
1000
0001
0100
,
0001
1000
0100
0000
,
0010
0001
1000
0100
,
0010
0100
1000
0000
,
0010
0100
0010
0000
,
0110
0000
1001
0000
,
1000
0100
0010
0001
,
1000
0100
1000
0000
,
0001
1000
0001
0100
,
0010
0100
0010
0000
,
1000
0001
0100
0010
,
1000
0100
0010
0000
,
0001
0100
0010
0000
,
1000
0000
0110
0000
,
0001
0000
0110
0000
,
2000
0000
3000
0001
,
0010
0100
1000
0100
,
0002
0000
0003
1000
,
0010
0100
0001
0100
,
1000
1000
0001
0001
,
0010
0010
0100
0010
,
0001
0100
0001
0000
,
0100
0010
0100
0100
,
1000
0100
1000
0000
,
0100
0010
0100
0100
,
1000
0001
0001
1000
,
1000
0001
0100
0100
,
0001
1000
1000
0001
,
0010
0001
0010
0100
,
1000
0000
0000
0000
,
0000
0000
0010
0100
,
0010
0000
0100
0000
,
0001
0001
1000
0001
,
0020
0030
0200
0000
,
0000
0300
1000
0001
,
0100
0000
0100
0001
,
0000
0010
1000
0001
,
1000
1000
0001
0100
,
0001
0100
0010
0100
,
0001
0100
1000
0100
,
0001
0100
0000
0010
,
0100
0000
0010
1000
,
0100
0000
0001
1000
,
0010
0000
0110
1001
,
0110
0000
0010
0001
,
2000
3001
0002
1003
,
2000
3010
0002
0013
,
0100
0010
0100
0010
,
1000
0010
0100
0001
,
0020
0030
0200
0300
,
0020
0030
0001
1000
,
0010
1000
0001
0100
,
0010
0000
0000
0100
,
0002
0000
0000
0000
,
0003
0000
0000
0000
,
1000
0001
1000
0001
,
0010
0000
0000
0010
0000
0000
0100
0000
,
0000
0000
0000
0000
;
#NOTES:
     dance-single:
     :
     Medium:
     10:
     :
0000
0000
0000
0000
,
0000
0000
0000
0000
,
0000
0000
0000
0000
,
0000
0000
0000
0000
,
0000
0000
0000
0000
,
0200
0310
0002
0103
,
1000
1100
0001
0110
,
0200
1300
0002
0103
,
1000
0000
0100
0000
0010
0100
0010
0000
,
0001
0100
0010
0100
0000
0001
1000
0100
,
0000
1000
0010
1000
0000
0001
0010
0001
,
1000
0000
0100
0000
0010
0001
0100
0000
,
0100
0010
0100
0001
0010
0001
1000
0000
,
0100
0010
0001
1000
0001
0010
0100
1000
,
0010
0000
0000
0100
0000
0000
0001
0000
0000
1000
0000
0000
0100
0000
0000
0000
,
1001
0000
0010
0000
0100
0010
1000
0010
,
0000
0100
0010
0100
0001
0100
0010
0000
,
1000
0000
0100
0000
1000
0001
0010
0100
,
0000
0100
1000
0100
0010
0100
0010
0001
,
0100
0000
0010
0000
0100
0010
0001
0010
,
0000
1000
0010
0100
0010
0001
0010
1000
,
0200
1300
0002
0013
,
1000
1100
0101
0011
,
1010
0000
1000
0000
0100
0010
0100
0010
,
0000
0001
0010
0100
0010
0001
0010
0000
,
0001
0000
1000
0000
0010
0100
0010
0100
,
0000
0100
0010
1000
0001
0010
0100
1000
,
0001
0000
0010
0000
0100
0010
1000
0010
,
0000
0001
0010
0100
0010
0100
1000
0010
,
0100
0000
0001
0100
0010
0000
0010
1000
,
0100
0000
0100
0001
0010
0000
0100
0000
,
1001
0000
0010
0000
0000
1000
0100
0001
,
0100
0000
0110
0000
0001
1000
0100
0010
,
0001
0000
0100
0000
0000
1000
0100
0001
,
0010
0000
0110
0000
1000
0001
0100
0001
,
0010
0100
0010
1000
0000
0010
0001
0010
,
0000
0100
1000
0100
0010
0000
0011
0000
,
1001
0000
0110
0000
1000
0100
0001
0100
,
0000
0010
0001
0010
0100
0010
1000
0100
,
0001
0000
0110
0000
1000
0010
0001
0010
,
0000
0010
0100
0010
0001
0100
1000
0100
,
0010
0100
0010
0001
0000
1000
0100
1000
,
0000
0001
0010
1000
0010
0000
0001
0000
,
0100
0010
0100
0010
0000
0010
1000
0100
,
0000
0100
0001
0010
0100
0000
1100
0000
,
1002
0000
0000
0000
,
0000
0000
0100
0013
,
0100
0000
1000
0010
0000
1000
0100
0000
,
0010
0001
0000
0100
0001
0000
1000
0000
,
0001
0000
0000
1000
0000
0000
0001
0000
0000
0100
0000
0000
0010
0000
0000
1000
,
0000
0000
0100
0000
0000
0010
0000
0000
0001
0000
0000
1000
0000
0000
0100
0000
,
1000
0100
0000
0001
0100
0000
1000
0100
,
0000
0010
0100
0000
0001
0000
1000
0000
,
0001
1000
0001
0100
0000
0001
1000
0010
,
0000
1000
0100
0010
0000
0010
0100
1000
,
0000
0100
0010
0001
0010
0100
1000
0100
,
1000
0100
0010
0001
0000
0001
1000
0000
,
0010
0000
0010
0100
0010
0000
0010
1000
,
0100
0000
0100
0010
0001
0000
0001
0010
,
0100
0000
0100
1000
0100
0000
1001
0000
,
0110
0000
1100
0011
,
1000
0001
1000
0100
0000
1000
0001
0100
,
0000
0001
0100
0010
0000
0010
0100
0001
,
0000
1000
0100
0010
0001
0010
0100
1000
,
0100
0010
0100
0010
0100
1000
0001
0100
,
0020
1000
0100
1030
,
0200
0301
1100
0101
,
1000
0100
1000
0100
0010
0100
0010
0001
,
0010
0000
0000
0100
0000
0000
1000
0000
0000
0010
0000
0000
0100
0000
0000
0000
,
0001
0010
0001
0000
0010
0100
1000
0000
,
1000
0100
0010
0000
0001
0100
0001
0000
,
1000
0010
0100
0010
0100
0010
1000
0100
,
0010
0000
0000
0001
0000
0000
0100
0000
0000
0001
0000
0000
1000
0000
0100
0000
,
0000
0000
0000
0000
;
#NOTES:
     dance-single:
     :
     Hard:
     14:
     :
0000
0000
0000
0000
,
0000
0000
0000
0000
,
0000
0000
0000
0000
,
0000
0000
0000
0000
,
0000
0000
0000
0000
,
0010
0001
0010
0001
0010
0000
0100
0000
1000
0100
1000
0100
1000
0000
0010
0000
,
0100
0001
1100
0000
0010
0100
1001
0000
,
0001
0100
0001
0100
0001
0000
1000
0000
0100
0010
0100
0010
0100
0000
1000
0000
,
0001
0000
0010
0000
0100
0000
1000
0000
0001
0000
0000
0001
0100
0000
0000
0000
,
0001
1000
0100
0002
0003
0100
1000
0020
,
0030
0001
0010
2000
3000
0001
0101
0000
,
1001
0100
1000
0100
0010
0001
1000
0001
,
0100
0000
0010
0000
1000
0000
0001
0010
0001
0000
1000
0000
0010
0000
0100
0000
,
0001
0000
0010
0000
0100
0000
0010
0000
1000
0000
0010
0000
0001
0100
0010
0000
,
0001
0000
0000
0101
0000
0000
1001
0000
0000
0110
0000
0000
1001
0000
0000
0000
,
0010
0000
0001
0010
0001
0100
1000
0100
,
0001
0000
1000
0010
1000
0000
0001
0010
0001
0000
1000
0010
1000
0000
0100
0000
,
0010
0000
0001
0100
0001
0010
1000
0010
,
0001
0000
1000
0100
1000
0000
0001
0100
0001
0000
1000
0100
1000
0000
0001
0100
,
0010
0000
1000
0010
0001
0010
1000
0100
,
0010
0000
0100
1000
0100
0000
0010
0001
0010
0000
0001
0100
0001
0000
1000
0010
,
0100
0000
0000
0000
0001
0000
0100
0000
1000
0000
0000
0000
0001
0000
0100
0001
,
0100
0000
0000
0000
0110
0000
0000
0000
1001
0000
0100
1000
0100
0000
0000
0000
,
0010
0000
0001
0010
0001
0100
1000
0100
,
0001
0000
1000
0010
1000
0000
0001
0010
0001
0000
1000
0010
1000
0000
0100
0000
,
0010
0000
0001
0100
0001
0010
1000
0010
,
0001
0000
1000
0100
1000
0000
0001
0100
0001
0000
1000
0100
1000
0000
0001
0100
,
0010
0000
1000
0010
0001
0010
1000
0100
,
0010
0000
0100
1000
0100
0000
0010
0001
0010
0000
0001
0100
0001
0000
1000
0010
,
0100
0000
0010
0000
1000
0010
0000
1000
0001
0000
0100
0000
0001
1000
0000
0100
,
0010
0000
0100
0000
0010
0000
0001
0000
0100
0010
0100
0000
0001
0100
0001
0000
,
2000
0000
0100
0000
3010
0100
0001
0100
,
1000
0000
0100
0000
0001
0000
0100
0000
0001
0000
0010
0001
0010
0000
0100
0000
,
2000
0000
0010
0000
3100
0010
0100
1000
,
0001
0000
0010
0000
1000
0000
0010
0000
0001
0000
0100
0010
0100
0000
0010
0000
,
1000
0001
1000
0101
0000
1000
0001
1100
,
0000
0000
0010
0000
0100
0000
0001
0000
0010
0000
0000
0100
0010
0000
0100
0000
,
1000
0000
0100
0000
1000
0000
0100
0010
0100
0000
0010
0000
0001
0000
1000
0000
,
0000
0000
0001
0000
0100
0000
0010
0000
1000
0000
0100
1000
0100
0000
0010
0000
,
0001
0000
0100
0000
0001
0000
0100
0010
0100
0000
0001
0000
0010
0000
0100
0000
,
0000
0000
1000
0000
0100
0000
0010
0000
0001
0000
0010
0001
0010
0000
0100
0000
,
1000
0100
0001
0101
0000
0100
1000
1100
,
0000
0010
0100
0001
1100
0000
0101
0000
,
0010
0110
0000
1100
0000
0011
0000
0101
,
0000
0000
1000
0000
0010
0000
0100
0000
0010
0100
0010
0000
1000
0000
0000
0000
,
0001
0000
1000
0100
1000
0000
0100
0000
0010
0001
0010
0000
0001
0000
0100
0010
,
0100
0000
1000
0000
0100
0010
0100
0000
0001
0000
0010
0100
0010
0000
0001
0000
,
1000
0100
1000
0000
0010
0000
0100
0001
0100
0000
0010
0000
1000
0010
1000
0000
,
0001
0000
0010
0100
0010
0000
0100
0000
1000
0000
0100
0000
0010
0001
0010
0000
,
0200
0000
0000
1000
0000
0000
0001
0000
0000
0010
0000
0000
1300
0000
0000
0020
,
0000
0000
0001
0000
0000
1000
0000
0000
0100
0000
0000
0031
0000
0000
1000
0000
,
0001
0100
0001
0100
0000
0000
1000
0100
1000
0100
0000
0000
0001
0010
0001
0010
,
0000
0000
1000
0010
1000
0010
0000
0000
0001
0000
0010
0000
0110
0000
0000
0000
,
1001
0100
0010
0100
0001
0010
0100
1000
,
0100
0001
0100
0010
0001
0100
0010
1000
,
0010
0001
0010
0100
0010
0001
0010
1000
,
0100
0000
1000
0100
1000
0000
0010
0000
0000
0000
1000
0000
0010
0000
0100
0000
,
0001
0000
0001
0010
0010
0001
0010
0100
,
1000
0000
1000
0010
0010
1000
0010
0100
,
0001
0000
0000
0000
1000
0000
0100
0000
0100
0000
0010
0100
0010
0000
0001
0010
,
0001
0000
0000
0000
1001
0000
0000
0100
0001
0100
0001
0100
0001
0000
1000
0000
,
0100
0010
0001
0100
0001
0010
0100
1000
,
0001
1000
0100
0001
0100
1000
0100
0010
,
0001
0100
1000
0100
0001
0010
0100
1000
,
0001
0000
0010
0000
0100
0000
0010
0000
0001
0000
0010
0001
0010
0000
0100
0000
,
1000
0100
1000
0100
0010
0100
0001
0100
,
1000
0000
0001
0000
0100
0000
0001
0100
0001
0000
0100
0000
1000
0000
0100
0000
,
0001
0000
0100
0000
0001
0100
0000
0001
1000
0000
0100
0000
1000
0100
0000
1000
,
0001
0000
0000
0011
0000
0000
0110
0000
0000
1100
0000
0000
0101
0000
0000
0000
,
1000
0000
0100
0010
0100
0000
1000
0000
0001
0100
0001
0000
0100
0000
0010
1000
,
0010
0000
0100
0000
0001
0100
0001
0000
1000
0000
0001
0010
0001
0000
0010
0000
,
0100
1000
0100
0010
0001
0100
1000
0100
,
0001
0000
0000
0100
0000
0000
0010
0000
0000
1000
0000
0000
1001
0000
0110
0000
,
0000
0000
0000
0000
;
#NOTES:
     dance-double:
     :
     Easy:
     6:
     :
00000000
00000000
00000000
00000000
,
00000000
00000000
00000000
00000000
,
00000000
00000000
00000000
00000000
,
00000000
00000000
00000000
00000000
,
00000000
00000000
00000000
00000000
,
00010000
00000000
00100000
00000000
,
10000000
01000000
00010000
00010000
,
00001000
00000000
00010000
00000000
,
00100000
00010000
00001000
00010000
,
00011000
00000000
00000000
00000000
,
00000000
00000000
00000000
00000110
,
00000000
00000001
00000100
00001000
,
00020000
00030000
00010000
01000000
,
00000000
10000000
01000000
00010000
,
00002000
00003000
00001000
00010000
,
00001000
00000100
00000010
00000000
,
00000100
00001000
00010000
00001000
,
00010000
01000000
00100000
00000000
,
01000000
00010000
00001000
00010000
,
00001000
00000010
00000100
00000000
,
00000010
00001000
00010000
00001000
,
00020000
00030000
00200000
00300000
,
01000000
00100000
00010000
00001000
,
00010000
00001000
00000100
00000000
,
00000001
00000100
00001000
00010000
,
00001000
00010000
01000000
00000000
,
10000000
01000000
00010000
00001000
,
00000010
00000001
00000100
00000000
,
00001000
00010000
00100000
10000000
,
02000000
03000000
00020000
00030000
,
00002000
00003000
00000020
00000030
,
00000002
00000000
00000003
00000100
,
00001000
00010000
00001000
00000100
,
00002000
00000000
00003000
00010000
,
01000000
00010000
00001000
00010000
,
01000000
00000000
10000000
00000000
,
00100000
00010000
00001000
00000000
,
00010000
00001000
00000100
00000000
,
00000001
00000010
00001000
00010000
,
01000000
00100000
01000000
00000000
,
10000000
01000000
00010000
00001000
,
00020000
00000010
00031000
00010000
,
00100000
00010000
00001000
00010000
,
00002000
00100000
00013000
00001000
,
00000100
00000001
00000010
00001000
,
00010000
00000000
00000000
00000000
,
00000000
00000000
01000000
10000000
,
01000000
00000000
00010000
00000000
,
00001000
00000000
00000100
00000010
,
00000200
00000300
00002000
00000000
,
00000000
00003000
00010000
00010000
,
01000000
00000000
01000000
00010000
,
00000000
00010000
00001000
00000010
,
00000001
00000001
00000100
00000010
,
00000100
00001000
00010000
00001000
,
00010000
00100000
10000000
01000000
,
00010000
00001000
00000000
00001000
,
00020000
00030000
01000000
10000000
,
00200000
00300000
00010000
00001000
,
00000200
00000300
00000001
00000010
,
00002000
00003000
00010000
00011000
,
00000020
00000130
00000200
00001300
,
00002000
00013000
00020000
00130000
,
10000000
00100000
00010000
00001000
,
00000010
00001000
00010000
01000000
,
20000000
30000000
02000000
03000000
,
00020000
00030000
00001000
00000010
,
00000001
00000010
00001000
00010000
,
00001000
00000000
00000000
00100000
,
02000000
00000000
00000000
00000000
,
03000000
00000000
00000000
00000000
,
00010000
00010000
00001000
00001000
,
00000010
00000000
00000000
00001000
00000000
00000000
00010000
00000000
,
00000000
00000000
00000000
00000000
;
#NOTES:
     dance-double:
     :
     Medium:
     11:
     :
00000000
00000000
00000000
00000000
,
00000000
00000000
00000000
00000000
,
00000000
00000000
00000000
00000000
,
00000000
00000000
00000000
00000000
,
00000000
00000000
00000000
00000000
,
00000200
00000300
00000020
00000030
,
00001000
00011000
01010000
00011000
,
00000200
00000300
00000020
00000030
,
00000001
00000100
00001000
00010000
,
00001000
00010000
00001000
00000100
00000000
00000001
00000100
00000010
,
00000000
00000100
00001000
00010000
00000000
00001000
00010000
00001000
,
00010000
01000000
10000000
00100000
,
00010000
00001000
00010000
00001000
00000100
00000010
00000100
00000000
,
00000001
00000010
00001000
00010000
,
00100000
00000000
00000000
10000000
00000000
00000000
01000000
00000000
00000000
00010000
00000000
00000000
00001000
00000000
00000000
00000000
,
00000010
00000000
00000001
00000000
00000010
00001000
00010000
00001000
,
00000000
00001000
00010000
00001000
00000100
00000010
00000100
00000000
,
00000100
00000000
00001000
00000000
00010000
00001000
00010000
01000000
,
00000000
00100000
01000000
00100000
01000000
00010000
00001000
00010000
,
01000000
00000000
00010000
00000000
00010000
00001000
00010000
00001000
,
00000000
00001000
00000100
00000010
00000100
00001000
00010000
00000000
,
00001000
00000000
00000100
00000001
00000010
00000000
00001000
00000000
,
00010000
00011000
01010000
00011000
,
00000100
00000000
00000010
00000000
00000001
00000100
00001000
00000100
,
00000000
00000100
00001000
00010000
00100000
00010000
00001000
00000000
,
00001000
00000000
00010000
00000000
01000000
00100000
01000000
00010000
,
00000000
01000000
10000000
01000000
00010000
00001000
00010000
00001000
,
00000010
00000000
00000001
00000000
00000010
00000100
00000010
00001000
,
00000000
00001000
00010000
00001000
00010000
00100000
01000000
00100000
,
00010000
00000000
00010000
00001000
00000010
00000000
00000010
00000100
,
00001000
00000000
00001000
00000010
00000100
00000000
00000000
00000000
,
00001000
00000000
00011000
00000000
00000000
00010000
00001000
00000100
,
00000000
00000010
00000000
00000100
00000000
00000100
00001000
00010000
,
00001000
00000000
00011000
00000000
00000000
00001000
00010000
01000000
,
00000000
00100000
00000000
01000000
00000000
01000000
00010000
00001000
,
00010000
00000000
00000010
00000100
00000000
00001000
00010000
00001000
,
00000000
00000100
00000010
00000100
00000001
00000000
00000010
00000000
,
00001000
00000000
00010000
00000000
00100000
01000000
00100000
00010000
,
00000000
00001000
00010000
00001000
00010000
00001000
00000010
00001000
,
00000010
00000000
00001000
00000000
00010000
00001000
00010000
00000010
,
00000000
00000100
00000010
00000100
00001000
00010000
00001000
00010000
,
01000000
00010000
01000000
00010000
00000000
00001000
00010000
00001000
,
00000000
00001000
00000010
00000100
00000010
00000000
00001000
00000000
,
00010000
00100000
01000000
00100000
00000000
00100000
00010000
00001000
,
00000000
00001000
00000100
00000010
00000100
00000000
00001000
00000000
,
00020000
00001000
00000000
00001000
,
00000000
00031000
00001000
00000010
,
00000001
00000000
00000100
00000010
00000000
00000100
00001000
00000000
,
00001000
00010000
00000000
00010000
00001000
00000000
00010000
00000000
,
01000000
00000000
00000000
10000000
00000000
00000000
00100000
00000000
00000000
00010000
00000000
00000000
00001000
00000000
00000000
00000010
,
00000000
00000000
00001000
00000000
00000000
00010000
00000000
00000000
00001000
00000000
00000000
00100000
00000000
00000000
00001000
00000000
,
00010000
00001000
00000000
00001000
00010000
00000000
01000000
00100000
,
00000000
00100000
01000000
00000000
10000000
00000000
01000000
00000000
,
00010000
00001000
00010000
00001000
00000000
00001000
00000100
00000010
,
00000000
00000010
00000100
00001000
00000000
00001000
00010000
00001000
,
00000000
00100000
00001000
00010000
00100000
00010000
00001000
00010000
,
00100000
01000000
00100000
01000000
00000000
01000000
00010000
00000000
,
00100000
00000000
00100000
01000000
00010000
00000000
00010000
00001000
,
00010000
00000000
00001000
00010000
00000100
00000000
00000010
00000100
,
00000010
00000000
00000001
00000100
00000001
00000000
00000100
00000000
,
00001000
00000000
00010000
00100000
,
10000000
01000000
10000000
01000000
00000000
01000000
00010000
00001000
,
00000000
00001000
00010000
00100000
00000000
00100000
00010000
00001000
,
00000000
00001000
00000010
00000100
00000010
00001000
00010000
00001000
,
00010000
01000000
00010000
01000000
00010000
00001000
00010000
00001000
,
00000010
00000001
00000100
00001000
,
00020000
00030000
00100000
00010000
,
00001000
00010000
00001000
00010000
00001000
00000100
00000010
00000100
,
00000010
00000000
00000000
00000100
00000000
00000000
00001000
00000000
00000000
00010000
00000000
00000000
01000000
00000000
00000000
00000000
,
10000000
00100000
00010000
00000000
00100000
00010000
00001000
00000000
,
00010000
00001000
00100000
00000000
00001000
00010000
00001000
00000000
,
00001000
00000010
00000100
00001000
00000010
00000100
00001000
00010000
,
00100000
00000000
00000000
00010000
00000000
00000000
00001000
00000000
00000000
00010000
00000000
00000000
01000000
00000000
00100000
00000000
,
00000000
00000000
00000000
00000000
;
#NOTES:
     dance-double:
     :
     Hard:
     15:
     :
00000000
00000000
00000000
00000000
,
00000000
00000000
00000000
00000000
,
00000000
00000000
00000000
00000000
,
00000000
00000000
00000000
00000000
,
00000000
00000000
00000000
00000000
,
00010000
00001000
00010000
00001000
00010000
00000000
00000100
00000000
00000010
00000100
00000010
00000100
00000010
00000000
00001000
00000000
,
00010000
00001000
00010000
00000000
00001000
00000100
00000010
00000000
,
00000100
00000001
00000100
00000001
00000100
00000000
00001000
00000000
00010000
00001000
00010000
00001000
00010000
00000000
01000000
00000000
,
00100000
00000000
00001000
00000000
00010000
00000000
00100000
00000000
00010000
00000000
00000000
00001000
00010000
00000000
00000000
00000000
,
00001000
00000100
00000001
00000200
00000300
00001000
00010000
00200000
,
00300000
00010000
00001000
00000020
00000030
00001000
00010000
00000000
,
00010000
01000000
10000000
00100000
00010000
00001000
00000010
00000001
,
00000100
00000000
00001000
00000000
00010000
00000000
00001000
00010000
00001000
00000000
00000100
00000000
00000001
00000000
00000010
00000000
,
00001000
00000000
00010000
00000000
01000000
00000000
00010000
00000000
00001000
00000000
00000010
00000000
00000001
00000100
00000001
00000000
,
00000100
00000000
00000000
00011000
00000000
00000000
01010000
00000000
00000000
01100000
00000000
00000000
00011000
00000000
00000000
00000000
,
00001000
00000000
00000010
00000001
00000010
00001000
00010000
01000000
,
10000000
00100000
01000000
00100000
00010000
00001000
00000010
00000001
,
00000100
00000000
00001000
00010000
00100000
10000000
01000000
00010000
,
00001000
00000000
00000010
00000000
00001000
00000000
00010000
00000000
00001000
00000000
00000100
00000000
00000001
00000000
00000010
00000100
,
00000010
00000000
00001000
00010000
00100000
10000000
00100000
00010000
,
00001000
00000000
00000100
00000000
00000001
00000000
00000010
00000000
00001000
00000000
00010000
00000000
01000000
00000000
00100000
01000000
,
00100000
00000000
00000000
00000000
01000000
00000000
00010000
00000000
00001000
00000000
00000000
00000000
00010000
00000000
00001000
00010000
,
00001000
00000000
00000000
00000000
00000110
00000000
00000000
00000000
00000001
00000000
00000010
00000100
00000010
00000000
00000000
00000000
,
00001001
00000000
00000100
00001000
00010000
00100000
10000000
00100000
,
00010000
00001000
00010000
01000000
00010000
00001000
00000100
00000001
,
00000010
00000000
00001000
00010000
00001000
01000000
10000000
01000000
,
00010000
00000000
00100000
00000000
01000000
00000000
00010000
00000000
00001000
00000000
00000100
00000000
00000010
00000000
00000100
00000010
,
00000100
00000000
00001000
00010000
00001000
00100000
01000000
10000000
,
00100000
00000000
00010000
00000000
00001000
00000000
00000010
00000000
00000001
00000000
00000010
00000000
00001000
00000000
00010000
00001000
,
00010000
00000000
00001000
00000000
00000100
00000010
00000000
00000100
00000001
00000000
00000010
00000000
00001000
00010000
00000000
00001000
,
00100000
00000000
01000000
00000000
00100000
00000000
00001000
00000000
00010000
00001000
00010000
00000000
00001000
00010000
00001000
00000000
,
00020000
00000000
01000000
00000000
00031000
00000010
00000001
00000100
,
00001000
00000000
00010000
00000000
00100000
00000000
00010000
00000000
00001000
00000000
00010000
00001000
00010000
00000000
00000100
00000000
,
00020000
00000000
00001000
00000000
01030000
10000000
00100000
00010000
,
00001000
00000000
00000100
00000000
00000010
00000000
00000100
00000000
00001000
00000000
00010000
00001000
00010000
00000000
00001000
00000000
,
00010000
00001000
00000100
00000001
00000000
00001000
00010000
01000000
,
00000000
00000000
00001000
00000000
00010000
00000000
00001000
00000000
00100000
00000000
00000000
00001000
00010000
00000000
00001000
00000000
,
00000100
00000000
00000010
00000000
00000100
00000000
00000001
00000100
00000001
00000000
00000010
00000000
00001000
00000000
00010000
00000000
,
00000000
00000000
00001000
00000000
00010000
00000000
00000100
00000000
00000010
00000000
00001000
00010000
00001000
00000000
00010000
00000000
,
00100000
00000000
01000000
00000000
00010000
00000000
01000000
00010000
01000000
00000000
00100000
00000000
00010000
00000000
00001000
00000000
,
00000000
00000000
00000100
00000000
00000010
00000000
00000001
00000000
00000010
00000000
00001000
00000010
00001000
00000000
00000100
00000000
,
00010000
00001000
00010000
01000000
00000000
10000000
00100000
00010000
,
00000000
00001000
00000010
00000001
00000100
00000000
00001000
00000000
,
00100000
01000000
00000000
00011000
00000000
00000110
00000000
00011000
,
00000000
00000000
00100000
00000000
00010000
00000000
00001000
00000000
00010000
00001000
00010000
00000000
00000100
00000000
00000000
00000000
,
00000010
00000000
00001000
00010000
00001000
00000000
00100000
00000000
00001000
00010000
00001000
00000000
01000000
00000000
00001000
00010000
,
00001000
00000000
00000100
00000000
00000010
00000100
00000010
00000000
00000100
00000000
00001000
00010000
00001000
00000000
00010000
00000000
,
01000000
00100000
01000000
00000000
00100000
00000000
00001000
00010000
00001000
00000000
00010000
00000000
00100000
01000000
00100000
00000000
,
00010000
00000000
00001000
00010000
00001000
00000000
00010000
00000000
00001000
00000000
00000010
00000000
00000100
00000010
00000100
00000000
,
00000001
00000000
00000000
00001100
00000000
00000000
00011000
00000000
00000000
00101000
00000000
00000000
01100000
00000000
00000000
11000000
,
00000000
00000000
01010000
00000000
00000000
00011000
00000000
00000000
00001010
00000000
00000000
00000110
00000000
00000000
00001100
00000000
,
00010000
00001000
00010000
00001000
00000000
00000000
00001000
00000100
00001000
00000100
00000000
00000000
00000010
00000001
00000010
00000001
,
00000000
00000000
00000100
00000010
00000100
00000010
00000000
00000000
00001000
00000000
00010000
00001000
00010000
00000000
00000000
00000000
,
00001000
00010000
01000000
10000000
01000000
00010000
00001000
00010000
,
00001000
00000100
00000001
00000010
00001000
00010000
00001000
00000010
,
00000001
00000010
00001000
00010000
00100000
00010000
00001000
00000100
,
00000001
00000000
00000100
00000010
00000100
00000000
00000001
00000000
00000000
00000000
00000100
00000000
00001000
00000000
00010000
00000000
,
00100000
00000000
00010000
00001000
01000000
00100000
00010000
00001000
,
00000010
00000000
00001000
00010000
00100000
10000000
01000000
00010000
,
00001000
00000000
00000000
00000000
00000010
00000000
00000001
00000000
00000010
00000000
00000100
00000010
00000100
00000000
00001000
00000100
,
00001000
00000000
00000000
00000000
00011000
00000000
00000000
01000000
00100000
01000000
00100000
01000000
00100000
00000000
10000000
00000000
,
01000000
00010000
00001000
00000010
00001000
00010000
00001000
00000100
,
00001000
00010000
01000000
00010000
00001000
00010000
00100000
00010000
,
00001000
00000100
00000001
00000010
00001000
00010000
01000000
10000000
,
00100000
00000000
00010000
00000000
00001000
00000000
00000100
00000000
00000001
00000000
00000100
00000010
00000100
00000000
00000010
00000000
,
00000100
00001000
00010000
00000000
00010000
01000000
10000000
00000000
,
10000000
00000000
00100000
00000000
00010000
00000000
00001000
00010000
00001000
00000000
00000100
00000000
00000001
00000000
00000100
00000000
,
00001000
00000000
00010000
00000000
00001000
00010000
00000000
01000000
00100000
00000000
01000000
00000000
00010000
00001000
00000000
00001000
,
00010000
00000000
00000000
00101000
00000000
00000000
00011000
00000000
00000000
00010100
00000000
00000000
00000110
00000000
00000000
00000000
,
00000001
00000000
00000010
00000100
00000010
00000000
00000100
00000000
00010000
00001000
00010000
00000000
00001000
00000000
01000000
00010000
,
01000000
00000000
00100000
00000000
00010000
00001000
00010000
00000000
00001000
00000000
00000100
00000010
00000100
00000000
00000010
00000000
,
00000100
00001000
00010000
00100000
00010000
00001000
00010000
01000000
,
00010000
00000000
00000000
00001000
00000000
00000000
00000110
00000000
00000000
00011000
00000000
00000000
00000100
00000000
00000110
00000000
,
00000000
00000000
00000000
00000000
;
