#TITLE:SABER WING (satellite silhouette remix);
#ARTIST:TAG;
#BANNER:SABER WING (satellite silhouette remix).png;
#BACKGROUND:SABER WING (satellite silhouette remix)-bg.png;
#CDTITLE:./CDTitles/DDR (2014).png;
#MUSIC:SABER WING (satellite silhouette remix).ogg;
#SAMPLESTART:3.473;
#SAMPLELENGTH:15;
#DISPLAYBPM:138;
#BPMS:0=138;
#NOTES:
     dance-single:
     :
     Beginner:
     2:
     :
0000
0000
0000
0000
,
0000
0000
0000
0000
,
0000
0000
0000
0000
,
0000
0000
0000
0000
,
0000
0000
0000
0000
,
0000
0000
0000
0000
,
1000
0000
0000
0000
,
1000
0000
0000
0000
,
0001
0000
0000
0000
,
0001
0000
0000
0000
,
1000
0000
1000
0000
,
1000
0000
0000
0000
,
0001
0000
0001
0000
,
0001
0000
0000
0000
,
0010
0000
0010
0000
,
0010
0000
0000
0000
,
0100
0000
0100
0000
,
0100
0000
0000
0000
,
1000
0000
1000
0000
,
0001
0000
0001
0000
,
0010
0000
0010
0000
,
0100
0000
0100
0000
,
1000
1000
0000
0000
,
0001
0001
0000
0000
,
1000
1000
0000
0000
,
0000
0000
1001
0000
,
0010
0000
0000
0000
,
0100
0000
0000
0000
,
0010
0000
0000
0000
,
0100
0000
0000
0000
,
0001
0000
0000
0000
,
1000
0000
0000
0000
,
0001
0000
0000
0000
,
1000
0000
0000
0000
,
0010
0000
0010
0000
,
0010
0000
0000
0000
,
0100
0000
0100
0000
,
0100
0000
0000
0000
,
0010
0010
0010
0000
,
0000
0000
0000
0000
,
0100
0100
0100
0000
,
0000
0000
0000
0000
,
1001
0000
0000
0000
,
0000
0000
0000
0000
,
1000
0000
1000
0000
,
1000
1000
1000
0000
,
0001
0000
0001
0000
,
0001
0001
0001
0000
,
0010
0000
0010
0000
,
0010
0010
0010
0000
,
0100
0000
0100
0000
,
0100
0100
0100
0000
,
0001
0001
0001
0000
,
0002
0000
0003
0000
,
1000
1000
1000
0000
,
2000
0000
3000
0000
,
0010
0010
0010
0000
,
0020
0000
0030
0000
,
0100
0100
0100
0000
,
0200
0000
0300
0000
,
1001
0000
0000
0000
,
0000
0000
0000
0000
;
#NOTES:
     dance-single:
     :
     Easy:
     4:
     :
0000
0000
0000
0000
,
0000
0000
0000
0000
,
0000
0000
0000
0000
,
0000
0000
0000
0000
,
0000
0000
0000
0000
,
0000
0000
0000
0000
,
0001
0000
1000
0000
,
0100
0000
0010
0000
,
1000
0000
0001
0000
,
1000
0000
0000
0000
,
0010
0010
1000
0000
,
0001
0001
1000
0000
,
1000
1000
0001
0000
,
0100
0100
0010
0000
,
0010
1000
0001
0000
,
1000
0001
0010
0000
,
1000
0010
1000
0000
,
0001
1000
1001
0000
,
0010
0010
1000
0000
,
0001
0001
0100
0000
,
1000
1000
0001
0000
,
1000
0000
0001
0000
,
0100
0100
0001
0000
,
1000
1000
0010
0000
,
1000
1000
0001
0000
,
1000
0001
1001
0000
,
0020
0000
0000
0030
,
2000
0000
0000
3000
,
0002
0000
0000
0003
,
0200
0000
0000
0300
,
0002
0000
0000
0003
,
0020
0000
0000
0030
,
2000
0000
0000
3000
,
0200
0000
0000
0300
,
1000
0010
1000
0000
,
0010
0100
0010
0000
,
0001
0100
0001
0000
,
0010
0100
0010
0000
,
1000
0001
1000
0000
,
0010
1000
0010
0000
,
0001
1000
0001
0000
,
0100
0001
0100
0000
,
1001
0000
0000
0000
,
0000
0000
0000
0000
,
0001
0000
0010
0000
,
1000
0100
0001
0000
,
0010
0000
0100
0000
,
0001
0100
1000
0000
,
0010
0000
0100
0000
,
0010
0001
0100
0000
,
1000
0000
0001
0000
,
0100
0001
1000
0000
,
1000
0100
0010
0000
,
0010
0001
0100
0000
,
0001
0001
1000
0000
,
0010
0100
0010
0000
,
0001
0001
0001
0001
,
1000
1000
1000
1000
,
0001
0001
1000
1000
,
0001
1000
1001
0000
,
0110
0000
0000
0000
,
0000
0000
0000
0000
;
#NOTES:
     dance-single:
     :
     Medium:
     9:
     :
0000
0000
0000
0000
,
0000
0000
0000
0000
,
0000
0000
0000
0000
,
0000
0000
0000
0000
,
0000
0000
0000
0000
,
0000
0000
0000
0000
,
1000
0000
0000
0000
0001
0000
0000
1000
0000
0000
0001
0000
1000
0000
0000
0000
,
0010
0000
0000
0000
1000
0000
0000
0001
0000
0000
1000
0000
0100
0000
0000
0000
,
1000
0000
0000
0000
0010
0000
0000
0100
0000
0000
0001
0000
1000
0000
0000
0000
,
0001
0000
0000
0000
1000
0000
0000
0001
0000
0000
0010
0000
0100
0000
0000
0000
,
0001
0000
0000
0100
0001
0000
0000
0100
,
0001
0000
0000
1000
0001
0000
1000
0000
0001
0000
0000
0000
0000
0000
0100
0000
,
1000
0000
0000
0001
1000
0000
0000
0100
,
1000
0000
0000
0001
0000
0000
1000
0000
0000
0000
0110
0000
0000
0000
0001
0000
,
1000
0000
0000
0100
1000
0000
0000
0100
,
1000
0000
0000
0001
1000
0000
0001
0000
0100
0000
0000
0000
0000
0000
0001
0000
,
1000
0000
0000
0001
0010
0000
0000
0100
,
0010
0000
0000
0010
0000
0000
0100
0000
0010
0000
0000
0000
0000
0000
0000
0000
,
1000
0000
0000
0000
0010
0000
0000
0001
0000
0000
0000
0000
1000
0000
0100
0000
,
1000
0000
0000
0000
0001
0000
0000
0001
0000
0000
0000
0000
1000
0000
0100
0000
,
1000
0000
0000
0000
0010
0000
0000
0001
0000
0000
0000
0000
1000
0000
0001
0000
,
1000
0000
0000
0000
0100
0000
0000
0001
0000
0000
0100
0000
0001
0000
0000
0000
,
1000
0000
0000
0000
0100
0000
0000
0001
0000
0000
0000
0000
0100
0000
0001
0000
,
0010
0000
0000
0000
0001
0000
0000
0001
0000
0000
0000
0000
1000
0000
0001
0000
,
1000
0000
0000
0000
0001
0000
0000
1000
0000
0000
0000
0000
0001
0000
0100
0000
,
0000
0000
0001
0000
0000
1000
0000
0000
1001
0000
0000
0000
0000
0000
0000
0000
,
0020
0001
0100
1000
,
0100
0001
0100
0031
,
0200
0001
0010
1000
,
0001
1000
0001
1300
,
0002
0010
1000
0100
,
0010
0100
0010
0103
,
2000
0010
0001
0100
,
0010
0100
0010
3100
,
0001
0000
0000
0000
0010
0000
0000
0001
0000
0000
1000
0000
0001
0000
0000
0000
,
0100
0000
0000
0000
0010
0000
0000
1000
0000
0000
0001
0000
1000
0000
0000
0000
,
0100
0000
0000
0000
1000
0000
0000
0010
0000
0000
1000
0000
0010
0000
0000
0000
,
0001
0000
0000
0000
1000
0000
0000
0100
0000
0000
1000
0000
0100
0000
0000
0000
,
1000
0000
0000
0000
0010
0000
0000
0100
0000
0000
0001
0000
1000
0000
0000
0000
,
0100
0000
0000
0000
1000
0000
0000
0001
0000
0000
0100
0000
0001
0000
0000
0000
,
0010
0000
0000
0000
0100
0000
0000
1000
0000
0000
0001
0000
1000
0000
0000
0000
,
0001
0000
0000
0000
0010
0000
0000
0001
0000
0000
1000
0000
0100
0000
0000
0000
,
2002
0000
0000
0000
,
0000
0000
0000
0000
0000
0000
3003
0001
,
1000
0000
0000
0100
1000
0000
0000
0001
,
1000
0000
0000
0001
1000
0000
0001
0000
1000
0000
0000
0000
0000
0000
0100
0000
,
1000
0000
0000
0100
0010
0000
0000
0001
,
1000
0000
0000
0001
0000
0000
1000
0000
0000
0000
0110
0000
0000
0000
0001
0000
,
0010
0000
0000
1000
0001
0000
0000
1000
,
0001
0000
0000
1000
0001
0000
0010
0000
0100
0000
0000
0000
0000
0000
1000
0000
,
0001
0000
0000
0100
0001
0000
0000
1000
,
0010
0000
0000
0010
0000
0000
0100
0000
0010
0000
0000
0000
1000
0000
0001
0000
,
1000
0000
0000
0000
0001
0010
0000
0001
0000
0000
0000
0000
0100
0000
0001
0000
,
1000
0000
0000
0000
0001
1000
0000
0001
0000
0000
0000
0000
0000
0000
1000
0000
,
0100
0000
0000
0000
1000
0010
0000
1000
0000
0000
0000
0000
0100
0000
1000
0000
,
0001
0000
0000
0000
0001
1000
0000
0002
0000
0000
0000
0000
0003
0000
0100
0000
,
0001
0100
1000
0000
1000
0100
0001
0000
,
0001
0010
1000
0000
1000
0010
0001
0000
,
0010
0100
0010
0100
0001
1000
0100
0000
,
0100
0000
0000
0000
1000
0001
0000
0000
0100
0000
0000
0000
0010
0000
0000
0000
,
1001
0000
0000
0000
,
0000
0000
0000
0000
;
#NOTES:
     dance-single:
     :
     Hard:
     12:
     :
0000
0000
0000
0000
,
0000
0000
0000
0000
,
0000
0000
0000
0000
,
0000
0000
0000
0000
,
0000
0000
0000
0000
,
0000
0000
0000
0000
,
0010
1000
0010
0000
1000
0000
0100
0000
,
0010
0001
0010
0000
0001
0000
0100
0000
,
1000
0000
0000
0000
0100
1000
0000
0010
0000
0000
0000
0000
0100
0000
0001
0000
,
0101
0000
0000
0001
0000
0000
0011
0000
0000
0000
0000
0000
0000
0000
0001
0000
,
0010
0000
0000
1000
0010
0000
0001
0000
1000
0000
0000
0010
0001
0000
0010
0000
,
1000
0000
0000
0100
0000
0000
0010
0000
0001
0000
0000
0000
0000
0000
0010
0000
,
0001
0000
0000
0100
1000
0000
0100
0000
0001
0000
0000
0010
1000
0000
0010
0000
,
0001
0000
0000
1000
0000
0000
0100
0000
0010
0000
0011
0000
0000
0000
1000
0000
,
0010
0000
0000
0001
0010
0000
1000
0000
0001
0000
0000
0010
1000
0000
0010
0000
,
0001
0000
0000
0100
0000
0000
0010
0000
1000
0000
0000
0000
0000
0000
0010
0000
,
1000
0000
0000
0100
0001
0000
0100
0000
1000
0000
0000
0010
0001
0000
0010
0000
,
1000
0000
0000
0001
0000
0000
0010
0000
0200
0000
0000
0000
0300
0000
0000
0000
,
0010
0000
0001
0000
1000
0010
0000
1000
0000
0000
0100
0000
0010
0000
0001
0000
,
0100
0000
1000
0000
0100
0001
0000
0010
0000
0000
0100
0000
1000
0000
0010
0000
,
0100
0000
0001
0000
0010
1000
0000
0010
0000
0000
0001
0000
0100
0000
0010
0000
,
2000
0000
0000
0100
3000
0000
0100
0010
0001
0000
0100
0000
1000
0000
0100
0000
,
0010
0000
1000
0000
0001
0010
0000
0001
0000
0000
0100
0000
0010
0000
1000
0000
,
0100
0000
0001
0000
0100
1000
0000
0010
0000
0000
0100
0000
0001
0000
0010
0000
,
0100
0000
1000
0000
0010
0001
0000
0010
0000
0000
1000
0000
0100
0000
0001
0000
,
0100
0000
1000
0000
0000
0001
0000
0000
2002
0000
0000
0000
3003
0000
0000
0000
,
0001
0010
0000
0000
0100
1000
0000
0000
0010
1000
0000
0000
0001
0100
0000
0000
,
0001
0010
0000
0000
0100
1000
0000
0000
0010
1000
0000
0000
0001
0100
0000
0000
,
1000
0100
0000
0000
0001
0010
0000
0000
1000
0010
0000
0000
0001
0100
0000
0000
,
1000
0100
0000
0000
0001
0010
0000
0000
1000
0010
0000
0000
0001
0100
0000
0000
,
1000
0010
0000
0000
0100
0001
0000
0000
0010
0001
0000
0000
1000
0100
0000
0000
,
1000
0010
0000
0000
0100
0001
0000
0000
0010
0001
0000
0000
1000
0100
0000
0000
,
0001
0100
0000
0000
1000
0010
0000
0000
0001
0010
0000
0000
1000
0100
0000
0000
,
0001
0100
0000
0000
1000
0010
0000
0000
0001
0010
0000
0000
1000
0100
0000
0000
,
0010
0001
0000
0000
0100
0000
0000
0000
0010
1000
0000
0000
0100
0000
0000
0000
,
0010
0001
0000
0000
0100
0000
0000
0000
0010
1000
0000
0000
0100
0000
0000
0000
,
0001
0100
0000
0000
1000
0000
0000
0000
0010
0001
0000
0000
0010
0000
0000
0000
,
1000
0100
0000
0000
0001
0000
0000
0000
0100
1000
0000
0000
0001
0100
0000
0000
,
0010
1000
0000
0000
0100
0000
0000
0000
0010
0001
0000
0000
0100
0000
0000
0000
,
0010
1000
0000
0000
0100
0000
0000
0000
0010
0001
0000
0000
0100
0000
0000
0000
,
1000
0100
0000
0000
0001
0000
0000
0000
0010
1000
0000
0000
0010
0000
0000
0000
,
0001
0100
0000
0000
1000
0000
0000
0000
0100
1000
0000
0000
0001
0000
0010
0000
,
0200
0000
2000
0300
,
3002
0000
0203
0000
0320
0000
1030
0001
,
0010
0000
0000
1000
0010
0000
0001
0000
1000
0000
0000
0010
0001
0000
0010
0000
,
1000
0000
0000
0100
0000
0000
0010
0000
0001
0000
0000
0000
0000
0000
0010
0000
,
0001
0000
0000
0100
1000
0000
0100
0000
0001
0000
0000
0010
1000
0000
0010
0000
,
0001
0000
0000
1000
0000
0000
0100
0000
0010
0000
0011
0000
0000
0000
1000
0000
,
0010
0000
0000
0001
0010
0000
1000
0000
0001
0000
0000
0010
1000
0000
0010
0000
,
0001
0000
0000
0100
0000
0000
0010
0000
1000
0000
0000
0000
0000
0000
0010
0000
,
1000
0000
0000
0100
0001
0000
0100
0000
1000
0000
0000
0010
0001
0000
0010
0000
,
1000
0000
0000
0001
0000
0000
0100
0000
0101
0000
0000
0000
0000
0000
1000
0000
,
0200
0000
0010
0300
0001
0100
0000
0002
0000
0000
0010
0000
1003
0000
0200
0000
,
0001
0000
0310
0000
1000
0010
0000
2000
0000
0000
0000
0000
3000
0000
1000
0000
,
0020
0000
0100
0030
1000
0010
0000
2000
0000
0000
0100
0000
3001
0000
0020
0000
,
1000
0000
0130
0000
0001
0100
0000
0002
0000
0000
0000
0000
0003
0000
0001
0000
,
0100
0000
0010
0000
0001
0100
0000
0001
0100
0000
0010
0000
1000
0100
0000
1000
,
0100
0000
0010
0000
0001
0100
0000
0001
0100
0000
0010
0000
1000
0100
0000
1000
,
0100
0000
0010
0001
0010
0000
0001
1000
0001
0000
1000
0100
1000
0000
0000
0000
,
0010
0000
1000
0000
0001
0010
0000
0000
0200
0000
0000
0000
1300
0000
0000
0000
,
2002
0000
0000
3003
,
0000
0000
0000
0000
;
#NOTES:
     dance-single:
     :
     Challenge:
     15:
     :
0000
0000
0000
0000
,
0000
0000
0000
0000
,
0000
0000
0000
0000
,
0000
0000
0000
0000
,
0000
0000
0000
0000
,
0000
0000
0000
0000
,
0010
0000
0001
0000
0100
0010
0000
1000
0000
0000
0100
0000
0010
0000
0100
0000
,
1000
0000
0010
0000
0100
0001
0000
0010
0000
0000
1000
0000
0010
0000
0001
0000
,
1000
0000
0000
0000
0000
0000
1000
0000
0000
0000
0000
0000
0001
0000
0000
1000
0000
0000
0000
0000
0000
0001
0000
0000
0000
0000
0000
0000
0000
0000
0100
0000
0001
0000
0100
0000
0001
0000
0000
0000
0000
0000
1000
0000
0000
0000
0000
0000
,
0100
0000
0000
0010
0000
0000
0110
0000
0000
0000
0000
0000
0100
0000
0010
0000
,
1001
0000
0010
0100
1001
0000
0100
0010
,
1001
0000
1000
0100
0000
0100
0010
0000
0001
0000
0000
0000
0100
0000
0010
0000
,
1001
0000
0010
0100
1001
0000
0100
0010
,
1001
0000
0001
0100
0000
0100
0010
0000
1000
0000
1100
0000
0000
0000
0001
0000
,
0110
0000
0001
1000
0110
0000
1000
0001
,
0110
0000
0010
0100
0000
0100
1000
0000
0001
0000
0000
0000
1000
0000
0010
0000
,
0110
0000
1000
0001
0110
0000
0001
1000
,
0110
0000
0000
0001
0000
0000
1100
0000
0202
0000
0000
0000
0303
0000
0000
0000
,
0010
0000
1000
0000
0001
0010
0100
0010
0000
1000
0010
0000
0001
0000
0100
0000
,
0010
0000
1000
0000
0010
0100
0010
0001
0000
0010
0100
0000
0010
0000
1000
0000
,
0001
0000
0000
0000
0000
0000
1000
0000
0000
0000
0000
0000
0100
0000
0000
0010
0000
0000
0001
0000
0000
0010
0000
0000
0000
0000
0000
0000
0000
0000
0100
0000
1000
0000
0100
0000
1000
0000
0000
0000
0000
0000
0001
0000
0000
0000
0000
0000
,
1000
0000
0000
1001
0000
0000
0010
0100
0001
0000
0010
0000
0001
0000
1000
0000
,
0100
0000
0010
0000
0100
0001
0100
0010
0000
0100
1000
0000
0001
0000
1000
0000
,
0010
0000
1000
0000
0010
0100
0010
0001
0000
0010
0100
0000
0010
0000
1000
0000
,
0100
0000
0000
0000
0000
0000
0100
0000
0000
0000
0000
0000
0010
0000
0000
0100
0000
0000
0000
0000
0000
1100
0000
0000
0000
0000
0000
0000
0000
0000
0001
0000
0100
0000
0001
0000
0100
0000
0000
0000
0000
0000
0010
0000
0000
0000
0000
0000
,
0100
0000
0101
0000
0000
1100
0000
0000
0220
0000
0000
0000
0330
0000
0000
0000
,
0001
0010
0001
0000
0010
0100
0010
0000
0100
1000
0100
0000
1000
0001
1000
0000
,
0001
0100
0001
0000
0100
0010
0100
0000
0010
1000
0010
0000
1000
0001
1000
0000
,
0010
1000
0001
0000
1000
0001
0100
0000
0001
0100
0010
0000
0100
0010
1000
0000
,
0010
1000
0001
0000
1000
0001
0010
0000
0001
0010
0100
0000
0010
0100
1000
0100
,
0010
0000
0001
0100
0001
0000
0001
0100
0001
0000
0001
0100
0001
1000
0010
1000
,
0001
0000
1000
0100
1000
0000
1000
0100
1000
0000
1000
0100
1000
0001
0100
0001
,
1000
0000
0001
1000
0100
0000
1000
0100
0010
0000
0100
0010
0100
0000
0010
0100
,
1000
0100
0000
0010
0100
0000
0001
0100
0000
0010
0100
0000
1000
0000
0000
0000
,
0001
0010
0100
1000
0001
0010
0100
1000
0001
0010
0100
1000
0001
0010
0100
1000
,
0001
0010
0100
1000
0001
0010
0100
1000
0001
0010
0100
1000
0001
0010
0100
1000
,
0010
0100
0001
1000
0010
0100
0001
1000
0010
0100
0001
1000
0010
0100
0001
1000
,
0010
0100
0001
1000
0010
0100
0001
1000
0010
0100
0001
1000
0010
0100
0001
1000
,
0100
0010
0001
1000
0100
0010
0001
1000
0100
0010
0001
1000
0100
0010
0001
1000
,
0100
0010
0001
1000
0100
0010
0001
1000
0100
0010
0001
1000
0100
0010
0001
1000
,
0010
1000
0001
0100
0010
1000
0001
0100
0010
1000
0001
0100
0010
1000
0001
0100
,
0010
1000
0001
0100
0010
1000
0001
0100
0010
1000
0001
0100
0010
1000
0001
0100
,
0020
0000
0000
0000
,
0000
0000
0000
0000
0000
0000
0030
0010
,
1001
0000
0010
0100
1001
0000
0100
0010
,
1001
0000
0001
0100
0000
0100
0010
0000
1000
0000
0000
0000
0100
0000
0010
0000
,
1001
0000
0010
0100
1001
0000
0100
0010
,
1001
0000
1000
0100
0000
0100
0010
0000
0001
0000
0101
0000
0000
0000
1000
0000
,
0110
0000
1000
0001
0110
0000
0001
1000
,
0110
0000
0010
0100
0000
0100
0001
0000
1000
0000
0000
0000
0001
0000
0010
0000
,
0110
0000
0001
1000
0110
0000
1000
0001
,
0110
0000
0100
0010
0000
0010
1000
0000
1001
0000
0000
0000
0000
0000
0001
0000
,
0010
0000
0010
0000
0100
1000
0100
1000
0000
0000
0001
0000
1000
0001
0010
0000
,
0100
0000
0100
0000
0010
0001
0000
0200
0000
0000
0000
0000
0300
0000
0100
0000
,
0010
0000
0010
0000
0100
0001
0100
0001
0000
0000
1000
0000
0001
1000
0010
0000
,
0100
0000
0100
0000
0010
1000
0000
0200
0000
0000
0000
0000
0300
0000
0010
0000
,
0100
0000
0100
0000
0010
0001
0000
0001
0100
0000
0100
0000
0010
1000
0000
1000
,
0100
0000
0100
0000
0010
0001
0000
0001
0100
0000
0100
0000
0010
1000
0000
1000
,
0001
0000
0010
0001
0100
0000
0010
1000
0100
0000
0010
0001
0100
0000
0100
0000
,
0010
0000
0010
0000
1000
0010
0000
0100
0001
0000
0000
0000
1000
0000
0000
0000
,
0220
0000
0000
0330
,
0000
0000
0000
0000
;
#NOTES:
     dance-double:
     :
     Easy:
     6:
     :
00000000
00000000
00000000
00000000
,
00000000
00000000
00000000
00000000
,
00000000
00000000
00000000
00000000
,
00000000
00000000
00000000
00000000
,
00000000
00000000
00000000
00000000
,
00000000
00000000
00000000
00000000
,
00100000
00000000
00100000
00000000
,
10000000
00000000
10000000
00000000
,
00010000
00000000
00010000
00000000
,
01000000
00010000
01000000
00000000
,
00001000
00001000
00010000
00000000
,
00000010
00001000
00000001
00000000
,
00000010
00000010
00000001
00000000
,
00001000
00000100
00001000
00000000
,
00010000
00010000
00001000
00000000
,
00100000
00010000
01000000
00000000
,
10000000
10000000
00100000
00000000
,
01000000
00010000
00001000
00000000
,
00000010
00001000
00000010
00000000
00001000
00000000
00000000
00000000
,
00000001
00000100
00000001
00000000
00000100
00000000
00000000
00000000
,
00000010
00001000
00000010
00000000
00001000
00000000
00000000
00000000
,
00010000
00002000
00000000
00003000
,
00100000
00010000
00100000
00000000
00010000
00000000
00000000
00000000
,
10000000
01000000
10000000
00000000
01000000
00000000
00000000
00000000
,
00010000
01000000
00010000
00000000
00001000
00000000
00000000
00000000
,
00010000
00001000
00011000
00000000
,
00000020
00000030
00000002
00000003
,
00002000
00003000
00000200
00000300
,
00002000
00003000
00020000
00030000
,
00200000
00300000
20000000
30000000
,
00100000
10000000
00200000
00300000
,
10000000
01000000
00020000
00030000
,
00001000
00010000
00002000
00003000
,
00000010
00001000
00000200
00000300
,
00000010
00000010
00000001
00000100
,
00000001
00000001
00001000
00000100
,
00010000
00010000
00001000
00010000
,
00100000
00100000
10000000
01000000
,
00100000
10000000
00020000
00030000
,
00001000
00010000
00002000
00003000
,
00000010
00001000
00000002
00000003
,
00001000
00000100
00020000
00030000
,
00200000
00000000
00000000
00300000
,
00020000
00000000
00000000
00000000
00000000
00000000
00030000
00100000
,
00100000
00000000
00000000
10000000
10000000
00000000
00000000
00000000
,
00010000
00000000
01000000
00000000
00010000
00000000
00000000
01000000
,
01000000
00000000
00000000
00010000
00010000
00000000
00000000
00000000
,
00001000
00000000
00010000
00000000
00001000
00000000
00000000
00000010
,
00000010
00000000
00000000
00001000
00001000
00000000
00000000
00000000
,
00000001
00000000
00000100
00000000
00000001
00000000
00000000
00001000
,
00001000
00000000
00000000
00000010
00000010
00000000
00000000
00000000
,
00001000
00010000
00011000
00000000
,
01000000
00010000
01000000
00000000
00010000
00000000
00010000
00000000
,
10000000
00100000
02000000
03000000
,
00010000
01000000
00010000
00000000
00001000
00000000
00001000
00000000
,
00000010
00000001
00002000
00003000
,
00000100
00000001
00000100
00000000
00000010
00000000
00001000
00000000
,
00000100
00010000
00002000
00003000
,
00100000
00010000
00100000
00000000
00010000
00000000
01000000
00000000
,
00100000
10000000
00100000
00000000
02000000
00000000
03000000
00000000
,
10010000
00000000
00000000
00000000
,
00000000
00000000
00000000
00000000
;
#NOTES:
     dance-double:
     :
     Medium:
     8:
     :
00000000
00000000
00000000
00000000
,
00000000
00000000
00000000
00000000
,
00000000
00000000
00000000
00000000
,
00000000
00000000
00000000
00000000
,
00000000
00000000
00000000
00000000
,
00000000
00000000
00000000
00000000
,
10000000
00000000
01000000
00000000
00000000
01000000
00010000
00000000
,
00001000
00000000
00010000
00000000
00000000
00000100
00001000
00000000
,
00000001
00000000
00000010
00000000
00000000
00000100
00001000
00000000
,
00010000
00000000
00001000
00000000
00000000
00100000
00010000
00000000
,
10000000
00000000
00000000
00010000
10000000
00000000
00000000
01000000
,
10000000
00000000
10000000
00010000
01000000
00000000
00000000
01000000
,
00001000
00000000
00000000
00010000
00000010
00000000
00000000
00001000
,
00000001
00000000
00000100
00000000
00000001
00001000
00000000
00000000
,
00000100
00000000
00000000
00010000
00001000
00000000
00000000
00100000
,
00010000
00000000
00010000
10000000
01000000
00000000
00000000
10000000
,
00100000
00000000
00000000
10000000
01000000
00000000
00000000
00100000
,
00010000
00000000
00000000
00100000
00000000
00000000
00010000
00000000
00100000
00000000
00000000
00000000
00000000
00000000
00000000
00000000
,
00001000
00000000
00000000
00000000
00010000
00000000
00000000
00000010
00000000
00000000
00000000
00000000
00001000
00000000
00000001
00000000
,
00000100
00000000
00000000
00000000
00000010
00000000
00000000
00001000
00000000
00000000
00000000
00000000
00000001
00000000
00001000
00000000
,
00000100
00000000
00000000
00000000
00000010
00000000
00000000
00000001
00000000
00000000
00000000
00000000
00000100
00000000
00001000
00000000
,
00010000
00000000
00000000
00000000
00001000
00000000
00000000
00010000
00000000
00000000
00000000
00000000
00100000
00000000
10000000
00000000
,
01000000
00000000
00000000
00000000
10000000
00000000
00000000
00010000
00000000
00000000
00000000
00000000
10000000
00000000
00010000
00000000
,
00100000
00000000
00000000
00000000
01000000
00000000
00000000
10000000
00000000
00000000
00000000
00000000
01000000
00000000
10000000
00000000
,
00100000
00000000
00000000
00000000
01000000
00000000
00000000
00010000
00000000
00000000
00000000
00000000
00100000
00000000
01000000
00000000
,
00010000
00000000
00001000
00000000
00000000
00010000
00000000
00000000
00001000
00000000
00000000
00000000
00000000
00000000
00000000
00000000
,
00000020
00000000
00000000
00000000
00000000
00000000
00000000
00000030
00000000
00000000
00001000
00000000
00000010
00000000
00000000
00000000
,
00002000
00000000
00000000
00000000
00000000
00000000
00000000
00003000
00000000
00000000
00000100
00000000
00001000
00000000
00000000
00000000
,
00020000
00000000
00000000
00000000
00000000
00000000
00000000
00030000
00000000
00000000
00001000
00000000
00010000
00000000
00000000
00000000
,
00200000
00000000
00000000
00000000
00000000
00000000
00000000
00300000
00000000
00000000
00010000
00000000
00100000
00000000
00000000
00000000
,
02000000
00000000
00000000
00000000
00000000
00000000
00000000
03000000
00000000
00000000
00100000
00000000
01000000
00000000
00000000
00000000
,
00020000
00000000
00000000
00000000
00000000
00000000
00000000
00030000
00000000
00000000
00001000
00000000
00010000
00000000
00000000
00000000
,
00000020
00000000
00000000
00000000
00000000
00000000
00000000
00000030
00000000
00000000
00001000
00000000
00000010
00000000
00000000
00000000
,
00000200
00000000
00000000
00000000
00000000
00000000
00000000
00000300
00000000
00000000
00001000
00000000
00000100
00000000
00000000
00000000
,
00002000
00000000
00000000
00000000
00000000
00000000
00000000
00003000
00000000
00000000
00000100
00000000
00001000
00000000
00000000
00000000
,
00020000
00000000
00000000
00000000
00000000
00000000
00000000
00030000
00000000
00000000
00001000
00000000
00010000
00000000
00000000
00000000
,
00200000
00000000
00000000
00000000
00000000
00000000
00000000
00300000
00000000
00000000
00010000
00000000
00100000
00000000
00000000
00000000
,
20000000
00000000
00000000
00000000
00000000
00000000
00000000
30000000
00000000
00000000
01000000
00000000
10000000
00000000
00000000
00000000
,
00010000
00000000
00000000
00000000
00001000
00000000
00000000
00000010
00000000
00000000
00001000
00000000
00000010
00000000
00000000
00000000
,
00001000
00000000
00000000
00000000
00000100
00000000
00000000
00001000
00000000
00000000
00000100
00000000
00001000
00000000
00000000
00000000
,
00010000
00000000
00000000
00000000
00001000
00000000
00000000
00010000
00000000
00000000
00001000
00000000
00010000
00000000
00000000
00000000
,
00000100
00000000
00000000
00000000
00001000
00000000
00000000
00000001
00000000
00000000
00001000
00000000
00000100
00000000
00000000
00000000
,
00022000
00000000
00000000
00000000
,
00000000
00000000
00000000
00000000
00033000
00000000
00000000
00010000
,
00001000
00000000
00000000
00100000
00010000
00000000
00000000
10000000
,
01000000
00000000
10000000
01000000
10000000
00000000
00000000
01000000
,
00100000
00000000
00000000
01000000
00010000
00000000
00000000
00001000
,
00010000
00000000
00001000
00000000
00010000
00001000
00000000
00010000
,
00000010
00000000
00000000
00001000
00000001
00000000
00000000
00001000
,
00000100
00000000
00001000
00000100
00001000
00000000
00000000
00000100
,
00010000
00000000
00000000
00001000
00010000
00000000
00000000
00001000
,
00100000
00000000
00010000
00100000
00010000
00000000
00000000
00000000
,
10000000
00000000
00000000
00000000
00010000
10000000
00000000
00010000
00000000
00000000
00000000
00000000
10000000
00000000
00000000
00000000
,
01000000
00000000
00000000
00000000
00100000
01000000
00000000
00100000
00000000
00000000
00000000
00000000
01000000
00000000
00000000
00000000
,
00010000
00000000
00000000
00000000
00001000
00010000
00000000
00001000
00000000
00000000
00000000
00000000
00010000
00000000
00000000
00000000
,
00000010
00000000
00000000
00000000
00001000
00000010
00000000
00001000
00000000
00000000
00000000
00000000
00000010
00000000
00000000
00000000
,
00000100
00000000
00000000
00000000
00000010
00000100
00000000
00000010
00000000
00000000
00000000
00000000
00000100
00000000
00000000
00000000
,
00001000
00000000
00000000
00000000
00010000
00001000
00000000
00010000
00000000
00000000
00000000
00000000
00001000
00000000
00000000
00000000
,
00100000
00000000
00000000
00000000
00010000
00100000
00000000
00010000
00000000
00000000
00000000
00000000
00100000
00000000
00000000
00000000
,
00001000
00000000
00000000
00000000
00010000
00001000
00000000
00000000
00010000
00000000
00000000
00000000
00001000
00000000
00000000
00000000
,
00011000
00000000
00000000
00000000
,
00000000
00000000
00000000
00000000
;
#NOTES:
     dance-double:
     :
     Hard:
     12:
     :
00000000
00000000
00000000
00000000
,
00000000
00000000
00000000
00000000
,
00000000
00000000
00000000
00000000
,
00000000
00000000
00000000
00000000
,
00000000
00000000
00000000
00000000
,
00000000
00000000
00000000
00000000
,
00100000
10000000
00010000
00000000
01000000
00000000
10000000
00000000
,
01000000
00010000
00100000
00000000
00001000
00000000
00010000
00000000
,
00000100
00000000
00000000
00000000
00001000
00000100
00000000
00000010
00000000
00000000
00000000
00000000
00000001
00000000
00000100
00000000
,
00000101
00000000
00000000
00000001
00000000
00000000
00000011
00000000
00000000
00000000
00000000
00000000
00000000
00000000
00000001
00000000
,
00000010
00000000
00000000
00000001
00000000
00000000
00001000
00000000
00000010
00000000
00000000
00001000
00000000
00000000
00000100
00000000
,
00010000
00000000
00000000
00001000
00000000
00000000
01000000
00000000
00100000
00000000
00000000
00010000
00000000
00000000
00100000
00000000
,
10000000
00000000
00000000
01000000
00000000
00000000
00010000
00000000
00000100
00000000
00000000
00001000
00000000
00000000
00000010
00000000
,
00010000
00000000
00000000
00001000
00000000
00000000
01000000
00000000
00010000
00000000
01010000
00000000
00000000
00000000
10000000
00000000
,
00100000
00000000
00000000
10000000
00000000
00000000
00010000
00000000
00100000
00000000
00000000
00010000
00000000
00000000
01000000
00000000
,
00001000
00000000
00000000
00010000
00000000
00000000
00000100
00000000
00000010
00000000
00000000
00001000
00000000
00000000
00000010
00000000
,
00000001
00000000
00000000
00000100
00000000
00000000
00001000
00000000
01000000
00000000
00000000
00010000
00000000
00000000
00100000
00000000
,
01000000
00000000
00000000
00010000
00000000
00000000
00001000
00000000
00011000
00000000
00000000
00000000
00000000
00000000
00000000
00000000
,
00100000
00000000
00010000
00000000
10000000
00100000
00000000
10000000
00000000
00000000
01000000
00000000
00100000
00000000
00001000
00000000
,
00010000
00000000
00000010
00000000
00001000
00000100
00000000
00000001
00000000
00000000
00000100
00000000
00001000
00000000
00000010
00000000
,
00010000
00000000
00001000
00000000
01000000
00010000
00000000
10000000
00000000
00000000
00100000
00000000
10000000
00000000
01000000
00000000
,
20000000
00000000
00000000
01000000
30000000
00000000
00100000
00010000
01000000
00000000
00001000
00000000
00010000
00000000
00000000
00000000
,
00000010
00000000
00001000
00000000
00000001
00000010
00000000
00000001
00000000
00000000
00000100
00000000
00000010
00000000
00010000
00000000
,
00001000
00000000
00100000
00000000
00010000
01000000
00000000
10000000
00000000
00000000
01000000
00000000
00010000
00000000
00100000
00000000
,
00001000
00000000
00010000
00000000
00000100
00001000
00000000
00000001
00000000
00000000
00000010
00000000
00000001
00000000
00000100
00000000
,
00001000
00000000
00100000
00000000
00000000
00010000
00000000
00000000
00110000
00000000
00000000
00000000
00000000
00000000
00000000
00000000
,
00010000
00100000
00000000
00000000
01000000
10000000
00000000
00000000
00010000
01000000
00000000
00000000
00001000
00010000
00000000
00000000
,
00000010
00001000
00000000
00000000
00000100
00001000
00000000
00000000
00000001
00000010
00000000
00000000
00000001
00000100
00000000
00000000
,
00000100
00001000
00000000
00000000
00000100
00000001
00000000
00000000
00000010
00001000
00000000
00000000
00010000
00001000
00000000
00000000
,
00100000
00010000
00000000
00000000
01000000
00010000
00000000
00000000
10000000
00100000
00000000
00000000
10000000
01000000
00000000
00000000
,
00010000
00100000
00000000
00000000
01000000
10000000
00000000
00000000
00010000
01000000
00000000
00000000
00001000
00010000
00000000
00000000
,
00000010
00001000
00000000
00000000
00000100
00001000
00000000
00000000
00000001
00000010
00000000
00000000
00000001
00000100
00000000
00000000
,
00000100
00001000
00000000
00000000
00000100
00000001
00000000
00000000
00000010
00001000
00000000
00000000
00010000
00001000
00000000
00000000
,
00100000
00010000
00000000
00000000
01000000
00010000
00000000
00000000
10000000
00100000
00000000
00000000
10000000
01000000
10000000
00000000
,
01000000
10000000
01000000
10000000
01000000
10000000
01000000
10000000
,
00010000
00000000
00100000
00000000
00010000
00000000
00100000
00000000
00010000
00000000
00100000
00000000
00010000
00000000
00100000
01000000
,
00010000
00001000
00010000
00000010
00010000
00001000
00010000
00000100
,
00010000
00000000
00001000
00000000
01000000
00000000
00001000
00000000
00010000
00000000
00001000
00000000
00100000
00000000
00010000
01000000
,
00100000
00000000
10000000
00000000
00100000
10000000
01000000
00000000
00100000
00000000
00010000
00000000
00100000
00010000
01000000
00000000
,
00001000
00000000
00010000
00000000
00001000
00010000
00000010
00000000
00001000
00000000
00000100
00000000
00001000
00000100
00000010
00000001
,
00000010
00000000
00000001
00000000
00000010
00000001
00000100
00000000
00000010
00000000
00001000
00000000
00000010
00001000
00000100
00000000
,
00010000
00001000
00010000
00001000
01000000
00000000
00010000
00100000
,
00220000
00000000
00000000
00000000
,
00000000
00000000
00000000
00000000
00330000
00000000
00000000
00000000
00001000
00000000
00000000
00000100
00001000
00000000
00000001
00000000
,
00000010
00000000
00000000
00000001
00000000
00000000
00001000
00000000
00000010
00000000
00000000
00001000
00000000
00000000
00000100
00000000
,
00010000
00000000
00000000
00001000
00000000
00000000
01000000
00000000
00100000
00000000
00000000
00010000
00000000
00000000
00100000
00000000
,
10000000
00000000
00000000
01000000
00000000
00000000
00010000
00000000
00000100
00000000
00000000
00001000
00000000
00000000
00000010
00000000
,
00010000
00000000
00000000
00001000
00000000
00000000
01000000
00000000
00010000
00000000
01010000
00000000
00000000
00000000
10000000
00000000
,
00100000
00000000
00000000
10000000
00000000
00000000
00010000
00000000
00100000
00000000
00000000
00010000
00000000
00000000
01000000
00000000
,
00001000
00000000
00000000
00010000
00000000
00000000
00000100
00000000
00000010
00000000
00000000
00001000
00000000
00000000
00000010
00000000
,
00000001
00000000
00000000
00000100
00000000
00000000
00001000
00000000
01000000
00000000
00000000
00010000
00000000
00000000
00100000
00000000
,
01000000
00000000
00000000
00010000
00000000
00000000
00001000
00000000
00011000
00000000
00000000
00001000
00100000
00000000
00010000
00000000
,
02000000
00000000
00100000
03000000
00010000
01000000
00000000
00002000
00000000
00000000
00100000
00000000
01003000
00000000
00020000
00000000
,
00001000
00000000
00030100
00000000
00001000
00000010
00000000
00000002
00000000
00000000
00000000
00000000
00000003
00000000
00000001
00000000
,
00000020
00000000
00000100
00000030
00001000
00000010
00000000
00020000
00000000
00000000
00000100
00000000
00030010
00000000
00002000
00000000
,
00010000
00000000
00103000
00000000
00010000
01000000
00000000
20000000
00000000
00000000
00000000
00000000
30000000
00000000
10000000
00000000
,
02000000
00000000
00100000
03000000
00010000
01000000
00000000
00002000
00000000
00000000
00100000
00000000
01003000
00000000
00020000
00000000
,
00001000
00000000
00030100
00000000
00001000
00000010
00000000
00000002
00000000
00000000
00000000
00000000
00000003
00000000
00000001
00000000
,
00000020
00000000
00000100
00000030
00001000
00000010
00000000
00020000
00000000
00000000
00000100
00000000
00030010
00000000
00002000
00000000
,
00010000
00000000
00103000
00000000
00010000
10000000
00000000
00000000
00200000
00000000
00000000
00000000
10300000
00000000
00000000
00000000
,
20020000
00000000
00000000
30030000
,
00000000
00000000
00000000
00000000
;
#NOTES:
     dance-double:
     :
     Challenge:
     14:
     :
00000000
00000000
00000000
00000000
,
00000000
00000000
00000000
00000000
,
00000000
00000000
00000000
00000000
,
00000000
00000000
00000000
00000000
,
00000000
00000000
00000000
00000000
,
00000000
00000000
00000000
00000000
,
00000010
00000000
00001000
00000000
00000100
00000010
00000000
00000001
00000000
00000000
00000100
00000000
00001000
00000000
00010000
00000000
,
00100000
00000000
10000000
00000000
00100000
01000000
00000000
00010000
00000000
00000000
10000000
00000000
01000000
00000000
00100000
00000000
,
00001000
00000000
00000000
00000000
00000000
00000000
00001000
00000000
00000000
00000000
00000000
00000000
00100000
00000000
00000000
00010000
00000000
00000000
00000000
00000000
00000000
00100000
00000000
00000000
00000000
00000000
00000000
00000000
00000000
00000000
01000000
00000000
10000000
00000000
01000000
00000000
10000000
00000000
00000000
00000000
00000000
00000000
00010000
00000000
00000000
00000000
00000000
00000000
,
01000000
00000000
00000000
00001000
00000000
00000000
00011000
00000000
00000000
00000000
00000000
00000000
00001000
00000000
00000010
00000000
,
00000002
00000000
00001003
00000100
00000002
00000000
00001003
00000010
,
00000001
00000000
00000000
00000100
00000000
00000010
00010000
00000000
00001000
00000000
00000000
00000000
00010000
00000000
00100000
00000000
,
20000000
00000000
30010000
01000000
20000000
00000000
30010000
00100000
,
10000000
00000000
00000000
01000000
00000000
01000000
00100000
00000000
00001000
00000000
00011000
00000000
00000000
00000000
00001000
00000000
,
00000200
00000000
00000310
00001000
00020000
00000000
00031000
00000010
,
00000100
00000000
00000000
00000001
00000000
00000010
00000100
00000000
00010000
00000000
00000000
00000000
00001000
00000000
00010000
00000000
,
02000000
00000000
03100000
00010000
00002000
00000000
00013000
00100000
,
01000000
00000000
00000000
10000000
00000000
00000000
00100000
00000000
02020000
00000000
00000000
00000000
03030000
00000000
00000000
00000000
,
00100000
00000000
10000000
00000000
00010000
01000000
00000000
01000000
00000000
00100000
10000000
00000000
01000000
00000000
00010000
00000000
,
00001000
00000000
00000100
00000000
00000001
00001000
00000000
00001000
00000000
00000100
00000010
00000000
00000001
00000000
00000100
00000000
,
00000010
00000000
00000000
00000000
00000000
00000000
00010000
00000000
00000000
00000000
00000000
00000000
00001000
00000000
00000000
00010000
00000000
00000000
00000000
00000000
00000000
00010000
00000000
00000000
00000000
00000000
00000000
00000000
00000000
00000000
00100000
00000000
01000000
00000000
00100000
00000000
01000000
00000000
00000000
00000000
00000000
00000000
00010000
00000000
00000000
00000000
00000000
00000000
,
10000000
00000000
00000000
01000000
00000000
00000000
00010000
00001000
00010000
00000000
00001000
00000000
00000100
00000000
00000001
00000000
,
00001000
00000000
00000100
00000000
00000010
00000100
00000000
00000110
00000000
00000100
00000010
00000000
00000001
00000000
00001000
00000000
,
00000010
00000000
00000100
00000000
00001000
00010000
00000000
00011000
00000000
00010000
00001000
00000000
00100000
00000000
00010000
00000000
,
10000000
00000000
00000000
00000000
00000000
00000000
10000000
00000000
00000000
00000000
00000000
00000000
00010000
00000000
00000000
01000000
00000000
00000000
00000000
00000000
00000000
00100000
00000000
00000000
00000000
00000000
00000000
00000000
00000000
00000000
10000000
00000000
00010000
00000000
10000000
00000000
00010000
00000000
00000000
00000000
00000000
00000000
00100000
00000000
00000000
00000000
00000000
00000000
,
01000000
00000000
00010000
00000000
00000000
00001000
00000000
00000000
00022000
00000000
00000000
00000000
00033000
00000000
00000000
00000000
,
00000100
00001000
00000100
00000000
00000010
00000000
00000001
00000000
00000100
00000010
00000100
00000000
00000010
00000000
00010000
00000000
,
00001000
00010000
00001000
00000000
01000000
00000000
00010000
00000000
01000000
00100000
01000000
00000000
00100000
00000000
10000000
00000000
,
00010000
10000000
01000000
00000000
00100000
00000000
00010000
00000000
01000000
00001000
00010000
00000000
00001000
00000000
00000100
00000000
,
00000010
00001000
00000001
00000000
00001000
00000000
00000100
00000000
00000010
00000001
00001000
00000000
00000010
00000000
00000100
00000000
,
00000001
00000100
00000001
00000000
00001000
00000000
00000100
00000000
00010000
00001000
00010000
00000000
00001000
00000000
00100000
00000000
,
00010000
00100000
00010000
00000000
10000000
00000000
01000000
00000000
00100000
01000000
00100000
00000000
00010000
00000000
10000000
00000000
,
00100000
01000000
00010000
00000000
10000000
00000000
01000000
00000000
00100000
00001000
00010000
00000000
00000010
00000000
00001000
00000000
,
00000001
00000010
00000000
00000010
00000100
00000000
00000100
00001000
00000000
00001000
00000001
00000000
00000100
00000000
00000000
00000000
,
00000010
00001000
00000010
00000000
00010000
00001000
00010000
00000000
00001000
00100000
00001000
00000000
01000000
00010000
01000000
00000000
,
00100000
10000000
00100000
00000000
01000000
00100000
01000000
00000000
00010000
10000000
00010000
00000000
00100000
01000000
00100000
00000000
,
00001000
00010000
00001000
00000000
00010000
00000100
00010000
00000000
00000100
00000010
00000100
00000000
00000010
00000001
00000010
00000000
,
00000001
00001000
00000001
00000000
00001000
00000010
00001000
00000000
00000001
00000100
00000001
00000000
00001000
00000100
00001000
00000000
,
00000100
00000000
00010000
00001000
00010000
00000000
00001000
00100000
00010000
00000000
10000000
00100000
10000000
00000000
00010000
01000000
,
00010000
00000000
10000000
01000000
10000000
00000000
00010000
00100000
00010000
00000000
00100000
00001000
00010000
00000000
00000100
00000000
,
00001000
00000000
00000001
00000010
00000001
00000000
00000010
00000100
00000010
00000000
00000100
00001000
00000100
00000000
00001000
00000001
,
00001000
00000000
00000010
00001000
00000010
00000000
00010000
00001000
00010000
00000000
00001000
00100000
00010000
00000000
10000000
00000000
,
00200000
00000000
00000000
00000000
,
00000000
00000000
00000000
00000000
00000000
00000000
00300000
00100000
,
20000000
00000000
30010000
01000000
20000000
00000000
30010000
00100000
,
10000000
00000000
00000000
01000000
00000000
00100000
00001000
00000000
00010000
00000000
00000000
00000000
00001000
00000000
00000010
00000000
,
00000002
00000000
00001003
00000100
00000002
00000000
00001003
00000010
,
00000001
00000000
00000000
00000100
00000000
00000100
00000010
00000000
00010000
00000000
00011000
00000000
00000000
00000000
00010000
00000000
,
02000000
00000000
03100000
00010000
00002000
00000000
00013000
00100000
,
01000000
00000000
00000000
10000000
00000000
00100000
01000000
00000000
00001000
00000000
00000000
00000000
00010000
00000000
00001000
00000000
,
00000200
00000000
00000310
00001000
00020000
00000000
00031000
00000010
,
00000100
00000000
00000000
00000001
00000000
00000001
00000010
00000000
00002200
00000000
00000000
00000000
00003300
00000000
00000100
00000000
,
00000010
00000000
00000010
00000000
00000001
00000100
00000001
00000100
00000000
00000010
00001000
00000000
00010000
00000000
01000000
00000000
,
00100000
00000000
00100000
00000000
10000000
00010000
00000000
02000000
00000000
00000000
00000000
00000000
03000000
00000000
01000000
00000000
,
00100000
00000000
00100000
00000000
00010000
00001000
00010000
00001000
00000000
00100000
01000000
00000000
10000000
00000000
01000000
00000000
,
00010000
00000000
00010000
00000000
00001000
00000010
00000000
00000200
00000000
00000000
00000000
00000000
00000300
00000000
00000100
00000000
,
00000010
00000000
00000010
00000000
00000001
00000100
00000000
00000010
00000100
00000000
00000100
00000000
00001000
00010000
00000000
00001000
,
00100000
00000000
00100000
00000000
00010000
00100000
00000000
00010000
10000000
00000000
10000000
00000000
00100000
01000000
00000000
00010000
,
10000000
00000000
01000000
00100000
01000000
00000000
00100000
00010000
00100000
00000000
00001000
00010000
00001000
00000000
00000000
00000000
,
00000010
00000000
00000001
00000000
00000100
00000010
00000000
00001000
00000001
00000000
00000000
00000000
00000010
00000000
00000000
00000000
,
00002200
00000000
00000000
00003300
,
00000000
00000000
00000000
00000000
;
